osu file format v14

[General]
AudioFilename: audio.mp3
AudioLeadIn: 0
PreviewTime: 58176
Countdown: 0
SampleSet: Soft
StackLeniency: 0.7
Mode: 0
LetterboxInBreaks: 0
WidescreenStoryboard: 0

[Editor]
Bookmarks: 7267,29085,43631,56358,58176,87267,109085,123631,138176,152722,169085,183631,212722,227267,256358,285449
DistanceSpacing: 0.4
BeatDivisor: 4
GridSize: 32
TimelineZoom: 1.8

[Metadata]
Title:Beyond Life
TitleUnicode:Beyond Life
Artist:Helblinde
ArtistUnicode:Helblinde
Creator:Enonigmus
Version:Insane
Source:
Tags:
BeatmapID:1264080
BeatmapSetID:598008

[Difficulty]
HPDrainRate:7
CircleSize:4
OverallDifficulty:7
ApproachRate:9
SliderMultiplier:1.8
SliderTickRate:4

[Events]
//Background and Video events
0,0,"74742.jpg",0,0
//Break Periods
2,87467,101213
2,212922,222122
//Storyboard Layer 0 (Background)
//Storyboard Layer 1 (Fail)
//Storyboard Layer 2 (Pass)
//Storyboard Layer 3 (Foreground)
//Storyboard Sound Samples

[TimingPoints]
-5,454.545454545455,4,2,1,100,1,0
14540,-83.3333333333333,4,2,1,100,0,0
29085,-66.6666666666667,4,2,1,100,0,0
45449,-200,4,2,1,100,0,0
46358,-66.6666666666667,4,2,1,100,0,0
49085,-200,4,2,1,100,0,0
49995,-66.6666666666667,4,2,1,100,0,0
52722,-200,4,2,1,100,0,0
53631,-66.6666666666667,4,2,1,100,0,0
54540,-100,4,2,1,100,0,0
56358,-133.333333333333,4,2,1,100,0,0
58176,-57.1428571428571,4,2,1,100,0,1
87267,-133.333333333333,4,2,1,100,0,0
96358,-133.333333333333,4,2,1,20,0,0
109085,-133.333333333333,4,2,1,20,0,0
110904,-133.333333333333,4,2,1,30,0,0
112722,-133.333333333333,4,2,1,40,0,0
114540,-133.333333333333,4,2,1,50,0,0
116358,-133.333333333333,4,2,1,60,0,0
118176,-133.333333333333,4,2,1,70,0,0
119995,-133.333333333333,4,2,1,80,0,0
121813,-133.333333333333,4,2,1,80,0,0
123631,-133.333333333333,4,2,1,70,0,0
124540,-100,4,2,1,70,0,0
125449,-133.333333333333,4,2,1,70,0,0
126358,-100,4,2,1,70,0,0
127267,-133.333333333333,4,2,1,70,0,0
128176,-100,4,2,1,70,0,0
129085,-200,4,2,1,70,0,0
130904,-133.333333333333,4,2,1,70,0,0
131813,-100,4,2,1,70,0,0
132722,-133.333333333333,4,2,1,70,0,0
133631,-100,4,2,1,70,0,0
134540,-133.333333333333,4,2,1,70,0,0
135449,-100,4,2,1,70,0,0
136358,-200,4,2,1,70,0,0
138177,-66.6666666666667,4,2,1,70,0,0
152722,-71.4285714285714,4,2,1,70,0,0
154540,-76.9230769230769,4,2,1,70,0,0
156358,-83.3333333333333,4,2,1,70,0,0
158176,-90.9090909090909,4,2,1,70,0,0
159995,-100,4,2,1,70,0,0
167267,-83.3333333333333,4,2,1,70,0,0
167722,-66.6666666666667,4,2,1,70,0,0
169085,-57.1428571428571,4,2,1,70,0,1
181813,-66.6666666666667,4,2,1,70,0,0
183631,-57.1428571428571,4,2,1,70,0,1
196358,-66.6666666666667,4,2,1,70,0,0
198176,-57.1428571428571,4,2,1,70,0,1
212722,-66.6666666666667,4,2,1,70,0,0
227267,-83.3333333333333,4,2,1,70,0,0
229995,-66.6666666666667,4,2,1,70,0,0
231358,-83.3333333333333,4,2,1,70,0,0
233631,-66.6666666666667,4,2,1,70,0,0
234995,-83.3333333333333,4,2,1,70,0,0
237267,-66.6666666666667,4,2,1,70,0,0
238631,-83.3333333333333,4,2,1,70,0,0
240904,-66.6666666666667,4,2,1,70,0,0
242267,-83.3333333333333,4,2,1,70,0,0
244540,-66.6666666666667,4,2,1,70,0,0
245904,-83.3333333333333,4,2,1,70,0,0
248176,-66.6666666666667,4,2,1,70,0,0
249540,-83.3333333333333,4,2,1,70,0,0
251813,-66.6666666666667,4,2,1,70,0,0
253176,-83.3333333333333,4,2,1,70,0,0
255449,-66.6666666666667,4,2,1,70,0,0
256813,-83.3333333333333,4,2,1,70,0,0

[Colours]
Combo1 : 72,0,145
Combo2 : 220,220,220
Combo3 : 226,223,114
Combo4 : 26,181,255
Combo5 : 0,108,217
Combo6 : 255,128,0
Combo7 : 0,128,0
Combo8 : 168,0,0

[HitObjects]
223,181,6813,5,2,0:0:0:0:
211,171,6926,1,2,0:0:0:0:
199,162,7040,1,2,0:0:0:0:
188,152,7153,1,2,0:0:0:0:
176,143,7267,6,0,L|142:115,2,45,4|0|0,0:0|0:0|0:0,0:0:0:0:
343,262,7722,2,0,L|370:298,2,45
287,95,8176,2,0,L|297:52,2,45
165,273,8631,2,0,L|128:312,2,45
371,166,9085,2,0,L|415:164,2,45
155,164,9540,2,0,L|78:144,2,45
334,273,9995,2,0,L|371:319,2,45
270,84,10449,2,0,L|285:26,2,45
381,202,10904,6,0,L|422:184,2,45
166,284,11358,2,0,L|124:326,2,45
325,63,11813,2,2,B|319:65|319:65|326:71|326:71|317:72|317:72|323:79|323:79|314:80|314:80|320:86|320:86|311:87|311:87|317:94|317:94|308:95|308:95|315:101|315:101|306:102|306:102|312:109|312:109|303:110|303:110|308:116,1,90,0|0,0:0|0:0,0:0:0:0:
297,287,12267,2,0,L|317:335,2,45
182,118,12722,2,0,L|138:80,2,45
377,197,13176,2,0,L|437:194,2,45
147,242,13631,2,0,L|102:283,2,45
280,50,14085,5,2,0:0:0:0:
280,50,14199,1,2,0:0:0:0:
280,50,14313,1,2,0:0:0:0:
280,50,14426,1,2,0:0:0:0:
280,50,14540,6,0,P|334:51|375:82,1,107.999996704102,4|0,0:0|0:0,0:0:0:0:
327,267,14995,1,8,0:0:0:0:
276,180,15222,1,0,0:0:0:0:
139,315,15449,2,0,P|92:259|90:224,1,107.999996704102
171,47,15904,1,8,0:0:0:0:
83,67,16131,1,0,0:0:0:0:
206,198,16358,6,0,P|261:229|305:231,1,107.999996704102
406,66,16813,1,8,0:0:0:0:
451,157,17040,1,0,0:0:0:0:
295,57,17267,2,0,P|224:51|190:71,1,107.999996704102
98,260,17722,1,8,0:0:0:0:
46,190,17949,1,0,0:0:0:0:
255,184,18176,5,0,0:0:0:0:
255,184,18290,1,0,0:0:0:0:
255,184,18404,1,0,0:0:0:0:
379,268,18631,1,8,0:0:0:0:
301,323,18858,1,0,0:0:0:0:
334,108,19085,6,2,B|352:102|352:102|366:113|366:113|383:108|383:108|398:119|398:119|415:114|415:114|429:124,1,107.999996704102,0|0,0:0|0:0,0:0:0:0:
456,302,19540,2,0,L|480:352,2,53.9999983520508,8|0|0,0:0|0:0|0:0,0:0:0:0:
284,179,19995,2,0,P|238:139|181:122,1,107.999996704102
10,90,20449,1,8,0:0:0:0:
48,19,20676,1,0,0:0:0:0:
74,200,20904,2,0,L|35:236,2,53.9999983520508
251,94,21358,1,10,0:0:0:0:
251,94,21472,1,2,0:0:0:0:
251,94,21585,1,2,0:0:0:0:
251,94,21699,1,2,0:0:0:0:
251,94,21813,6,0,P|279:171|303:184,1,107.999996704102,4|0,0:0|0:0,0:0:0:0:
474,130,22268,1,8,0:0:0:0:
503,217,22495,1,0,0:0:0:0:
285,343,22722,2,0,P|208:338|173:316,1,107.999996704102
26,207,23177,1,8,0:0:0:0:
12,309,23404,1,0,0:0:0:0:
105,146,23631,6,0,P|141:89|181:73,1,107.999996704102
414,108,24086,1,8,0:0:0:0:
360,38,24313,1,0,0:0:0:0:
316,200,24540,6,0,P|270:268|238:284,1,107.999996704102
48,274,24995,1,8,0:0:0:0:
90,356,25222,1,0,0:0:0:0:
183,189,25449,5,0,0:0:0:0:
183,189,25563,1,0,0:0:0:0:
183,189,25677,1,0,0:0:0:0:
254,52,25904,1,8,0:0:0:0:
313,129,26131,1,0,0:0:0:0:
109,78,26358,6,2,B|92:85|92:85|90:103|90:103|75:111|75:111|72:130|72:130|56:138|56:138|53:155,1,107.999996704102,0|0,0:0|0:0,0:0:0:0:
108,337,26813,2,0,L|67:371,2,53.9999983520508,8|0|0,0:0|0:0|0:0,0:0:0:0:
292,356,27268,2,0,P|324:284|306:247,1,107.999996704102
185,169,27722,1,8,0:0:0:0:
193,77,27949,1,0,0:0:0:0:
363,67,28177,2,0,L|419:45,2,53.9999983520508
377,176,28631,5,10,0:0:0:0:
377,176,28745,1,2,0:0:0:0:
377,176,28858,1,2,0:0:0:0:
377,176,28972,1,2,0:0:0:0:
377,176,29085,5,6,0:0:0:0:
282,353,29313,2,0,L|350:295,1,67.5000025749207,2|0,0:0|0:0,0:0:0:0:
260,129,29540,1,10,0:0:0:0:
165,306,29768,2,0,L|233:248,1,67.5000025749207,2|0,0:0|0:0,0:0:0:0:
143,83,29995,1,2,0:0:0:0:
48,260,30223,2,0,L|116:202,1,67.5000025749207,2|0,0:0|0:0,0:0:0:0:
266,57,30449,5,10,0:0:0:0:
288,53,30562,1,2,0:0:0:0:
310,50,30676,1,2,0:0:0:0:
332,47,30789,1,2,0:0:0:0:
355,44,30903,5,6,0:0:0:0:
464,233,31131,2,0,L|446:145,1,67.5000025749207,2|0,0:0|0:0,0:0:0:0:
290,119,31358,1,10,0:0:0:0:
399,308,31586,2,0,L|381:220,1,67.5000025749207,2|0,0:0|0:0,0:0:0:0:
225,194,31813,1,2,0:0:0:0:
335,384,32041,2,0,L|317:296,1,67.5000025749207,2|0,0:0|0:0,0:0:0:0:
172,272,32267,5,10,0:0:0:0:
158,254,32380,1,2,0:0:0:0:
144,236,32494,1,2,0:0:0:0:
131,218,32607,1,2,0:0:0:0:
117,200,32721,5,6,0:0:0:0:
329,183,32949,2,0,L|246:217,1,67.5000025749207
100,116,33176,1,10,0:0:0:0:
312,99,33404,2,0,L|229:133,1,67.5000025749207,2|0,0:0|0:0,0:0:0:0:
87,32,33631,1,2,0:0:0:0:
299,15,33859,2,0,L|216:49,1,67.5000025749207,2|0,0:0|0:0,0:0:0:0:
72,176,34085,5,10,0:0:0:0:
89,190,34198,1,2,0:0:0:0:
106,204,34312,1,2,0:0:0:0:
123,219,34425,1,2,0:0:0:0:
141,233,34540,5,6,0:0:0:0:
250,372,34767,2,0,L|162:341,1,67.5000025749207,2|0,0:0|0:0,0:0:0:0:
216,164,34995,1,10,0:0:0:0:
324,302,35223,2,0,L|236:271,1,67.5000025749207,2|0,0:0|0:0,0:0:0:0:
291,94,35449,1,2,0:0:0:0:
399,232,35677,2,0,L|311:201,1,67.5000025749207,2|0,0:0|0:0,0:0:0:0:
184,54,35904,5,10,0:0:0:0:
184,54,36017,1,10,0:0:0:0:
184,54,36131,1,10,0:0:0:0:
184,54,36245,1,10,0:0:0:0:
184,54,36358,5,6,0:0:0:0:
360,148,36586,2,0,L|302:80,1,67.5000025749207,2|0,0:0|0:0,0:0:0:0:
136,170,36813,1,10,0:0:0:0:
313,265,37041,2,0,L|255:197,1,67.5000025749207,2|0,0:0|0:0,0:0:0:0:
90,288,37268,1,2,0:0:0:0:
267,382,37496,2,0,L|209:314,1,67.5000025749207,2|0,0:0|0:0,0:0:0:0:
377,332,37722,5,10,0:0:0:0:
395,319,37835,1,2,0:0:0:0:
413,305,37949,1,2,0:0:0:0:
430,292,38062,1,2,0:0:0:0:
449,278,38176,5,6,0:0:0:0:
392,67,38404,2,0,L|441:141,1,67.5000025749207,2|0,0:0|0:0,0:0:0:0:
350,271,38631,1,10,0:0:0:0:
293,60,38859,2,0,L|342:134,1,67.5000025749207,2|0,0:0|0:0,0:0:0:0:
251,264,39086,1,2,0:0:0:0:
194,51,39314,2,0,L|243:125,1,67.5000025749207,2|0,0:0|0:0,0:0:0:0:
76,177,39540,5,10,0:0:0:0:
94,166,39653,1,2,0:0:0:0:
114,156,39767,1,2,0:0:0:0:
134,147,39880,1,2,0:0:0:0:
153,136,39994,5,6,0:0:0:0:
134,347,40222,2,0,L|115:259,1,67.5000025749207
240,134,40449,1,10,0:0:0:0:
220,344,40677,2,0,L|200:256,1,67.5000025749207,2|0,0:0|0:0,0:0:0:0:
325,135,40904,1,2,0:0:0:0:
305,347,41132,2,0,L|284:263,1,67.5000025749207,2|0,0:0|0:0,0:0:0:0:
434,271,41358,5,10,0:0:0:0:
426,249,41471,1,2,0:0:0:0:
418,228,41585,1,2,0:0:0:0:
410,207,41698,1,2,0:0:0:0:
403,186,41812,5,6,0:0:0:0:
377,12,42040,2,0,L|430:80,1,67.5000025749207,2|0,0:0|0:0,0:0:0:0:
303,209,42268,1,10,0:0:0:0:
278,35,42496,2,0,L|338:105,1,67.5000025749207,2|0,0:0|0:0,0:0:0:0:
203,232,42722,1,2,0:0:0:0:
178,59,42950,2,0,L|238:129,1,67.5000025749207,2|0,0:0|0:0,0:0:0:0:
55,221,43176,5,10,0:0:0:0:
55,221,43290,1,10,0:0:0:0:
55,221,43404,1,10,0:0:0:0:
55,221,43517,1,10,0:0:0:0:
55,221,43631,6,0,L|88:286,3,67.5000025749207,6|2|2|2,0:0|0:0|0:0|0:0,0:0:0:0:
192,371,44085,2,0,L|241:325,3,67.5000025749207,10|2|2|2,0:0|0:0|0:0|0:0,0:0:0:0:
298,205,44540,2,0,L|261:138,1,67.5000025749207,2|0,0:0|0:0,0:0:0:0:
409,306,44767,2,0,L|436:369,1,67.5000025749208,2|0,0:0|0:0,0:0:0:0:
452,159,44995,2,0,L|428:25,1,135.000005149842,10|0,0:0|0:0,0:0:0:0:
177,55,45449,6,2,L|152:97,3,45,0|0|8|0,0:0|0:0|0:0|0:0,0:0:0:0:
127,310,46358,5,2,0:0:0:0:
127,310,46585,1,2,0:0:0:0:
372,375,46813,1,10,0:0:0:0:
372,375,47040,1,2,0:0:0:0:
440,103,47267,6,0,L|372:66,3,67.5000025749207,6|2|2|2,0:0|0:0|0:0|0:0,0:0:0:0:
231,15,47722,2,0,L|168:51,3,67.5000025749208,10|2|2|2,0:0|0:0|0:0|0:0,0:0:0:0:
256,177,48176,2,0,L|297:240,1,67.5000025749207,2|0,0:0|0:0,0:0:0:0:
123,195,48403,2,0,L|86:138,1,67.5000025749208,2|0,0:0|0:0,0:0:0:0:
75,319,48631,2,0,L|213:348,1,135.000005149841,10|0,0:0|0:0,0:0:0:0:
412,309,49085,6,2,L|396:262,3,45,0|0|8|0,0:0|0:0|0:0|0:0,0:0:0:0:
290,192,49995,2,0,L|194:349,1,135.000005149841,2|0,0:0|0:0,0:0:0:0:
154,192,50449,2,0,L|247:38,1,135.000005149841,10|0,0:0|0:0,0:0:0:0:
395,40,50904,6,0,L|447:109,3,67.5000025749207,6|2|2|2,0:0|0:0|0:0|0:0,0:0:0:0:
375,223,51358,2,0,L|306:249,3,67.5000025749207,10|2|2|2,0:0|0:0|0:0|0:0,0:0:0:0:
200,324,51813,2,0,L|264:366,1,67.5000025749207,2|0,0:0|0:0,0:0:0:0:
95,254,52040,2,0,L|19:270,1,67.5000025749207,2|0,0:0|0:0,0:0:0:0:
209,187,52268,2,0,L|281:64,1,135.000005149841,10|0,0:0|0:0,0:0:0:0:
463,46,52722,6,2,L|470:91,3,45,0|0|8|0,0:0|0:0|0:0|0:0,0:0:0:0:
476,287,53631,5,2,0:0:0:0:
476,287,53858,1,2,0:0:0:0:
358,210,54086,1,10,0:0:0:0:
358,210,54313,1,2,0:0:0:0:
282,285,54540,6,0,L|246:321,3,45,6|2|2|2,0:0|0:0|0:0|0:0,0:0:0:0:
148,341,54994,2,0,L|128:294,3,45,10|2|2|2,0:0|0:0|0:0|0:0,0:0:0:0:
129,199,55449,2,0,L|174:222,1,45,2|0,0:0|0:0,0:0:0:0:
97,99,55676,2,0,L|50:120,1,45,2|0,0:0|0:0,0:0:0:0:
200,122,55904,2,0,L|277:72,1,90,10|0,0:0|0:0,0:0:0:0:
431,128,56358,5,14,0:0:0:0:
363,258,56699,1,10,0:0:0:0:
363,258,56813,1,8,0:0:0:0:
266,308,57040,1,10,0:0:0:0:
266,308,57154,1,8,0:0:0:0:
153,298,57381,1,10,0:0:0:0:
153,298,57495,1,8,0:0:0:0:
112,160,57722,5,8,0:0:0:0:
122,127,57835,1,8,0:0:0:0:
139,99,57949,1,8,0:0:0:0:
163,75,58062,1,8,0:0:0:0:
192,58,58176,6,0,P|272:34|343:49,1,157.500001502037,14|0,0:0|0:0,0:0:0:0:
287,282,58631,5,8,0:0:0:0:
374,334,58858,1,0,0:0:0:0:
465,107,59085,1,8,0:0:0:0:
389,175,59313,1,0,0:0:0:0:
186,40,59540,6,0,P|107:42|46:88,1,157.500001502037,10|0,0:0|0:0,0:0:0:0:
68,313,59995,2,0,P|108:336|216:323,1,157.500001502037,14|0,0:0|0:0,0:0:0:0:
227,99,60449,5,8,0:0:0:0:
320,49,60676,1,0,0:0:0:0:
160,256,60904,1,8,0:0:0:0:
161,170,61131,1,0,0:0:0:0:
412,274,61358,6,0,P|459:218|477:138,1,157.500001502037,10|0,0:0|0:0,0:0:0:0:
193,35,61813,2,0,P|116:39|47:98,1,157.500001502037,14|0,0:0|0:0,0:0:0:0:
256,183,62267,5,8,0:0:0:0:
163,154,62495,1,0,0:0:0:0:
300,351,62722,6,0,P|353:354|459:137,1,315.000003004074,10|8,0:0|0:0,0:0:0:0:
331,208,63404,1,0,0:0:0:0:
324,78,63631,2,0,P|263:35|174:44,1,157.500001502037,14|0,0:0|0:0,0:0:0:0:
245,246,64085,5,8,0:0:0:0:
190,165,64313,1,0,0:0:0:0:
130,359,64540,6,0,P|50:324|36:260,1,157.500001502037,10|0,0:0|0:0,0:0:0:0:
112,75,64995,2,0,P|201:63|244:109,1,157.500001502037,10|0,0:0|0:0,0:0:0:0:
326,313,65449,2,0,P|411:330|427:276,1,157.500001502037,14|0,0:0|0:0,0:0:0:0:
374,77,65904,5,8,0:0:0:0:
457,28,66131,1,0,0:0:0:0:
361,248,66358,1,8,0:0:0:0:
345,164,66585,1,0,0:0:0:0:
186,334,66813,6,0,P|115:294|88:225,1,157.500001502037,10|0,0:0|0:0,0:0:0:0:
266,57,67267,2,0,P|359:69|413:106,1,157.500001502037,14|0,0:0|0:0,0:0:0:0:
314,317,67722,5,8,0:0:0:0:
301,213,67949,1,0,0:0:0:0:
130,326,68176,6,0,P|85:254|75:178,1,157.500001502037,10|0,0:0|0:0,0:0:0:0:
166,25,68631,2,0,P|234:68|264:169,1,157.500001502037,10|0,0:0|0:0,0:0:0:0:
371,346,69085,2,0,P|447:281|454:222,1,157.500001502037,14|0,0:0|0:0,0:0:0:0:
192,224,69540,6,0,L|54:301,1,157.500001502037,10|0,0:0|0:0,0:0:0:0:
288,168,69995,2,0,L|290:9,1,157.500001502037,10|0,0:0|0:0,0:0:0:0:
288,279,70449,2,0,L|423:360,1,157.500001502037,10|0,0:0|0:0,0:0:0:0:
467,212,70904,6,0,B|471:66|268:20|57:67,1,472.500004506111,14|0,0:0|0:0,0:0:0:0:
79,277,71813,2,0,B|165:378|399:372|379:128|239:134,1,472.500004506111,14|0,0:0|0:0,0:0:0:0:
166,43,72722,6,0,P|114:57|55:144,1,157.500001502037,14|0,0:0|0:0,0:0:0:0:
144,357,73177,5,8,0:0:0:0:
75,286,73404,1,0,0:0:0:0:
187,120,73631,1,8,0:0:0:0:
166,208,73859,1,0,0:0:0:0:
338,54,74086,6,0,P|430:79|463:131,1,157.500001502037,10|0,0:0|0:0,0:0:0:0:
294,343,74541,2,0,P|221:351|155:306,1,157.500001502037,14|0,0:0|0:0,0:0:0:0:
231,28,74995,5,8,0:0:0:0:
191,104,75222,1,0,0:0:0:0:
232,272,75450,1,8,0:0:0:0:
217,192,75677,1,0,0:0:0:0:
420,337,75904,6,0,P|448:299|444:188,1,157.500001502037,10|0,0:0|0:0,0:0:0:0:
227,31,76359,2,0,P|150:35|82:86,1,157.500001502037,14|0,0:0|0:0,0:0:0:0:
261,185,76813,5,8,0:0:0:0:
168,204,77041,1,0,0:0:0:0:
320,354,77268,6,0,P|433:295|470:122,1,315.000003004074,10|8,0:0|0:0,0:0:0:0:
321,174,77949,1,0,0:0:0:0:
218,56,78177,2,0,P|114:68|75:117,1,157.500001502037,14|0,0:0|0:0,0:0:0:0:
232,286,78631,5,8,0:0:0:0:
195,194,78859,1,0,0:0:0:0:
447,261,79086,6,0,P|470:197|436:117,1,157.500001502037,10|0,0:0|0:0,0:0:0:0:
203,42,79541,2,0,P|156:63|108:158,1,157.500001502037,10|0,0:0|0:0,0:0:0:0:
295,355,79995,2,0,P|354:293|346:225,1,157.500001502037,14|0,0:0|0:0,0:0:0:0:
181,356,80450,5,8,0:0:0:0:
90,313,80677,1,0,0:0:0:0:
206,111,80904,1,8,0:0:0:0:
176,215,81131,1,0,0:0:0:0:
384,49,81359,6,0,P|443:98|451:181,1,157.500001502037,10|0,0:0|0:0,0:0:0:0:
227,305,81813,2,0,P|154:311|84:245,1,157.500001502037,14|0,0:0|0:0,0:0:0:0:
250,103,82268,5,8,0:0:0:0:
152,93,82495,1,0,0:0:0:0:
408,44,82722,6,0,P|446:149|438:191,1,157.500001502037,10|0,0:0|0:0,0:0:0:0:
258,377,83177,2,0,P|231:341|230:229,1,157.500001502037,10|0,0:0|0:0,0:0:0:0:
208,26,83631,2,0,P|133:51|79:132,1,157.500001502037,14|0,0:0|0:0,0:0:0:0:
320,224,84085,6,0,L|458:301,1,157.500001502037,10|0,0:0|0:0,0:0:0:0:
224,168,84540,2,0,L|221:9,1,157.500001502037,10|0,0:0|0:0,0:0:0:0:
224,279,84994,2,0,L|88:360,1,157.500001502037,10|0,0:0|0:0,0:0:0:0:
45,198,85450,6,0,B|163:28|355:192|470:33,1,472.500004506111,14|0,0:0|0:0,0:0:0:0:
461,194,86359,2,0,B|419:338|214:376|97:153,1,472.500004506111,14|0,0:0|0:0,0:0:0:0:
233,32,87267,5,12,0:0:0:0:
256,192,101813,12,0,108176,0:0:0:0:
93,90,109085,6,0,L|192:68,1,101.250003862381,2|0,0:0|0:0,0:0:0:0:
306,66,109995,2,0,L|417:109,1,101.250003862381,2|0,0:0|0:0,0:0:0:0:
428,231,110904,6,0,L|329:191,1,101.250003862381,2|0,0:0|0:0,0:0:0:0:
209,153,111813,2,0,L|117:200,1,101.250003862381,2|0,0:0|0:0,0:0:0:0:
192,342,112722,6,0,L|246:252,1,101.250003862381,2|0,0:0|0:0,0:0:0:0:
334,47,113631,2,0,L|349:149,1,101.250003862381,2|0,0:0|0:0,0:0:0:0:
421,326,114540,2,0,L|331:271,1,101.250003862381,2|0,0:0|0:0,0:0:0:0:
208,267,115449,2,0,L|109:327,1,101.250003862381,2|0,0:0|0:0,0:0:0:0:
415,189,116358,5,2,0:0:0:0:
415,189,116699,1,0,0:0:0:0:
296,132,117267,5,2,0:0:0:0:
296,132,117608,1,0,0:0:0:0:
360,317,118176,5,2,0:0:0:0:
360,317,118517,1,0,0:0:0:0:
122,203,119085,5,2,0:0:0:0:
122,203,119426,1,0,0:0:0:0:
243,324,119995,5,2,0:0:0:0:
243,324,120336,1,0,0:0:0:0:
357,86,120904,5,2,0:0:0:0:
357,86,121245,1,0,0:0:0:0:
256,192,121813,12,0,123404,0:0:0:0:
358,324,123631,6,0,L|269:136,1,202.500007724762,12|0,0:0|0:0,0:0:0:0:
134,34,124540,6,0,L|222:59,1,90,2|0,0:0|0:0,0:0:0:0:
420,74,124995,2,0,L|332:99,1,90,2|0,0:0|0:0,0:0:0:0:
88,180,125449,6,0,L|270:271,1,202.500007724762,12|0,0:0|0:0,0:0:0:0:
334,357,126358,6,0,L|373:267,1,90,2|0,0:0|0:0,0:0:0:0:
365,71,126813,2,0,L|404:161,1,90,2|0,0:0|0:0,0:0:0:0:
255,182,127267,6,0,L|65:98,1,202.500007724762,12|0,0:0|0:0,0:0:0:0:
277,78,128176,6,0,L|339:2,1,90,2|0,0:0|0:0,0:0:0:0:
362,144,128631,2,0,L|418:213,1,90,2|0,0:0|0:0,0:0:0:0:
320,320,129085,6,0,L|181:215,1,157.5,4|0,0:0|0:0,0:0:0:0:
192,128,129995,2,0,L|317:222,1,157.5,4|0,0:0|0:0,0:0:0:0:
434,260,130904,6,0,L|391:40,1,202.500007724762,12|0,0:0|0:0,0:0:0:0:
200,20,131813,6,0,L|222:108,1,90,2|0,0:0|0:0,0:0:0:0:
285,272,132268,2,0,L|219:208,1,90,2|0,0:0|0:0,0:0:0:0:
51,102,132722,6,0,L|94:299,1,202.500007724762,12|0,0:0|0:0,0:0:0:0:
190,92,133631,6,0,L|201:189,1,90,2|0,0:0|0:0,0:0:0:0:
306,355,134086,2,0,L|227:296,1,90,2|0,0:0|0:0,0:0:0:0:
308,197,134540,6,0,L|467:64,1,202.500007724762,12|0,0:0|0:0,0:0:0:0:
290,95,135449,6,0,L|352:19,1,90,2|0,0:0|0:0,0:0:0:0:
395,234,135904,2,0,L|492:209,1,90,2|0,0:0|0:0,0:0:0:0:
282,180,136358,6,0,L|143:285,1,157.5,4|0,0:0|0:0,0:0:0:0:
154,372,137268,2,0,L|279:277,1,157.5,4|0,0:0|0:0,0:0:0:0:
354,202,138176,5,14,0:0:0:0:
354,202,138290,2,0,P|362:158|345:128,1,67.5000025749208,2|0,0:0|0:0,0:0:0:0:
195,21,138631,2,0,P|139:91|144:148,1,135.000005149842,2|0,0:0|0:0,0:0:0:0:
145,144,138972,1,2,0:0:0:0:
33,175,139199,1,2,0:0:0:0:
33,175,139313,6,0,L|95:273,1,67.5000025749208,2|0,0:0|0:0,0:0:0:0:
138,338,139540,2,0,L|63:333,1,67.5000025749208,6|0,0:0|0:0,0:0:0:0:
138,338,139767,2,0,L|186:289,1,67.5000025749208,4|0,0:0|0:0,0:0:0:0:
301,342,139995,5,2,0:0:0:0:
301,342,140108,2,0,P|344:334|364:310,1,67.5000025749208,2|0,0:0|0:0,0:0:0:0:
446,104,140449,2,0,P|365:119|333:157,1,135.000005149842,2|0,0:0|0:0,0:0:0:0:
330,170,140790,1,2,0:0:0:0:
190,214,141017,1,2,0:0:0:0:
190,214,141131,6,0,L|203:147,1,67.5000025749208,2|0,0:0|0:0,0:0:0:0:
226,33,141358,2,0,L|283:73,1,67.5000025749208,6|0,0:0|0:0,0:0:0:0:
226,33,141585,2,0,L|161:50,1,67.5000025749208,4|0,0:0|0:0,0:0:0:0:
310,168,141813,6,0,P|362:158|399:85,1,135.000005149842,2|0,0:0|0:0,0:0:0:0:
451,235,142267,2,0,P|407:292|346:298,1,135.000005149842,2|0,0:0|0:0,0:0:0:0:
335,293,142608,1,2,0:0:0:0:
311,105,142835,1,2,0:0:0:0:
311,105,142949,6,0,L|249:78,1,67.5000025749208,2|0,0:0|0:0,0:0:0:0:
130,129,143176,2,0,L|97:194,1,67.5000025749208,6|0,0:0|0:0,0:0:0:0:
130,129,143404,2,0,L|111:63,1,67.5000025749208,4|0,0:0|0:0,0:0:0:0:
237,238,143631,6,0,P|281:297|337:325,1,135.000005149842,2|0,0:0|0:0,0:0:0:0:
149,349,144085,2,0,P|135:278|152:214,1,135.000005149842,2|0,0:0|0:0,0:0:0:0:
156,206,144426,1,2,0:0:0:0:
288,86,144654,1,2,0:0:0:0:
288,86,144767,6,0,L|351:124,1,67.5000025749208,2|0,0:0|0:0,0:0:0:0:
381,239,144995,2,0,L|313:266,1,67.5000025749208,6|0,0:0|0:0,0:0:0:0:
381,239,145222,2,0,L|434:288,1,67.5000025749208,4|0,0:0|0:0,0:0:0:0:
220,352,145449,5,2,0:0:0:0:
220,352,145563,2,0,P|176:331|164:317,1,67.5000025749208,2|0,0:0|0:0,0:0:0:0:
82,124,145904,2,0,P|92:195|143:233,1,135.000005149842,2|0,0:0|0:0,0:0:0:0:
152,233,146245,1,2,0:0:0:0:
378,301,146472,1,2,0:0:0:0:
378,301,146585,6,0,L|386:231,1,67.5000025749208,2|0,0:0|0:0,0:0:0:0:
408,55,146813,2,0,L|262:78,1,135.000005149842,6|0,0:0|0:0,0:0:0:0:
262,82,147154,1,2,0:0:0:0:
250,88,147267,6,0,P|239:59|212:23,2,67.5000025749208,2|2|0,0:0|0:0|0:0,0:0:0:0:
105,106,147722,2,0,P|118:179|166:240,1,135.000005149842,2|0,0:0|0:0,0:0:0:0:
164,234,148063,2,0,P|196:211|205:183,2,67.5000025749208,2|2|2,0:0|0:0|0:0,0:0:0:0:
155,244,148404,6,0,L|84:276,1,67.5000025749208,2|0,0:0|0:0,0:0:0:0:
303,169,148631,2,0,L|276:310,1,135.000005149842,6|0,0:0|0:0,0:0:0:0:
285,313,148972,1,2,0:0:0:0:
294,322,149085,6,0,L|423:260,1,135.000005149842,2|0,0:0|0:0,0:0:0:0:
464,46,149540,2,0,L|390:158,1,135.000005149842,2|0,0:0|0:0,0:0:0:0:
380,169,149881,1,2,0:0:0:0:
257,42,150108,1,2,0:0:0:0:
257,42,150222,6,0,L|145:62,1,67.5000025749208,2|0,0:0|0:0,0:0:0:0:
62,96,150449,2,0,L|189:159,1,135.000005149842,2|0,0:0|0:0,0:0:0:0:
299,214,150790,1,0,0:0:0:0:
299,214,150904,6,0,L|182:285,1,135.000005149842,2|0,0:0|0:0,0:0:0:0:
299,214,151358,2,0,L|414:284,1,135.000005149842,2|0,0:0|0:0,0:0:0:0:
312,301,151699,1,2,0:0:0:0:
312,301,151813,6,0,L|195:372,1,135.000005149842,2|0,0:0|0:0,0:0:0:0:
312,301,152267,2,0,L|427:371,1,135.000005149842,2|0,0:0|0:0,0:0:0:0:
334,179,152608,1,2,0:0:0:0:
334,179,152722,6,0,L|245:84,1,125.999996154785,10|0,0:0|0:0,0:0:0:0:
334,179,153176,2,0,L|465:189,1,125.999996154785,10|0,0:0|0:0,0:0:0:0:
170,212,153517,1,2,0:0:0:0:
170,212,153631,2,0,L|99:326,1,125.999996154785,10|0,0:0|0:0,0:0:0:0:
170,212,154085,2,0,L|94:104,1,125.999996154785,10|0,0:0|0:0,0:0:0:0:
343,112,154426,1,2,0:0:0:0:
343,112,154540,6,0,L|448:60,1,116.999994644165,10|0,0:0|0:0,0:0:0:0:
343,112,154995,2,0,L|237:62,1,116.999994644165,10|0,0:0|0:0,0:0:0:0:
299,217,155335,1,2,0:0:0:0:
299,217,155449,2,0,L|407:268,1,116.999994644165,2|0,0:0|0:0,0:0:0:0:
299,217,155904,2,0,L|212:309,1,116.999994644165,10|0,0:0|0:0,0:0:0:0:
122,197,156245,1,2,0:0:0:0:
122,197,156358,6,0,P|86:126|186:61,1,215.999993408203,10|10,0:0|0:0,0:0:0:0:
369,224,157154,1,2,0:0:0:0:
369,224,157267,2,0,P|438:208|415:90,1,215.999993408203,10|10,0:0|0:0,0:0:0:0:
246,204,158063,1,2,0:0:0:0:
246,204,158176,6,0,P|180:302|101:320,1,198.000006042481,10|10,0:0|0:0,0:0:0:0:
100,158,158972,1,2,0:0:0:0:
100,158,159085,2,0,P|173:60|255:46,1,198.000006042481,10|0,0:0|0:0,0:0:0:0:
341,112,159995,6,0,L|434:87,1,90,8|8,0:0|0:0,0:0:0:0:
397,196,160449,2,0,L|304:221,1,90,8|8,0:0|0:0,0:0:0:0:
248,137,160904,2,0,L|162:61,1,90,8|8,0:0|0:0,0:0:0:0:
164,193,161358,2,0,L|251:269,1,90,8|8,0:0|0:0,0:0:0:0:
322,318,161813,5,8,0:0:0:0:
322,318,162040,1,8,0:0:0:0:
462,209,162267,1,8,0:0:0:0:
462,209,162495,1,8,0:0:0:0:
353,31,162722,1,8,0:0:0:0:
353,31,162949,1,8,0:0:0:0:
252,236,163176,1,8,0:0:0:0:
252,236,163404,1,8,0:0:0:0:
189,52,163631,5,8,0:0:0:0:
160,61,163744,1,8,0:0:0:0:
134,76,163858,1,8,0:0:0:0:
111,95,163971,1,8,0:0:0:0:
92,118,164085,1,8,0:0:0:0:
76,144,164199,1,8,0:0:0:0:
66,172,164312,1,8,0:0:0:0:
61,201,164426,1,8,0:0:0:0:
61,231,164540,1,8,0:0:0:0:
67,261,164653,1,8,0:0:0:0:
78,289,164767,1,8,0:0:0:0:
93,314,164880,1,8,0:0:0:0:
113,337,164995,6,0,L|127:346,12,11.25,8|8|8|8|8|8|8|8|8|8|8|8|8,0:0|0:0|0:0|0:0|0:0|0:0|0:0|0:0|0:0|0:0|0:0|0:0|0:0,0:0:0:0:
214,358,165449,6,0,P|279:353|300:336,3,90,14|0|0|0,0:0|0:0|0:0|0:0,0:0:0:0:
243,184,166358,2,0,P|255:140|293:103,3,90,2|0|0|0,0:0|0:0|0:0|0:0,0:0:0:0:
442,98,167267,2,0,L|405:58,3,53.9999983520508,10|8|8|8,0:0|0:0|0:0|0:0,0:0:0:0:
275,30,167722,2,0,L|204:45,3,67.5000025749208,8|8|8|8,0:0|0:0|0:0|0:0,0:0:0:0:
105,218,168176,1,10,0:0:0:0:
95,250,168289,1,8,0:0:0:0:
98,283,168403,1,8,0:0:0:0:
113,313,168516,1,8,0:0:0:0:
137,336,168631,2,0,L|211:364,3,67.5000025749208,12|12|8|12,0:0|0:0|0:0|0:0,0:0:0:0:
355,319,169085,5,14,0:0:0:0:
355,319,169199,2,0,P|389:281|393:246,1,78.7500007510185,2|0,0:0|0:0,0:0:0:0:
455,44,169540,2,0,P|368:42|305:91,1,157.500001502037,10|0,0:0|0:0,0:0:0:0:
294,116,169881,1,2,0:0:0:0:
291,155,169995,1,8,0:0:0:0:
280,192,170108,1,2,0:0:0:0:
258,224,170222,1,0,0:0:0:0:
82,145,170449,6,0,L|40:70,1,78.7500007510185,14|0,0:0|0:0,0:0:0:0:
92,271,170676,2,0,L|34:338,1,78.7500007510185,4|0,0:0|0:0,0:0:0:0:
184,175,170904,5,10,0:0:0:0:
184,175,171017,2,0,P|236:140|255:138,1,78.7500007510185,2|0,0:0|0:0,0:0:0:0:
429,204,171358,2,0,P|459:291|403:345,1,157.500001502037,10|0,0:0|0:0,0:0:0:0:
386,351,171699,1,2,0:0:0:0:
346,345,171813,1,8,0:0:0:0:
312,323,171926,1,2,0:0:0:0:
300,285,172040,6,0,L|305:207,1,78.7500007510185,2|0,0:0|0:0,0:0:0:0:
375,91,172267,2,0,L|462:65,1,78.7500007510185,14|0,0:0|0:0,0:0:0:0:
247,79,172494,2,0,L|177:43,1,78.7500007510185,6|0,0:0|0:0,0:0:0:0:
196,181,172722,5,10,0:0:0:0:
196,181,172835,2,0,P|197:251|172:271,1,78.7500007510185,2|0,0:0|0:0,0:0:0:0:
99,360,173176,2,0,P|39:289|44:215,1,157.500001502037,8|0,0:0|0:0,0:0:0:0:
53,191,173517,1,2,0:0:0:0:
64,153,173631,1,8,0:0:0:0:
61,113,173745,1,2,0:0:0:0:
52,74,173858,6,0,P|57:24|94:15,1,78.7500007510185,2|0,0:0|0:0,0:0:0:0:
239,38,174085,2,0,P|287:59|318:85,1,78.7500007510185,14|0,0:0|0:0,0:0:0:0:
334,104,174313,1,2,0:0:0:0:
356,136,174426,1,2,0:0:0:0:
368,173,174540,5,10,0:0:0:0:
368,173,174654,2,0,P|355:208|311:245,1,78.7500007510185,2|0,0:0|0:0,0:0:0:0:
238,336,174995,2,0,P|168:313|134:238,1,157.500001502037,10|0,0:0|0:0,0:0:0:0:
129,202,175335,1,2,0:0:0:0:
136,163,175449,1,8,0:0:0:0:
155,128,175563,1,2,0:0:0:0:
188,107,175676,6,0,L|271:99,1,78.7500007510185,2|0,0:0|0:0,0:0:0:0:
338,167,175904,1,10,0:0:0:0:
328,252,176131,1,2,0:0:0:0:
305,274,176245,1,2,0:0:0:0:
277,289,176358,5,10,0:0:0:0:
277,289,176472,2,0,P|245:280|207:235,1,78.7500007510185,2|0,0:0|0:0,0:0:0:0:
188,97,176813,2,0,P|262:49|328:57,1,157.500001502037,10|0,0:0|0:0,0:0:0:0:
360,78,177154,1,2,0:0:0:0:
389,103,177267,1,8,0:0:0:0:
413,134,177381,1,2,0:0:0:0:
264,261,177608,1,0,0:0:0:0:
264,261,177722,6,0,L|177:262,1,78.7500007510185,14|0,0:0|0:0,0:0:0:0:
393,300,177949,2,0,L|462:349,1,78.7500007510185,6|0,0:0|0:0,0:0:0:0:
338,188,178176,5,10,0:0:0:0:
338,188,178290,2,0,P|274:158|261:141,1,78.7500007510185,2|0,0:0|0:0,0:0:0:0:
153,30,178631,2,0,P|85:77|92:152,1,157.500001502037,10|0,0:0|0:0,0:0:0:0:
111,176,178972,1,2,0:0:0:0:
131,209,179085,1,8,0:0:0:0:
141,247,179199,1,2,0:0:0:0:
298,264,179426,1,2,0:0:0:0:
298,264,179540,6,0,L|378:248,1,78.7500007510185,14|0,0:0|0:0,0:0:0:0:
196,328,179767,2,0,L|112:343,1,78.7500007510185,6|0,0:0|0:0,0:0:0:0:
52,200,179995,5,10,0:0:0:0:
52,200,180108,2,0,P|104:170|137:171,1,78.7500007510185,2|0,0:0|0:0,0:0:0:0:
305,202,180449,2,0,P|383:191|390:124,1,157.500001502037,10|0,0:0|0:0,0:0:0:0:
366,92,180790,1,2,0:0:0:0:
326,88,180904,1,8,0:0:0:0:
292,66,181017,1,2,0:0:0:0:
268,34,181131,1,2,0:0:0:0:
90,47,181358,6,0,L|164:194,1,157.500001502037,14|0,0:0|0:0,0:0:0:0:
168,226,181699,1,2,0:0:0:0:
175,258,181813,5,10,0:0:0:0:
175,258,181926,2,0,P|202:308|229:314,1,67.5000025749208,2|0,0:0|0:0,0:0:0:0:
361,318,182267,2,0,P|408:256|392:206,1,135.000005149842,6|0,0:0|0:0,0:0:0:0:
371,180,182608,1,2,0:0:0:0:
340,165,182722,6,0,P|287:149|231:86,1,135.000005149842
75,51,183176,2,0,P|51:117|72:186,1,135.000005149842,6|0,0:0|0:0,0:0:0:0:
87,204,183517,1,2,0:0:0:0:
110,236,183631,5,14,0:0:0:0:
110,236,183745,2,0,P|127:276|154:299,1,78.7500007510185,2|0,0:0|0:0,0:0:0:0:
334,338,184086,2,0,P|380:264|373:195,1,157.500001502037,10|0,0:0|0:0,0:0:0:0:
360,159,184427,1,2,0:0:0:0:
341,124,184541,1,8,0:0:0:0:
316,93,184654,1,2,0:0:0:0:
288,64,184768,1,0,0:0:0:0:
210,207,184995,6,0,L|172:278,1,78.7500007510185,14|0,0:0|0:0,0:0:0:0:
161,99,185222,2,0,L|98:39,1,78.7500007510185,4|0,0:0|0:0,0:0:0:0:
59,230,185450,5,10,0:0:0:0:
59,230,185563,2,0,P|97:193|120:186,1,78.7500007510185,2|0,0:0|0:0,0:0:0:0:
278,126,185904,2,0,P|349:122|428:179,1,157.500001502037,10|0,0:0|0:0,0:0:0:0:
439,201,186245,1,2,0:0:0:0:
435,240,186359,1,8,0:0:0:0:
419,275,186472,1,2,0:0:0:0:
383,293,186586,6,0,L|310:322,1,78.7500007510185,2|0,0:0|0:0,0:0:0:0:
245,214,186813,2,0,L|245:129,1,78.7500007510185,14|0,0:0|0:0,0:0:0:0:
186,343,187040,2,0,L|119:383,1,78.7500007510185,6|0,0:0|0:0,0:0:0:0:
106,248,187268,5,10,0:0:0:0:
106,248,187381,2,0,P|125:193|122:158,1,78.7500007510185,2|0,0:0|0:0,0:0:0:0:
112,37,187722,2,0,P|171:17|263:36,1,157.500001502037,8|0,0:0|0:0,0:0:0:0:
296,55,188063,1,2,0:0:0:0:
327,79,188177,1,8,0:0:0:0:
353,107,188291,1,2,0:0:0:0:
372,140,188404,6,0,P|381:193|370:240,1,78.7500007510185,2|0,0:0|0:0,0:0:0:0:
303,341,188631,2,0,P|264:297|258:272,1,78.7500007510185,14|0,0:0|0:0,0:0:0:0:
255,239,188858,1,2,0:0:0:0:
244,201,188972,1,2,0:0:0:0:
229,164,189086,5,10,0:0:0:0:
229,164,189200,2,0,P|196:124|169:114,1,78.7500007510185,2|0,0:0|0:0,0:0:0:0:
79,209,189541,2,0,P|59:255|135:319,1,157.500001502037,10|0,0:0|0:0,0:0:0:0:
165,310,189881,1,2,0:0:0:0:
202,297,189995,1,8,0:0:0:0:
234,272,190108,1,2,0:0:0:0:
265,249,190222,6,0,L|321:189,1,78.7500007510185,2|0,0:0|0:0,0:0:0:0:
423,202,190450,1,10,0:0:0:0:
453,285,190677,1,2,0:0:0:0:
430,307,190790,1,2,0:0:0:0:
401,320,190904,5,10,0:0:0:0:
401,320,191018,2,0,P|346:297|321:270,1,78.7500007510185,2|0,0:0|0:0,0:0:0:0:
246,126,191359,2,0,P|184:51|129:24,1,157.500001502037,10|0,0:0|0:0,0:0:0:0:
95,40,191700,1,2,0:0:0:0:
77,74,191813,1,8,0:0:0:0:
90,111,191927,1,2,0:0:0:0:
205,265,192154,1,0,0:0:0:0:
205,265,192267,6,0,L|277:324,1,78.7500007510185,14|0,0:0|0:0,0:0:0:0:
92,215,192495,2,0,L|15:232,1,78.7500007510185,6|0,0:0|0:0,0:0:0:0:
200,142,192722,5,10,0:0:0:0:
200,142,192836,2,0,P|240:135|283:109,1,78.7500007510185,2|0,0:0|0:0,0:0:0:0:
401,59,193177,2,0,P|438:132|385:184,1,157.500001502037,10|0,0:0|0:0,0:0:0:0:
360,201,193518,1,2,0:0:0:0:
321,209,193631,1,8,0:0:0:0:
281,206,193745,1,2,0:0:0:0:
121,271,193972,1,2,0:0:0:0:
121,271,194086,6,0,L|79:337,1,78.7500007510185,14|0,0:0|0:0,0:0:0:0:
151,154,194313,2,0,L|95:94,1,78.7500007510185,6|0,0:0|0:0,0:0:0:0:
220,259,194541,5,10,0:0:0:0:
220,259,194654,2,0,P|262:294|298:294,1,78.7500007510185,2|0,0:0|0:0,0:0:0:0:
435,250,194995,2,0,P|484:191|452:104,1,157.500001502037,10|0,0:0|0:0,0:0:0:0:
436,91,195336,1,2,0:0:0:0:
401,72,195450,1,8,0:0:0:0:
361,68,195563,1,2,0:0:0:0:
321,71,195677,1,2,0:0:0:0:
135,98,195904,6,0,L|45:233,1,157.500001502037,14|0,0:0|0:0,0:0:0:0:
49,268,196245,1,2,0:0:0:0:
62,299,196359,5,10,0:0:0:0:
62,299,196472,2,0,P|86:334|108:342,1,67.5000025749208,2|0,0:0|0:0,0:0:0:0:
226,302,196813,2,0,P|230:223|274:179,1,135.000005149842,6|0,0:0|0:0,0:0:0:0:
296,170,197154,1,2,0:0:0:0:
327,158,197268,6,0,P|386:95|366:52,1,135.000005149842,2|0,0:0|0:0,0:0:0:0:
194,52,197722,2,0,P|141:80|117:151,1,135.000005149842,6|0,0:0|0:0,0:0:0:0:
120,181,198063,1,2,0:0:0:0:
130,218,198176,6,0,P|153:256|255:289,1,157.500001502037,14|0,0:0|0:0,0:0:0:0:
239,169,198631,2,0,P|253:103|340:49,1,157.500001502037,10|0,0:0|0:0,0:0:0:0:
322,51,198972,1,2,0:0:0:0:
322,51,199085,2,0,P|376:100|462:70,1,157.500001502037,10|0,0:0|0:0,0:0:0:0:
465,269,199540,6,0,L|342:376,1,157.500001502037,14|0,0:0|0:0,0:0:0:0:
218,164,199995,6,0,P|194:111|102:61,1,157.500001502037,10|0,0:0|0:0,0:0:0:0:
94,183,200449,2,0,P|93:268|162:308,1,157.500001502037,10|0,0:0|0:0,0:0:0:0:
146,306,200790,1,2,0:0:0:0:
146,306,200904,2,0,P|200:220|253:209,1,157.500001502037,10|0,0:0|0:0,0:0:0:0:
478,121,201358,6,0,L|339:30,1,157.500001502037,14|0,0:0|0:0,0:0:0:0:
419,256,201813,6,0,P|345:244|266:285,1,157.500001502037,10|0,0:0|0:0,0:0:0:0:
90,343,202267,2,0,P|91:237|126:205,1,157.500001502037,8|0,0:0|0:0,0:0:0:0:
123,206,202608,1,2,0:0:0:0:
123,206,202722,2,0,P|69:131|89:70,1,157.500001502037,10|0,0:0|0:0,0:0:0:0:
313,26,203176,6,0,L|228:175,1,157.500001502037,14|0,0:0|0:0,0:0:0:0:
330,366,203631,6,0,P|388:321|399:232,1,157.500001502037,10|0,0:0|0:0,0:0:0:0:
396,56,204086,2,0,P|329:69|266:148,1,157.500001502037,10|0,0:0|0:0,0:0:0:0:
270,133,204426,1,2,0:0:0:0:
270,133,204540,2,0,P|192:118|146:50,1,157.500001502037
70,172,204995,5,14,0:0:0:0:
48,283,205222,1,0,0:0:0:0:
76,295,205335,1,0,0:0:0:0:
107,297,205449,6,0,P|172:289|262:219,1,157.500001502037,10|0,0:0|0:0,0:0:0:0:
310,50,205904,2,0,P|385:80|437:146,1,157.500001502037,10|0,0:0|0:0,0:0:0:0:
433,137,206245,1,2,0:0:0:0:
433,137,206358,2,0,P|463:211|439:286,1,157.500001502037,10|0,0:0|0:0,0:0:0:0:
228,357,206812,6,0,L|120:242,1,157.500001502037,14|0,0:0|0:0,0:0:0:0:
62,46,207267,6,0,P|107:46|209:100,1,157.500001502037,10|0,0:0|0:0,0:0:0:0:
245,261,207722,2,0,P|320:291|379:220,1,157.500001502037,10|0,0:0|0:0,0:0:0:0:
373,246,208063,1,2,0:0:0:0:
373,246,208176,2,0,P|347:191|388:100,1,157.500001502037,10|0,0:0|0:0,0:0:0:0:
247,43,208630,6,0,L|87:82,1,157.500001502037,14|0,0:0|0:0,0:0:0:0:
203,242,209085,6,0,L|49:191,1,157.500001502037,10|0,0:0|0:0,0:0:0:0:
270,158,209540,2,0,L|427:118,1,157.500001502037,10|0,0:0|0:0,0:0:0:0:
245,77,209995,2,0,L|95:131,1,157.500001502037,10|0,0:0|0:0,0:0:0:0:
277,249,210449,2,0,L|402:347,1,157.500001502037,10|0,0:0|0:0,0:0:0:0:
374,162,210904,6,0,L|288:28,1,157.500001502037,10|0,0:0|0:0,0:0:0:0:
178,22,211358,2,0,L|263:154,1,157.500001502037,10|0,0:0|0:0,0:0:0:0:
214,346,211813,2,0,L|118:221,1,157.500001502037,10|0,0:0|0:0,0:0:0:0:
5,216,212267,2,0,L|101:341,1,157.500001502037,10|0,0:0|0:0,0:0:0:0:
256,192,212722,5,12,0:0:0:0:
256,192,222722,12,0,226813,0:0:0:0:
159,129,227267,6,0,P|197:70|232:62,1,107.999996704102,6|0,0:0|0:0,0:0:0:0:
423,79,227722,1,8,0:0:0:0:
326,31,227949,1,0,0:0:0:0:
355,180,228176,2,0,P|363:219|426:262,1,107.999996704102
215,338,228631,5,10,0:0:0:0:
189,328,228744,1,2,0:0:0:0:
164,319,228858,1,2,0:0:0:0:
139,309,228971,1,2,0:0:0:0:
113,300,229085,6,0,P|82:239|100:196,1,107.999996704102
181,87,229540,1,8,0:0:0:0:
79,110,229767,1,0,0:0:0:0:
200,206,229995,6,0,P|251:257|250:333,1,135.000005149842
384,188,230449,2,0,P|436:161|515:157,1,135.000005149842,8|0,0:0|0:0,0:0:0:0:
274,46,230904,2,0,P|216:33|139:57,1,135.000005149842,4|0,0:0|0:0,0:0:0:0:
23,119,231358,5,8,0:0:0:0:
55,36,231585,1,0,0:0:0:0:
173,185,231813,2,0,P|212:241|221:300,1,107.999996704102
406,316,232267,5,10,0:0:0:0:
409,289,232380,1,2,0:0:0:0:
412,262,232494,1,2,0:0:0:0:
415,235,232607,1,2,0:0:0:0:
418,208,232722,6,0,P|412:135|394:107,1,107.999996704102
235,53,233176,1,8,0:0:0:0:
325,32,233404,1,0,0:0:0:0:
230,242,233631,6,0,P|194:291|190:369,1,135.000005149842
98,151,234085,2,0,P|81:104|21:46,1,135.000005149842,8|0,0:0|0:0,0:0:0:0:
278,105,234540,2,0,P|337:108|410:140,1,135.000005149842,4|0,0:0|0:0,0:0:0:0:
512,230,234995,5,8,0:0:0:0:
492,144,235222,1,0,0:0:0:0:
382,271,235449,2,0,P|338:329|340:382,1,107.999996704102
260,200,235904,5,10,0:0:0:0:
251,174,236017,1,2,0:0:0:0:
242,149,236131,1,2,0:0:0:0:
233,123,236244,1,2,0:0:0:0:
224,98,236358,6,0,P|194:48|139:42,1,107.999996704102
10,97,236813,1,8,0:0:0:0:
67,30,237040,1,0,0:0:0:0:
116,222,237267,6,0,P|119:281|70:346,1,135.000005149842
262,135,237722,2,0,P|302:75|306:7,1,135.000005149842,8|0,0:0|0:0,0:0:0:0:
254,296,238176,2,0,P|297:330|378:321,1,135.000005149842,4|0,0:0|0:0,0:0:0:0:
512,259,238631,5,8,0:0:0:0:
460,336,238858,1,0,0:0:0:0:
415,215,239085,2,0,P|402:154|426:113,1,107.999996704102
279,80,239540,5,10,0:0:0:0:
253,87,239653,1,2,0:0:0:0:
227,95,239767,1,2,0:0:0:0:
201,103,239880,1,2,0:0:0:0:
174,112,239995,6,0,P|115:141|85:173,1,107.999996704102
28,315,240449,1,8,0:0:0:0:
33,229,240676,1,0,0:0:0:0:
212,291,240904,2,0,P|265:302|343:267,1,135.000005149842
466,72,241358,5,8,0:0:0:0:
466,72,241472,1,8,0:0:0:0:
466,72,241585,1,8,0:0:0:0:
466,72,241699,1,8,0:0:0:0:
466,72,241813,6,0,P|402:53|325:58,1,135.000005149842,4|0,0:0|0:0,0:0:0:0:
202,100,242267,1,8,0:0:0:0:
254,25,242495,1,0,0:0:0:0:
294,197,242722,2,0,P|312:247|350:284,1,107.999996704102
180,314,243176,5,10,0:0:0:0:
157,297,243289,1,2,0:0:0:0:
136,282,243403,1,2,0:0:0:0:
113,266,243516,1,2,0:0:0:0:
92,251,243630,6,0,P|49:202|43:159,1,107.999996704102
61,30,244085,1,8,0:0:0:0:
13,91,244312,1,0,0:0:0:0:
282,87,244540,6,0,P|339:79|409:27,1,135.000005149842
402,245,244994,2,0,P|438:303|501:346,1,135.000005149842,8|0,0:0|0:0,0:0:0:0:
246,247,245448,2,0,P|195:219|117:225,1,135.000005149842,4|0,0:0|0:0,0:0:0:0:
0,277,245903,5,8,0:0:0:0:
77,296,246130,1,0,0:0:0:0:
110,131,246357,2,0,P|121:72|106:21,1,107.999996704102
283,97,246812,5,10,0:0:0:0:
308,88,246925,1,2,0:0:0:0:
334,81,247039,1,2,0:0:0:0:
360,73,247152,1,2,0:0:0:0:
388,66,247267,6,0,P|443:73|454:119,1,107.999996704102
444,258,247721,1,8,0:0:0:0:
504,192,247948,1,0,0:0:0:0:
291,266,248176,2,0,P|214:290|150:281,1,135.000005149842
71,83,248630,5,8,0:0:0:0:
71,83,248744,1,8,0:0:0:0:
71,83,248857,1,8,0:0:0:0:
71,83,248971,1,8,0:0:0:0:
71,83,249085,6,0,P|122:55|201:51,1,135.000005149842,4|0,0:0|0:0,0:0:0:0:
365,84,249540,1,8,0:0:0:0:
285,31,249767,1,0,0:0:0:0:
257,185,249995,2,0,P|237:235|189:255,1,107.999996704102
351,320,250449,5,10,0:0:0:0:
360,294,250562,1,2,0:0:0:0:
369,269,250676,1,2,0:0:0:0:
378,243,250789,1,2,0:0:0:0:
387,218,250903,6,0,P|403:164|384:96,1,107.999996704102
331,20,251358,1,8,0:0:0:0:
423,32,251585,1,0,0:0:0:0:
204,80,251813,6,0,P|151:92|72:26,1,135.000005149842
104,216,252267,2,0,P|94:273|46:332,1,135.000005149842,8|0,0:0|0:0,0:0:0:0:
227,311,252721,2,0,P|284:279|357:268,1,135.000005149842,4|0,0:0|0:0,0:0:0:0:
478,247,253176,5,8,0:0:0:0:
426,323,253403,1,0,0:0:0:0:
397,166,253630,2,0,P|402:88|427:56,1,107.999996704102
258,126,254085,5,10,0:0:0:0:
232,119,254198,1,2,0:0:0:0:
206,111,254312,1,2,0:0:0:0:
180,103,254425,1,2,0:0:0:0:
153,94,254540,6,0,P|101:89|68:131,1,107.999996704102
31,253,254994,1,8,0:0:0:0:
0,175,255221,1,0,0:0:0:0:
208,251,255449,2,0,P|261:262|339:227,1,135.000005149842
445,55,255903,5,8,0:0:0:0:
445,55,256017,1,8,0:0:0:0:
445,55,256130,1,8,0:0:0:0:
445,55,256244,1,8,0:0:0:0:
445,55,256358,6,0,P|381:36|304:41,1,135.000005149842,4|0,0:0|0:0,0:0:0:0:
