osu file format v14

[General]
AudioFilename: audio.mp3
AudioLeadIn: 0
PreviewTime: 85366
Countdown: 0
SampleSet: Soft
StackLeniency: 0.7
Mode: 2
LetterboxInBreaks: 0
WidescreenStoryboard: 1

[Editor]
Bookmarks: 21367,42723,64033,85366,106700,109367,125367,128033
DistanceSpacing: 0.4
BeatDivisor: 8
GridSize: 8
TimelineZoom: 2.999999

[Metadata]
Title:Above the Clouds
TitleUnicode:Above the Clouds
Artist:Helblinde
ArtistUnicode:Helblinde
Creator:P i k u
Version:Cup
Source:
Tags:life starts at 200bpm drum and bass dnb piano cats kimi wo nosete laputa castle in the sky piku mbomb magic bomb
BeatmapID:1073834
BeatmapSetID:501962

[Difficulty]
HPDrainRate:3
CircleSize:3
OverallDifficulty:6
ApproachRate:6
SliderMultiplier:0.8
SliderTickRate:1

[Events]
//Background and Video events
0,0,"the_night_is_still_young_by_nanomortis-1080.jpg",0,0
//Break Periods
//Storyboard Layer 0 (Background)
//Storyboard Layer 1 (Fail)
//Storyboard Layer 2 (Pass)
//Storyboard Layer 3 (Foreground)
//Storyboard Sound Samples

[TimingPoints]
34,333.333333333333,4,2,1,65,1,0
26700,-100,4,2,1,40,0,0
29367,-100,4,2,1,65,0,0
38700,-100,4,2,1,40,0,0
40367,-100,4,2,1,25,0,0
42367,-100,4,2,1,5,0,0
42723,333.333333333333,4,2,1,20,1,0
64033,333.333333333333,4,2,1,35,1,0
83366,-100,4,2,1,45,0,0
84032,-100,4,2,1,55,0,0
85366,-100,4,2,0,60,0,1
85699,-100,4,2,3,60,0,1
86032,-100,4,2,2,60,0,1
88366,-100,4,2,3,60,0,1
88699,-100,4,2,2,60,0,1
91032,-100,4,2,3,60,0,1
91366,-100,4,2,2,60,0,1
99032,-100,4,2,3,60,0,1
99366,-100,4,2,2,60,0,1
106366,-100,4,2,2,60,0,1
106699,-100,4,2,0,60,0,0
108366,-100,4,2,2,15,0,0
109366,-100,4,2,2,60,0,1
111032,-100,4,2,3,60,0,1
111366,-100,4,2,2,60,0,1
117366,-100,4,2,0,60,0,1
117532,-100,4,2,2,60,0,1
125366,-100,4,2,0,60,0,0
125699,-100,4,2,2,35,0,0

[Colours]
Combo1 : 92,248,170
Combo2 : 92,170,248
Combo3 : 248,132,92
Combo4 : 244,248,255

[HitObjects]
256,192,18728,12,0,21061,0:0:0:0:
240,320,21367,6,0,L|232:240,1,80,8|8,0:0|3:3,0:0:0:0:
360,176,22033,2,0,L|440:176,1,80,2|2,0:0|3:2,0:0:0:0:
280,152,22700,2,0,P|224:112|280:72,1,160,2|2,0:0|0:0,0:0:0:0:
392,48,23700,1,8,3:0:0:0:
232,232,24033,6,0,L|152:232,1,80,8|8,0:0|3:0,0:0:0:0:
264,128,24700,2,0,L|344:128,2,80,2|8|2,0:0|3:0|0:0,0:0:0:0:
152,88,25700,1,8,3:0:0:0:
312,288,26033,2,0,L|304:208,1,80,2|2,0:0|0:0,0:0:0:0:
176,304,26700,6,0,P|120:264|176:224,1,160,8|2,0:0|3:2,0:0:0:0:
336,88,28033,1,2,3:2:0:0:
464,104,28367,1,8,3:0:0:0:
352,136,28700,1,2,3:2:0:0:
344,168,28867,1,0,3:0:0:0:
352,200,29033,1,8,3:0:0:0:
464,312,29367,6,0,L|384:312,1,80,8|8,0:0|3:0,0:0:0:0:
256,352,30033,2,0,L|264:272,1,80,2|8,3:2|3:0,0:0:0:0:
376,88,30700,1,2,3:2:0:0:
264,72,31033,1,8,3:0:0:0:
152,136,31367,2,0,L|176:216,1,80,2|8,0:0|3:0,0:0:0:0:
336,296,32033,6,0,L|416:296,2,80,8|8|2,0:0|3:0|0:0,0:0:0:0:
192,296,33033,1,2,3:2:0:0:
304,224,33367,2,0,P|344:200|304:160,1,120,0|0,0:0|3:0,0:0:0:0:
224,96,34033,1,0,0:0:0:0:
112,112,34367,1,8,3:0:0:0:
272,184,34700,6,0,P|296:232|216:256,1,160,8|2,0:0|0:0,0:0:0:0:
88,256,35700,1,2,0:0:0:0:
200,96,36033,2,0,L|280:96,2,80,0|8|0,0:0|3:0|3:0,0:0:0:0:
88,144,37033,1,8,3:0:0:0:
248,272,37367,6,0,L|328:272,1,80,8|8,3:2|3:0,0:0:0:0:
168,216,38033,1,2,3:2:0:0:
328,144,38700,2,0,L|248:144,1,80,8|8,3:2|3:0,0:0:0:0:
408,64,39367,1,2,3:2:0:0:
184,184,40033,6,0,L|104:184,2,80,8|2|2,3:2|0:0|0:0,0:0:0:0:
256,192,41033,12,0,42367,0:0:0:0:
160,232,42723,5,0,0:0:0:0:
240,224,43056,1,0,0:0:0:0:
320,216,43389,1,2,0:0:0:0:
240,200,43723,1,0,0:0:0:0:
80,280,44056,6,0,L|192:280,1,110
352,80,44931,1,0,0:0:0:0:
190,280,45389,6,0,L|110:280,2,80,0|0|2,0:0|0:0|0:0,0:0:0:0:
384,224,47389,5,2,0:0:0:0:
160,272,48056,2,0,L|80:272,1,80,0|0,0:0|0:0,0:0:0:0:
224,152,48722,1,2,0:0:0:0:
368,304,49722,6,0,P|416:248|368:192,1,160,0|0,0:0|0:0,0:0:0:0:
248,288,50722,1,0,0:0:0:0:
120,264,51056,1,0,0:0:0:0:
280,208,51389,1,2,0:0:0:0:
88,272,53389,5,0,0:0:0:0:
200,200,53722,1,0,0:0:0:0:
88,136,54056,1,2,0:0:0:0:
344,240,54722,5,0,0:0:0:0:
232,168,55056,1,0,0:0:0:0:
392,104,55389,1,2,0:0:0:0:
232,80,56056,6,0,L|216:160,1,80,2|0,0:0|0:0,0:0:0:0:
328,192,56722,2,0,L|336:272,1,80,0|2,0:0|0:0,0:0:0:0:
176,312,57389,1,2,0:0:0:0:
368,320,58722,6,0,L|392:240,1,80,2|0,0:0|0:0,0:0:0:0:
232,296,59389,2,0,P|152:288|88:240,2,160,2|2|0,0:0|0:0|0:0,0:0:0:0:
456,152,61389,1,2,0:0:0:0:
256,192,61722,12,0,63722,0:0:0:0:
360,192,64033,5,2,1:2:0:0:
248,224,64366,2,0,L|256:144,1,80,8|0,3:0|0:0,0:0:0:0:
368,80,65033,1,8,3:0:0:0:
480,120,65366,1,2,0:0:0:0:
320,272,65699,2,0,L|328:192,1,80,0|0,1:0|3:0,0:0:0:0:
456,200,66366,1,2,1:2:0:0:
296,56,66699,6,0,L|216:56,2,80,0|8|2,1:0|3:0|0:0,0:0:0:0:
424,128,67699,1,8,3:0:0:0:
296,320,68033,2,0,L|304:240,1,80,2|8,0:0|3:0,0:0:0:0:
176,96,68699,1,2,3:2:0:0:
304,144,69033,1,0,1:0:0:0:
144,304,69366,6,0,P|120:232|176:176,1,160,2|2,1:2|0:0,0:0:0:0:
336,224,70366,2,0,P|360:152|304:96,1,160,8|2,3:0|0:0,0:0:0:0:
176,96,71366,1,10,3:0:0:0:
304,168,71699,1,0,1:0:0:0:
464,64,72032,6,0,L|384:64,1,80,2|8,1:2|3:0,0:0:0:0:
256,144,72699,1,0,3:0:0:0:
384,160,73032,1,8,3:0:0:0:
256,240,73366,6,0,L|264:320,1,80,2|8,0:0|3:0,0:0:0:0:
424,328,74032,2,0,L|416:248,1,80,2|2,1:2|3:0,0:0:0:0:
256,160,74699,5,2,1:2:0:0:
384,136,75032,1,8,3:0:0:0:
224,80,75366,2,0,L|144:80,1,80,2|8,0:0|3:0,0:0:0:0:
304,160,76032,5,2,1:2:0:0:
176,184,76366,1,0,1:0:0:0:
336,248,76699,2,0,L|416:248,1,80,2|8,3:2|3:0,0:0:0:0:
256,160,77366,5,0,1:0:0:0:
128,136,77699,1,0,1:0:0:0:
288,96,78032,2,0,L|280:176,1,80,2|8,0:0|3:0,3:0:0:0:
56,112,79032,2,0,L|136:112,1,80,8|2,3:0|3:2,0:0:0:0:
264,176,79699,1,0,1:0:0:0:
104,320,80032,6,0,P|56:264|104:208,1,160,0|0,1:0|0:0,0:0:0:0:
264,136,81032,6,0,L|344:136,2,80,8|2|8,3:0|0:0|3:0,0:0:0:0:
136,184,82032,1,0,1:0:0:0:
264,224,82366,1,0,1:0:0:0:
96,336,82699,6,0,L|176:336,1,80,4|0,1:2|1:0,0:0:0:0:
336,240,83366,2,0,L|256:240,1,80,0|0,1:0|1:0,0:0:0:0:
80,152,84032,2,0,L|0:152,2,80,0|0|0,1:0|1:0|1:0,0:0:0:0:
208,136,85032,1,8,3:0:0:0:
336,304,85366,6,0,P|384:248|336:192,1,160,6|2,0:0|0:0,0:0:0:0:
208,112,86366,1,10,0:0:0:0:
368,112,86699,2,0,L|448:112,1,80,2|8,0:0|0:0,0:0:0:0:
320,32,87366,2,0,L|240:32,1,80,6|8,0:0|0:0,0:0:0:0:
368,112,88032,6,0,L|208:112,1,160,6|0,0:0|0:0,0:0:0:0:
80,248,89032,1,8,0:0:0:0:
240,336,89366,2,0,L|232:256,1,80,2|8,0:0|0:0,0:0:0:0:
104,160,90032,2,0,L|112:80,1,80,6|8,0:0|0:0,0:0:0:0:
272,240,90699,6,0,P|328:200|272:160,1,160,6|0,0:0|0:0,0:0:0:0:
160,144,91699,1,8,0:0:0:0:
288,328,92032,2,0,L|248:248,1,80,2|8,0:0|0:0,0:0:0:0:
120,312,92699,2,0,L|160:232,1,80,6|8,0:0|0:0,0:0:0:0:
312,192,93366,5,6,0:0:0:0:
352,192,93532,1,4,0:0:0:0:
312,192,93699,1,8,0:0:0:0:
120,104,94199,1,4,0:0:0:0:
128,64,94366,1,8,0:0:0:0:
256,112,94699,5,6,0:0:0:0:
296,112,94866,1,4,0:0:0:0:
336,112,95032,1,8,0:0:0:0:
464,272,95366,2,0,L|384:272,1,80,6|8,0:0|0:0,0:0:0:0:
336,248,95866,1,4,0:0:0:0:
256,208,96032,6,0,L|176:208,2,80,6|10|2,0:0|0:0|0:0,0:0:0:0:
384,160,97032,1,8,0:0:0:0:
224,80,97366,2,0,L|304:80,2,80,2|10|6,0:0|0:0|0:0,0:0:0:0:
304,280,98366,2,0,L|344:280,1,40,8|4,0:0|0:0,0:0:0:0:
424,288,98699,6,0,P|504:224|424:144,1,240,6|10,0:0|0:0,0:0:0:0:
264,152,100032,1,2,0:0:0:0:
488,96,100699,1,6,0:0:0:0:
232,312,101366,6,0,L|152:312,2,80,6|8|2,0:0|0:0|0:0,0:0:0:0:
360,256,102366,1,8,0:0:0:0:
264,192,102699,1,2,0:0:0:0:
360,128,103032,1,10,0:0:0:0:
200,112,103366,2,0,L|120:112,1,80,6|10,0:0|0:0,0:0:0:0:
280,256,104032,6,0,P|296:216|280:184,1,80,6|8,0:0|0:0,0:0:0:0:
216,120,104532,1,4,0:0:0:0:
136,224,104699,2,0,P|112:192|136:160,1,80,2|8,0:0|0:0,0:0:0:0:
288,96,105366,1,2,0:0:0:0:
416,112,105699,1,8,0:0:0:0:
256,296,106032,6,0,L|176:296,1,80,6|8,0:0|0:0,0:0:0:0:
240,208,106532,1,4,0:0:0:0:
304,216,106699,1,4,0:0:0:0:
440,224,108366,5,4,0:0:0:0:
312,216,108699,1,6,0:0:0:0:
256,224,108866,1,4,0:0:0:0:
200,232,109032,1,6,0:0:0:0:
256,248,109199,1,4,0:0:0:0:
336,304,109366,6,0,L|416:304,1,80,6|10,0:0|0:0,0:0:0:0:
288,128,110032,2,0,L|208:128,1,80,2|10,0:0|0:0,0:0:0:0:
368,304,110699,2,0,P|312:264|368:224,1,160,2|6,0:0|0:2,0:0:0:0:
480,80,111699,1,8,0:0:0:0:
424,80,111866,1,4,0:0:0:0:
360,112,112032,6,0,L|280:112,1,80,6|10,0:0|0:0,0:0:0:0:
200,104,112532,2,0,L|200:184,1,80,4|4,0:0|0:0,0:0:0:0:
264,296,113032,1,10,0:0:0:0:
168,264,113366,1,2,0:0:0:0:
264,296,113699,1,10,0:0:0:0:
136,312,114032,2,0,L|128:232,1,80,6|10,0:2|0:0,0:0:0:0:
288,208,114699,6,0,L|368:208,2,80,6|10|2,0:0|0:0|0:0,0:0:0:0:
176,144,115699,1,10,0:0:0:0:
304,288,116032,2,0,L|384:288,1,80,2|8,0:0|0:0,0:0:0:0:
256,168,116699,1,4,0:0:0:0:
384,144,117032,1,8,0:0:0:0:
224,288,117366,5,6,0:0:0:0:
240,248,117532,1,4,0:0:0:0:
280,232,117699,1,10,0:0:0:0:
408,144,118032,2,0,L|328:144,1,80,2|8,0:0|0:0,0:0:0:0:
200,256,118699,5,6,0:0:0:0:
216,216,118865,1,4,0:0:0:0:
256,200,119032,1,10,0:0:0:0:
416,56,119366,2,0,L|336:56,1,80,6|8,0:0|0:0,0:0:0:0:
176,256,120032,6,0,L|256:256,1,80,6|8,0:0|0:0,0:0:0:0:
368,112,120699,1,2,0:0:0:0:
240,88,121032,1,10,0:0:0:0:
400,280,121366,2,0,L|392:200,1,80,2|8,0:0|0:0,0:0:0:0:
280,224,122032,2,0,L|272:304,1,80,4|8,0:0|0:0,0:0:0:0:
112,184,122699,6,0,L|24:184,1,80,6|4,0:0|0:0,0:0:0:0:
176,96,123366,2,0,L|256:96,1,80,6|4,0:0|0:0,0:0:0:0:
400,184,124032,2,0,L|320:184,1,80,6|4,0:0|0:0,0:0:0:0:
176,272,124699,2,0,L|256:272,1,80,6|4,0:0|0:0,0:0:0:0:
400,96,125366,1,4,0:0:0:0:
256,192,125699,12,0,128032,0:0:0:0:
