osu file format v14

[General]
AudioFilename: Helblinde - Life starts at 200bpm - 01 A Reyvateil's Curse.mp3
AudioLeadIn: 0
PreviewTime: 37934
Countdown: 0
SampleSet: None
StackLeniency: 0.2
Mode: 2
LetterboxInBreaks: 1
WidescreenStoryboard: 1

[Editor]
DistanceSpacing: 0.8
BeatDivisor: 4
GridSize: 32
TimelineZoom: 3.199999

[Metadata]
Title:A Reyvateil's Curse
TitleUnicode:A Reyvateil's Curse
Artist:Helblinde
ArtistUnicode:Helblinde
Creator:Zyzyx
Version:Chronicle Key
Source:Osu!
Tags:Life Start at 200 BPM Electronic Hardcore Tribal Hymnos Ar Tenolico Melody of Elemia Lune Shurelia Exec Chronicle Key Akiko Shikata
BeatmapID:1544179
BeatmapSetID:731786

[Difficulty]
HPDrainRate:6.5
CircleSize:4.1
OverallDifficulty:9.7
ApproachRate:9.7
SliderMultiplier:1.8
SliderTickRate:2

[Events]
//Background and Video events
0,0,"helb.jpg",0,0
//Break Periods
2,77084,81089
//Storyboard Layer 0 (Background)
//Storyboard Layer 1 (Fail)
//Storyboard Layer 2 (Pass)
//Storyboard Layer 3 (Foreground)
//Storyboard Sound Samples

[TimingPoints]
9584,300,4,3,4,100,1,0
9584,-71.4285714285714,4,3,4,80,0,0
38384,-71.4285714285714,4,3,4,100,0,1
46784,-71.4285714285714,4,3,4,80,0,0
47984,-71.4285714285714,4,3,4,100,0,1
56384,-71.4285714285714,4,3,4,100,0,0
58184,-94.3396226415094,4,1,1,30,0,0
62384,-94.3396226415094,4,3,4,100,0,0
62459,-94.3396226415094,4,1,1,30,0,0
67184,-94.3396226415094,4,1,4,100,0,0
67259,-94.3396226415094,4,1,1,30,0,0
74384,-71.4285714285714,4,3,4,70,0,0
76184,-71.4285714285714,4,3,4,85,0,0
76784,-100,4,3,4,100,0,0
81584,-94.3396226415094,4,3,4,35,0,0
95984,-71.4285714285714,4,3,4,75,0,0
98384,-71.4285714285714,4,3,4,85,0,0
99284,-71.4285714285714,4,3,4,100,0,0
99584,-71.4285714285714,4,3,4,85,0,0
100184,-71.4285714285714,4,3,4,75,0,0
100784,-71.4285714285714,4,3,4,90,0,0
117884,-71.4285714285714,4,3,4,60,0,0
119984,-90.9090909090909,4,3,4,75,0,0
124784,-90.9090909090909,4,3,4,80,0,0
125984,-90.9090909090909,4,3,4,90,0,0
127784,-90.9090909090909,4,3,4,79,0,0
128384,-90.9090909090909,4,3,4,60,0,0
129584,-71.4285714285714,4,3,4,85,0,0
148784,-71.4285714285714,4,3,4,90,0,1
165584,-100,4,3,4,100,0,0
167984,-71.4285714285714,4,3,4,75,0,0
187184,-71.4285714285714,4,3,4,100,0,1
206384,-71.4285714285714,4,3,4,85,0,0
220784,-71.4285714285714,4,3,4,75,0,0
223184,-83.3333333333333,4,3,4,66,0,0
224384,-83.3333333333333,4,3,4,56,0,0
225584,-71.4285714285714,4,3,4,80,0,0
244784,-71.4285714285714,4,3,4,90,0,1
262784,-71.4285714285714,4,3,4,75,0,0
263984,300,4,3,4,100,1,0

[Colours]
Combo1 : 75,75,75
Combo2 : 207,209,207
Combo3 : 165,156,160
Combo4 : 93,93,93

[HitObjects]
256,192,7184,12,0,8984,0:0:0:0:
192,192,9284,5,0,0:0:0:0:
320,192,9434,1,0,0:0:0:0:
48,128,9584,6,0,L|32:256,1,125.999996154785,6|0,0:0|0:0,0:0:0:0:
160,192,9884,2,0,L|224:192,2,62.9999980773926,8|0|0,0:0|0:0|0:0,0:0:0:0:
34,192,10184,2,0,L|178:192,1,125.999996154785,4|0,0:0|0:0,0:0:0:0:
286,192,10484,2,0,L|142:192,1,125.999996154785,8|0,0:0|0:0,0:0:0:0:
286,192,10784,6,0,L|414:192,1,125.999996154785,4|0,0:0|0:0,0:0:0:0:
286,192,11084,2,0,L|222:192,2,62.9999980773926,8|0|0,0:0|0:0|0:0,0:0:0:0:
412,192,11384,1,4,0:0:0:0:
256,192,11534,1,8,0:0:0:0:
412,192,11684,1,4,0:0:0:0:
256,192,11834,1,8,0:0:0:0:
412,192,11984,6,0,P|489:274|408:353,1,251.999992309571,4|8,0:0|0:0,0:0:0:0:
336,352,12359,1,0,0:0:0:0:
264,353,12434,1,0,0:0:0:0:
160,288,12584,1,4,0:0:0:0:
233,288,12659,1,0,0:0:0:0:
305,287,12734,1,0,0:0:0:0:
431,287,12884,2,0,L|303:287,1,125.999996154785,8|0,0:0|0:0,0:0:0:0:
176,288,13184,6,0,L|32:288,1,125.999996154785,4|0,0:0|0:0,0:0:0:0:
192,240,13484,2,0,L|256:240,2,62.9999980773926,8|0|0,0:0|0:0|0:0,0:0:0:0:
32,240,13784,1,4,0:0:0:0:
192,240,13934,1,8,0:0:0:0:
32,240,14084,1,4,0:0:0:0:
192,240,14234,1,8,0:0:0:0:
464,128,14384,6,0,L|480:256,1,125.999996154785,2|0,0:0|0:0,0:0:0:0:
352,192,14684,2,0,L|288:192,2,62.9999980773926,8|0|0,0:0|0:0|0:0,0:0:0:0:
478,192,14984,2,0,L|334:192,1,125.999996154785,4|0,0:0|0:0,0:0:0:0:
226,192,15284,2,0,L|370:192,1,125.999996154785,8|0,0:0|0:0,0:0:0:0:
226,192,15584,6,0,L|98:192,1,125.999996154785,4|0,0:0|0:0,0:0:0:0:
226,192,15884,2,0,L|290:192,2,62.9999980773926,8|0|0,0:0|0:0|0:0,0:0:0:0:
100,192,16184,1,4,0:0:0:0:
256,192,16334,1,8,0:0:0:0:
100,192,16484,1,4,0:0:0:0:
256,192,16634,1,8,0:0:0:0:
100,192,16784,6,0,P|23:110|104:31,1,251.999992309571,4|8,0:0|0:0,0:0:0:0:
176,32,17159,1,0,0:0:0:0:
248,31,17234,1,0,0:0:0:0:
352,96,17384,1,4,0:0:0:0:
279,96,17459,1,0,0:0:0:0:
207,97,17534,1,0,0:0:0:0:
81,97,17684,2,0,L|209:97,1,125.999996154785,8|0,0:0|0:0,0:0:0:0:
336,96,17984,6,0,L|480:96,1,125.999996154785,4|0,0:0|0:0,0:0:0:0:
336,96,18284,2,0,L|272:96,2,62.9999980773926,8|0|0,0:0|0:0|0:0,0:0:0:0:
492,96,18584,1,4,0:0:0:0:
336,96,18734,1,8,0:0:0:0:
492,96,18884,1,4,0:0:0:0:
336,96,19034,1,8,0:0:0:0:
48,160,19184,6,0,L|32:288,1,125.999996154785,2|4,0:0|0:0,0:0:0:0:
320,288,19484,1,8,0:0:0:0:
256,288,19559,1,0,0:0:0:0:
192,288,19634,1,0,0:0:0:0:
495,285,19784,2,0,L|480:160,1,125.999996154785,4|0,0:0|0:0,0:0:0:0:
192,160,20084,1,8,0:0:0:0:
320,160,20234,1,0,0:0:0:0:
96,160,20384,6,0,L|80:288,1,125.999996154785,4|0,0:0|0:0,0:0:0:0:
416,160,20684,2,0,L|432:224,2,62.9999980773926,8|0|0,0:0|0:0|0:0,0:0:0:0:
192,160,20984,1,4,0:0:0:0:
320,160,21134,1,8,0:0:0:0:
96,192,21284,1,4,0:0:0:0:
416,192,21434,1,8,0:0:0:0:
112,224,21584,6,0,L|48:224,2,62.9999980773926,4|0|0,0:0|0:0|0:0,0:0:0:0:
256,224,21884,2,0,L|192:224,1,62.9999980773926,8|0,0:0|0:0,0:0:0:0:
112,224,22034,1,0,0:0:0:0:
368,144,22184,2,0,P|447:171|352:259,1,251.999992309571,4|8,0:0|0:0,0:0:0:0:
144,272,22634,1,0,0:0:0:0:
400,224,22784,6,0,L|464:224,2,62.9999980773926,4|0|0,0:0|0:0|0:0,0:0:0:0:
256,224,23084,2,0,L|320:224,1,62.9999980773926,8|0,0:0|0:0,0:0:0:0:
400,224,23234,1,0,0:0:0:0:
192,160,23384,1,4,0:0:0:0:
320,160,23534,1,8,0:0:0:0:
96,192,23684,1,4,0:0:0:0:
416,192,23834,1,8,0:0:0:0:
32,192,23984,6,0,L|160:192,1,125.999996154785,6|0,0:0|0:0,0:0:0:0:
288,96,24284,2,0,L|160:96,1,125.999996154785,8|0,0:0|0:0,0:0:0:0:
368,96,24584,2,0,L|432:96,2,62.9999980773926,4|0|0,0:0|0:0|0:0,0:0:0:0:
162,96,24884,2,0,L|34:96,1,125.999996154785,8|0,0:0|0:0,0:0:0:0:
480,192,25184,6,0,L|352:192,1,125.999996154785,4|0,0:0|0:0,0:0:0:0:
224,96,25484,2,0,L|352:96,1,125.999996154785,8|0,0:0|0:0,0:0:0:0:
144,96,25784,2,0,L|80:96,2,62.9999980773926,4|0|0,0:0|0:0|0:0,0:0:0:0:
350,96,26084,2,0,L|478:96,1,125.999996154785,8|0,0:0|0:0,0:0:0:0:
96,192,26384,6,0,L|32:192,2,62.9999980773926,4|0|0,0:0|0:0|0:0,0:0:0:0:
320,272,26684,2,0,L|192:272,1,125.999996154785,8|0,0:0|0:0,0:0:0:0:
416,192,26984,2,0,L|480:192,2,62.9999980773926,4|0|0,0:0|0:0|0:0,0:0:0:0:
192,272,27284,2,0,L|320:272,1,125.999996154785,8|0,0:0|0:0,0:0:0:0:
112,64,27584,6,0,L|32:64,2,62.9999980773926,4|0|0,0:0|0:0|0:0,0:0:0:0:
400,64,27884,2,0,L|480:64,2,62.9999980773926,8|0|0,0:0|0:0|0:0,0:0:0:0:
128,64,28184,1,8,0:0:0:0:
384,64,28334,1,4,0:0:0:0:
128,64,28634,1,0,0:0:0:0:
464,160,28784,6,0,L|480:288,1,125.999996154785,2|4,0:0|0:0,0:0:0:0:
192,288,29084,1,8,0:0:0:0:
256,288,29159,1,0,0:0:0:0:
320,288,29234,1,0,0:0:0:0:
17,285,29384,2,0,L|32:160,1,125.999996154785,4|0,0:0|0:0,0:0:0:0:
320,160,29684,1,8,0:0:0:0:
192,160,29834,1,0,0:0:0:0:
416,160,29984,6,0,L|432:288,1,125.999996154785,4|0,0:0|0:0,0:0:0:0:
96,160,30284,2,0,L|80:224,2,62.9999980773926,8|0|0,0:0|0:0|0:0,0:0:0:0:
320,160,30584,1,4,0:0:0:0:
192,160,30734,1,8,0:0:0:0:
416,192,30884,1,4,0:0:0:0:
96,192,31034,1,8,0:0:0:0:
400,224,31184,6,0,L|464:224,2,62.9999980773926,4|0|0,0:0|0:0|0:0,0:0:0:0:
256,224,31484,2,0,L|320:224,1,62.9999980773926,8|0,0:0|0:0,0:0:0:0:
400,224,31634,1,0,0:0:0:0:
144,144,31784,2,0,P|65:171|160:259,1,251.999992309571,4|8,0:0|0:0,0:0:0:0:
368,272,32234,1,0,0:0:0:0:
112,224,32384,6,0,L|48:224,2,62.9999980773926,4|0|0,0:0|0:0|0:0,0:0:0:0:
256,224,32684,2,0,L|192:224,1,62.9999980773926,8|0,0:0|0:0,0:0:0:0:
112,224,32834,1,0,0:0:0:0:
432,80,32984,2,0,L|448:224,1,125.999996154785,8|0,0:0|0:0,0:0:0:0:
80,80,33284,2,0,L|64:224,1,125.999996154785,8|0,0:0|0:0,0:0:0:0:
400,160,33584,5,6,0:0:0:0:
288,160,33734,1,0,0:0:0:0:
400,160,33884,1,8,0:0:0:0:
176,160,34034,1,0,0:0:0:0:
400,224,34184,5,4,0:0:0:0:
192,224,34334,1,0,0:0:0:0:
400,224,34484,1,12,0:0:0:0:
32,224,34634,1,0,0:0:0:0:
304,240,34784,5,4,0:0:0:0:
208,240,34934,1,0,0:0:0:0:
320,272,35084,1,8,0:0:0:0:
192,272,35234,1,0,0:0:0:0:
400,176,35384,5,4,0:0:0:0:
128,176,35534,1,0,0:0:0:0:
432,96,35684,1,12,0:0:0:0:
80,96,35834,1,0,0:0:0:0:
416,224,35984,6,0,L|400:288,1,62.9999980773926,4|0,0:0|0:0,0:0:0:0:
194,288,36134,2,0,L|258:288,1,62.9999980773926,4|0,0:0|0:0,0:0:0:0:
320,288,36284,2,0,L|256:288,1,62.9999980773926,8|0,0:0|0:0,0:0:0:0:
96,224,36434,2,0,L|112:288,1,62.9999980773926,8|0,0:0|0:0,0:0:0:0:
256,160,36584,6,0,L|320:160,1,62.9999980773926,4|0,0:0|0:0,0:0:0:0:
256,160,36734,2,0,L|192:160,1,62.9999980773926,4|0,0:0|0:0,0:0:0:0:
416,160,36884,2,0,L|432:96,1,62.9999980773926,8|0,0:0|0:0,0:0:0:0:
96,160,37034,2,0,L|80:96,1,62.9999980773926,8|0,0:0|0:0,0:0:0:0:
256,96,37184,5,2,0:0:0:0:
480,192,38084,1,4,0:0:0:0:
160,224,38384,5,6,0:0:0:0:
384,320,38534,2,0,L|256:320,2,125.999996154785,0|8|0,0:2|0:0|0:2,0:0:0:0:
128,160,38984,1,4,0:0:0:0:
256,192,39134,1,0,0:2:0:0:
128,160,39284,1,8,0:0:0:0:
384,160,39434,1,0,0:2:0:0:
128,160,39584,6,0,L|112:272,1,62.9999980773926,4|0,0:0|0:0,0:0:0:0:
384,160,39734,2,0,P|438:200|464:256,1,125.999996154785,0|8,0:2|0:0,0:0:0:0:
128,160,40034,2,0,P|73:200|48:256,1,125.999996154785,0|4,0:2|0:0,0:0:0:0:
352,160,40334,2,0,L|224:160,2,125.999996154785,0|8|0,0:2|0:0|0:2,0:0:0:0:
64,224,40784,6,0,L|192:224,2,125.999996154785,4|0|8,0:0|0:2|0:0,0:0:0:0:
316,224,41234,2,0,L|188:224,1,125.999996154785,0|4,0:2|0:0,0:0:0:0:
416,224,41534,1,0,0:2:0:0:
192,192,41684,1,8,0:0:0:0:
320,192,41834,1,0,0:2:0:0:
96,192,41984,6,0,L|160:192,1,62.9999980773926,4|0,0:0|0:0,0:0:0:0:
320,272,42134,2,0,L|464:272,2,125.999996154785,0|8|0,0:2|0:0|0:2,0:0:0:0:
240,272,42509,1,0,0:2:0:0:
448,192,42584,2,0,L|320:192,1,125.999996154785,4|0,0:0|0:2,0:0:0:0:
194,272,42884,2,0,L|322:272,1,125.999996154785,8|0,0:0|0:2,0:0:0:0:
112,224,43184,5,6,0:0:0:0:
384,224,43334,2,0,L|256:224,2,125.999996154785,0|8|0,0:2|0:0|0:2,0:0:0:0:
128,112,43784,2,0,L|112:240,1,125.999996154785,4|0,0:0|0:2,0:0:0:0:
384,144,44084,2,0,L|400:272,1,125.999996154785,8|0,0:0|0:2,0:0:0:0:
32,160,44384,6,0,L|48:272,1,62.9999980773926,4|0,0:0|0:0,0:0:0:0:
192,224,44534,2,0,L|320:224,2,125.999996154785,0|8|0,0:2|0:0|0:2,0:0:0:0:
464,285,44984,2,0,L|480:160,1,125.999996154785,4|0,0:0|0:2,0:0:0:0:
47,285,45284,2,0,L|32:160,1,125.999996154785,8|0,0:0|0:2,0:0:0:0:
480,160,45584,6,0,L|464:272,1,62.9999980773926,4|0,0:0|0:0,0:0:0:0:
192,160,45734,2,0,L|80:240,1,125.999996154785,0|8,0:2|0:0,0:0:0:0:
320,160,46034,2,0,L|432:240,2,125.999996154785,0|4|0,0:2|0:0|0:2,0:0:0:0:
48,160,46484,6,0,L|32:224,1,62.9999980773926,8|0,0:0|0:0,0:0:0:0:
464,160,46634,2,0,L|480:224,1,62.9999980773926,0|0,0:0|0:0,0:0:0:0:
320,192,46784,5,4,0:0:0:0:
192,192,46821,1,0,0:0:0:0:
208,224,47084,5,4,0:0:0:0:
336,224,47121,1,0,0:0:0:0:
352,160,47384,5,4,0:0:0:0:
176,160,47421,1,0,0:0:0:0:
160,192,47534,1,4,0:0:0:0:
336,192,47571,1,0,0:0:0:0:
352,160,47684,5,4,0:0:0:0:
176,160,47721,1,0,0:0:0:0:
160,192,47834,1,4,0:0:0:0:
336,192,47871,1,0,0:0:0:0:
352,224,47984,5,6,0:0:0:0:
144,320,48134,2,0,L|272:320,1,125.999996154785,0|8,0:2|0:0,0:0:0:0:
32,224,48434,2,0,L|160:224,2,125.999996154785,0|4|0,0:2|0:0|0:2,0:0:0:0:
336,224,48884,2,0,L|208:224,1,125.999996154785,8|0,0:0|0:2,0:0:0:0:
448,224,49184,5,4,0:0:0:0:
224,224,49334,2,0,L|256:160,1,62.9999980773926,0|0,0:2|0:0,0:0:0:0:
416,160,49484,1,8,0:0:0:0:
176,224,49634,2,0,L|208:160,1,62.9999980773926,0|0,0:2|0:0,0:0:0:0:
368,160,49784,1,4,0:0:0:0:
144,224,49934,1,0,0:2:0:0:
352,160,50084,6,0,L|368:48,1,62.9999980773926,8|0,0:0|0:0,0:0:0:0:
288,96,50234,2,0,L|208:96,1,62.9999980773926,0|0,0:2|0:0,0:0:0:0:
64,160,50384,5,4,0:0:0:0:
288,160,50534,2,0,L|256:224,1,62.9999980773926,0|0,0:2|0:0,0:0:0:0:
96,224,50684,1,8,0:0:0:0:
336,160,50834,2,0,L|304:224,1,62.9999980773926,0|0,0:2|0:0,0:0:0:0:
96,224,50984,2,0,P|39:143|108:116,1,188.999994232178,4|0,0:0|3:0,0:0:0:0:
256,112,51284,1,8,0:0:0:0:
144,112,51434,1,0,0:2:0:0:
416,192,51584,6,0,L|352:192,1,62.9999980773926,4|0,0:0|0:0,0:0:0:0:
192,272,51734,2,0,L|48:272,2,125.999996154785,0|8|0,0:2|0:0|0:2,0:0:0:0:
272,272,52109,1,0,0:0:0:0:
64,192,52184,2,0,L|192:192,1,125.999996154785,4|0,0:0|0:2,0:0:0:0:
318,272,52484,2,0,L|190:272,1,125.999996154785,8|0,0:0|0:2,0:0:0:0:
400,160,52784,5,6,0:0:0:0:
128,160,52934,2,0,L|256:160,2,125.999996154785,0|8|0,0:2|0:0|0:2,0:0:0:0:
336,160,53384,1,4,0:0:0:0:
397,148,53459,1,0,0:0:0:0:
454,120,53534,1,0,0:2:0:0:
176,160,53684,2,0,P|115:150|48:112,1,125.999996154785,8|0,0:0|0:2,0:0:0:0:
352,224,53984,6,0,L|368:163,1,62.9999980773926,4|0,0:0|0:0,0:0:0:0:
224,160,54134,2,0,L|352:160,1,125.999996154785,0|8,0:2|0:0,0:0:0:0:
144,160,54434,1,0,0:2:0:0:
416,224,54584,2,0,P|473:143|404:116,1,188.999994232178,4|0,0:0|0:0,0:0:0:0:
192,112,54884,1,8,0:0:0:0:
320,112,55034,1,0,0:2:0:0:
96,288,55184,6,0,L|80:176,1,62.9999980773926,4|0,0:0|0:0,0:0:0:0:
304,208,55334,2,0,L|320:96,1,62.9999980773926,0|0,0:0|0:0,0:0:0:0:
208,208,55484,2,0,L|192:96,1,62.9999980773926,8|0,0:0|0:0,0:0:0:0:
416,288,55634,2,0,L|432:176,1,62.9999980773926,0|0,0:0|0:0,0:0:0:0:
96,208,55784,6,0,L|80:320,3,62.9999980773926,4|0|0|0,0:0|0:0|0:0|0:0,0:0:0:0:
416,208,56084,2,0,L|432:320,3,62.9999980773926,8|0|0|0,0:0|0:0|0:0|0:0,0:0:0:0:
96,208,56384,5,6,0:0:0:0:
256,208,56984,1,0,0:0:0:0:
32,176,57134,1,0,0:0:0:0:
480,176,57284,1,8,0:0:0:0:
256,208,57434,1,0,0:0:0:0:
480,176,57584,5,2,0:0:0:0:
64,48,58184,2,0,L|448:48,1,381.600000582275,0|0,0:2|0:0,0:0:0:0:
192,128,59084,1,0,0:0:0:0:
416,128,59384,2,0,P|480:192|416:240,1,190.800000291138,0|0,0:0|0:0,0:0:0:0:
160,240,59984,6,0,L|352:240,1,190.800000291138,0|0,0:0|0:0,0:0:0:0:
96,128,60584,2,0,P|32:192|96:240,1,190.800000291138,0|0,0:0|0:0,0:0:0:0:
368,208,61184,1,0,0:0:0:0:
144,208,61484,1,0,0:0:0:0:
256,160,61634,1,0,0:0:0:0:
368,112,61784,1,0,0:0:0:0:
80,112,62084,1,0,0:0:0:0:
448,48,62384,6,0,L|64:48,1,381.600000582275,2|0,3:3|0:0,0:0:0:0:
320,128,63284,1,0,0:0:0:0:
96,128,63584,2,0,P|32:192|96:240,1,190.800000291138,0|0,0:0|0:0,0:0:0:0:
352,240,64184,2,0,L|160:240,1,190.800000291138,0|0,0:0|0:0,0:0:0:0:
416,128,64784,6,0,P|480:192|416:240,1,190.800000291138,0|0,0:0|0:0,0:0:0:0:
160,208,65384,1,0,0:0:0:0:
352,208,65684,1,0,0:0:0:0:
160,208,65909,1,0,0:0:0:0:
128,304,65984,1,0,0:0:0:0:
432,208,66284,1,0,0:0:0:0:
160,208,66584,1,0,0:0:0:0:
352,208,66884,1,0,0:0:0:0:
160,208,67034,1,0,0:0:0:0:
416,304,67184,6,0,P|352:112|176:80,1,381.600000582275,2|0,3:3|0:0,0:0:0:0:
416,304,68084,1,0,0:0:0:0:
96,304,68384,2,0,P|160:112|336:80,1,381.600000582275,0|0,0:0|0:0,0:0:0:0:
96,304,69284,1,0,0:0:0:0:
352,160,69584,6,0,L|160:160,1,190.800000291138,0|0,0:0|0:0,0:0:0:0:
416,112,70184,2,0,P|480:176|416:224,1,190.800000291138,0|0,0:0|0:0,0:0:0:0:
160,160,70784,2,0,L|352:160,1,190.800000291138,0|0,0:0|0:0,0:0:0:0:
96,112,71384,2,0,P|32:176|96:224,1,190.800000291138,0|0,0:0|0:0,0:0:0:0:
376,96,71984,5,0,0:0:0:0:
136,96,72284,1,0,0:0:0:0:
392,176,72584,1,0,0:0:0:0:
120,176,72884,1,0,0:0:0:0:
408,256,73184,1,0,0:0:0:0:
104,256,73484,1,0,0:0:0:0:
424,336,73784,1,0,0:0:0:0:
88,336,74084,1,0,0:0:0:0:
472,192,74384,6,0,L|344:192,3,125.999996154785,6|0|4|0,0:0|0:0|0:0|0:0,0:0:0:0:
184,280,74984,6,0,L|312:280,3,125.999996154785,4|0|4|0,0:0|0:0|0:0|0:0,0:0:0:0:
472,192,75584,5,0,0:0:0:0:
328,192,75734,1,0,0:0:0:0:
184,192,75884,1,0,0:0:0:0:
40,192,76034,1,0,0:0:0:0:
400,192,76184,6,0,L|404:128,1,62.9999980773926,0|0,0:0|0:0,0:0:0:0:
304,128,76334,2,0,L|300:64,1,62.9999980773926,0|0,0:0|0:0,0:0:0:0:
208,224,76484,2,0,L|212:160,1,62.9999980773926,0|0,0:0|0:0,0:0:0:0:
112,160,76634,2,0,L|108:96,1,62.9999980773926,0|0,0:0|0:0,0:0:0:0:
400,192,76784,1,2,0:0:0:0:
48,32,81584,6,0,L|32:128,1,95.4000001455689,0|0,0:0|0:0,0:0:0:0:
160,144,81884,2,0,L|176:240,1,95.4000001455689,0|0,0:0|0:0,0:0:0:0:
304,240,82184,2,0,L|288:336,1,95.4000001455689,0|0,0:0|0:0,0:0:0:0:
160,144,82484,1,2,0:2:0:0:
288,144,82634,1,0,0:0:0:0:
464,32,82784,6,0,L|480:128,1,95.4000001455689,2|0,0:2|0:0,0:0:0:0:
352,144,83084,2,0,L|336:240,1,95.4000001455689,0|0,0:0|0:0,0:0:0:0:
208,240,83384,2,0,L|224:336,1,95.4000001455689,0|0,0:0|0:0,0:0:0:0:
352,144,83684,1,2,0:2:0:0:
224,144,83834,1,2,0:2:0:0:
384,144,83984,6,0,L|400:240,1,95.4000001455689,2|0,0:2|0:0,0:0:0:0:
256,304,84284,2,0,L|352:304,1,95.4000001455689,0|0,0:0|0:0,0:0:0:0:
192,240,84584,2,0,L|208:144,1,95.4000001455689,0|0,0:0|0:0,0:0:0:0:
351,304,84884,2,0,L|255:304,1,95.4000001455689,2|0,0:2|0:0,0:0:0:0:
128,144,85184,6,0,L|112:240,1,95.4000001455689,2|0,0:2|0:0,0:0:0:0:
256,304,85484,2,0,L|160:304,1,95.4000001455689,0|0,0:0|0:0,0:0:0:0:
320,240,85784,2,0,L|304:144,1,95.4000001455689,0|0,0:0|0:0,0:0:0:0:
161,304,86084,2,0,L|257:304,1,95.4000001455689,2|2,0:2|0:2,0:0:0:0:
400,240,86384,6,0,L|416:144,1,95.4000001455689,0|0,0:0|0:0,0:0:0:0:
256,176,86684,2,0,L|256:80,1,95.4000001455689,0|0,0:0|0:0,0:0:0:0:
112,240,86984,2,0,L|96:144,1,95.4000001455689,0|0,0:0|0:0,0:0:0:0:
256,80,87284,2,0,L|160:80,1,95.4000001455689,2|0,0:2|0:0,0:0:0:0:
32,192,87584,6,0,L|128:192,1,95.4000001455689,2|0,0:2|0:0,0:0:0:0:
256,192,87884,2,0,L|352:192,1,95.4000001455689,0|0,0:0|0:0,0:0:0:0:
208,288,88184,2,0,L|112:288,1,95.4000001455689,2|2,0:2|0:2,0:0:0:0:
256,192,88484,2,0,L|352:192,1,95.4000001455689,2|2,0:2|0:2,0:0:0:0:
176,96,88784,6,0,L|160:192,1,95.4000001455689,0|0,0:0|0:0,0:0:0:0:
328,208,89084,1,2,0:2:0:0:
184,208,89234,1,2,0:2:0:0:
336,96,89384,6,0,L|352:192,1,95.4000001455689,0|0,0:0|0:0,0:0:0:0:
184,208,89684,1,2,0:2:0:0:
328,208,89834,1,2,0:2:0:0:
176,96,89984,6,0,L|160:192,1,95.4000001455689
336,96,90284,2,0,L|351:190,1,95.4000001455689,2|2,0:2|0:2,0:2:0:0:
152,272,90584,2,0,L|248:272,1,95.4000001455689,2|2,0:2|0:2,0:2:0:0:
360,240,90884,2,0,L|264:240,1,95.4000001455689,0|0,0:0|0:0,0:0:0:0:
128,112,91184,6,0,L|112:208,1,95.4000001455689,2|0,0:2|0:0,0:0:0:0:
240,224,91484,2,0,L|224:320,1,95.4000001455689,0|0,0:0|0:0,0:0:0:0:
384,112,91784,6,0,L|400:208,1,95.4000001455689,2|0,0:2|0:0,0:0:0:0:
272,224,92084,2,0,L|288:320,1,95.4000001455689,0|0,0:0|0:0,0:0:0:0:
112,144,92384,6,0,L|208:144,1,95.4000001455689,2|0,0:2|0:0,0:0:0:0:
400,144,92684,2,0,L|304:144,1,95.4000001455689,0|0,0:0|0:0,0:0:0:0:
144,224,92984,6,0,L|48:224,1,95.4000001455689,2|0,0:2|0:0,0:0:0:0:
368,224,93284,2,0,L|464:224,1,95.4000001455689,2|0,0:2|0:0,0:0:0:0:
208,288,93584,6,0,L|304:288,3,95.4000001455689,2|0|0|0,0:2|0:0|0:2|0:0,0:0:0:0:
80,192,94184,2,0,L|176:192,1,95.4000001455689,2|0,0:2|0:0,0:0:0:0:
432,192,94484,2,0,L|336:192,1,95.4000001455689,2|0,0:2|0:0,0:0:0:0:
48,96,94784,6,0,L|32:192,1,95.4000001455689,2|0,0:2|0:0,0:0:0:0:
256,176,95084,2,0,L|256:272,1,95.4000001455689,2|0,0:2|0:0,0:0:0:0:
464,96,95384,2,0,L|480:192,1,95.4000001455689,2|0,0:2|0:0,0:0:0:0:
184,144,95684,1,2,0:2:0:0:
328,144,95834,1,2,0:2:0:0:
112,288,95984,6,0,L|48:288,1,62.9999980773926,2|0,0:2|0:0,0:0:0:0:
144,288,96134,1,0,0:0:0:0:
205,283,96209,1,0,0:0:0:0:
247,239,96284,1,0,0:0:0:0:
247,177,96359,1,0,0:0:0:0:
206,132,96434,1,0,0:0:0:0:
144,127,96509,1,0,0:0:0:0:
400,288,96584,6,0,L|464:288,1,62.9999980773926,2|0,0:2|0:0,0:0:0:0:
368,288,96734,1,0,0:0:0:0:
307,283,96809,1,0,0:0:0:0:
265,239,96884,1,0,0:0:0:0:
265,177,96959,1,0,0:0:0:0:
306,132,97034,1,0,0:0:0:0:
368,127,97109,1,0,0:0:0:0:
144,80,97184,6,0,L|80:80,1,62.9999980773926,2|0,0:2|0:0,0:0:0:0:
144,128,97334,2,0,L|208:128,1,62.9999980773926,0|0,0:0|0:0,0:0:0:0:
368,80,97484,2,0,L|432:80,1,62.9999980773926,2|0,0:2|0:0,0:0:0:0:
368,128,97634,2,0,L|304:128,1,62.9999980773926,0|0,0:0|0:0,0:0:0:0:
152,256,97784,6,0,L|216:256,1,62.9999980773926,2|0,0:2|0:0,0:0:0:0:
296,256,97934,2,0,L|360:256,1,62.9999980773926,0|0,0:0|0:0,0:0:0:0:
144,224,98084,2,0,L|128:160,1,62.9999980773926,2|0,0:2|0:0,0:0:0:0:
368,224,98234,2,0,L|384:160,1,62.9999980773926,2|0,0:2|0:0,0:0:0:0:
176,32,98384,5,2,0:2:0:0:
115,46,98459,1,0,0:0:0:0:
67,86,98534,1,0,0:0:0:0:
42,143,98609,1,0,0:0:0:0:
44,205,98684,1,0,0:0:0:0:
75,260,98759,1,0,0:0:0:0:
126,295,98834,1,0,0:0:0:0:
188,304,98909,1,0,0:0:0:0:
336,32,98984,5,2,0:2:0:0:
397,46,99059,1,0,0:0:0:0:
445,86,99134,1,0,0:0:0:0:
470,143,99209,1,0,0:0:0:0:
176,192,99284,2,0,L|112:194,1,62.9999980773926,2|0,0:2|0:0,0:0:0:0:
336,192,99434,2,0,L|400:194,1,62.9999980773926,2|0,0:2|0:0,0:0:0:0:
144,336,99584,5,2,0:2:0:0:
163,276,99659,1,0,0:0:0:0:
210,235,99734,1,0,0:0:0:0:
271,222,99809,1,0,0:0:0:0:
384,256,99884,1,0,0:0:0:0:
365,196,99959,1,0,0:0:0:0:
318,155,100034,1,0,0:0:0:0:
257,142,100109,1,0,0:0:0:0:
48,192,100184,5,2,0:2:0:0:
67,132,100259,1,0,0:0:0:0:
114,91,100334,1,0,0:0:0:0:
175,78,100409,1,0,0:0:0:0:
464,192,100484,1,2,0:2:0:0:
445,132,100559,1,0,0:0:0:0:
398,91,100634,1,0,0:0:0:0:
337,78,100709,1,0,0:0:0:0:
128,160,100784,5,2,0:0:0:0:
336,160,100934,1,0,0:0:0:0:
128,160,101084,2,0,L|112:272,1,62.9999980773926,8|0,0:1|0:0,0:0:0:0:
208,224,101234,2,0,L|224:336,1,62.9999980773926,0|0,0:0|0:0,0:0:0:0:
32,352,101384,1,0,0:0:0:0:
144,352,101534,1,0,0:0:0:0:
32,352,101684,1,8,0:1:0:0:
224,352,101759,2,0,L|288:352,2,62.9999980773926,0|0|0,0:0|0:0|0:0,0:0:0:0:
32,352,101984,6,0,L|48:288,1,62.9999980773926,4|0,0:0|0:0,0:0:0:0:
192,288,102134,2,0,L|320:288,2,125.999996154785,0|8|0,0:0|0:1|0:0,0:0:0:0:
400,272,102584,2,0,P|453:249|445:191,1,125.999996154785,4|0,0:0|0:0,0:0:0:0:
368,192,102809,1,0,0:0:0:0:
224,112,102884,2,0,L|288:112,1,62.9999980773926,8|0,0:1|0:0,0:0:0:0:
368,192,103034,2,0,L|304:192,1,62.9999980773926,0|0,0:0|0:0,0:0:0:0:
128,288,103184,6,0,L|254:288,2,125.999996154785,2|0|8,0:0|0:0|0:1,0:0:0:0:
192,288,103559,2,0,L|272:288,1,62.9999980773926,0|0,0:0|0:0,0:0:0:0:
400,288,103709,1,0,0:0:0:0:
255,288,103784,1,4,0:0:0:0:
192,288,103859,2,0,L|160:208,2,62.9999980773926,0|0|0,0:0|0:0|0:0,0:0:0:0:
272,208,104084,2,0,P|273:143|224:128,1,125.999996154785,8|0,0:1|0:0,0:0:0:0:
144,128,104309,1,0,0:0:0:0:
320,112,104384,6,0,L|384:112,1,62.9999980773926,4|0,0:0|0:0,0:0:0:0:
208,128,104534,2,0,L|224:192,1,62.9999980773926
384,160,104684,2,0,L|400:224,1,62.9999980773926,8|0,0:1|0:0,0:0:0:0:
352,224,104834,2,0,L|288:224,1,62.9999980773926,0|0,0:0|0:0,0:0:0:0:
480,224,104984,1,4,0:0:0:0:
460,260,105059,1,0,0:0:0:0:
420,276,105134,1,0,0:0:0:0:
372,276,105209,1,0,0:0:0:0:
192,272,105284,1,8,0:1:0:0:
208,208,105359,1,0,0:0:0:0:
256,160,105434,1,0,0:0:0:0:
320,144,105509,1,0,0:0:0:0:
128,272,105584,6,0,L|270:272,1,125.999996154785,2|0,0:0|0:0,0:0:0:0:
128,272,105884,2,0,L|112:208,1,62.9999980773926,8|0,0:1|0:1,0:0:0:0:
192,192,106034,2,0,L|208:128,1,62.9999980773926,0|0,0:0|0:0,0:0:0:0:
128,128,106184,1,4,0:0:0:0:
336,128,106334,2,0,L|400:128,1,62.9999980773926
240,128,106484,2,0,L|176:128,2,62.9999980773926,8|0|0,0:1|0:0|0:0,0:0:0:0:
416,128,106709,1,0,0:0:0:0:
480,160,106784,6,0,L|352:160,1,125.999996154785,4|0,0:0|0:0,0:0:0:0:
416,128,107009,1,0,0:0:0:0:
480,112,107084,2,0,L|352:112,2,125.999996154785,4|0|4,0:0|0:0|0:0,0:0:0:0:
192,208,107459,2,0,L|176:288,2,62.9999980773926,0|0|0,0:0|0:1|0:0,0:0:0:0:
336,192,107684,2,0,B|384:176|384:176|416:96,1,125.999996154785,8|0,0:1|0:0,0:0:0:0:
128,96,107984,5,6,0:0:0:0:
64,128,108059,1,0,0:0:0:0:
48,192,108134,1,0,0:0:0:0:
320,240,108209,1,0,0:0:0:0:
256,272,108284,1,8,0:1:0:0:
48,192,108434,1,0,0:0:0:0:
46,215,108471,1,0,0:0:0:0:
384,96,108584,5,4,0:0:0:0:
448,128,108659,1,0,0:0:0:0:
464,192,108734,1,0,0:0:0:0:
192,240,108809,1,0,0:0:0:0:
256,272,108884,1,8,0:1:0:0:
464,192,109034,1,0,0:0:0:0:
466,215,109071,1,0,0:0:0:0:
144,64,109184,6,0,L|138:129,2,62.9999980773926
368,64,109484,2,0,L|432:64,2,62.9999980773926,8|0|0,0:1|0:0|0:0,0:0:0:0:
112,192,109784,1,4,0:0:0:0:
110,214,109821,1,0,0:0:0:0:
352,192,109934,2,0,P|368:160|368:128,1,62.9999980773926,8|0,0:1|0:0,0:0:0:0:
152,112,110084,2,0,L|216:112,1,62.9999980773926
296,112,110234,2,0,L|308:181,1,62.9999980773926
112,192,110384,6,0,L|48:192,1,62.9999980773926,6|0,0:0|0:0,0:0:0:0:
192,192,110534,2,0,L|208:256,1,62.9999980773926,0|0,0:0|0:0,0:0:0:0:
64,272,110684,1,8,0:1:0:0:
176,272,110834,1,0,0:0:0:0:
400,192,110984,2,0,L|464:192,1,62.9999980773926,4|0,0:0|0:0,0:0:0:0:
320,192,111134,2,0,L|304:256,1,62.9999980773926,0|0,0:0|0:0,0:0:0:0:
448,272,111284,1,8,0:1:0:0:
336,272,111434,1,0,0:0:0:0:
64,272,111584,6,0,L|128:272,1,62.9999980773926,4|0,0:0|0:0,0:0:0:0:
208,272,111734,2,0,L|272:272,1,62.9999980773926,0|0,0:0|0:0,0:0:0:0:
432,224,111884,2,0,L|368:224,1,62.9999980773926,8|0,0:1|0:0,0:0:0:0:
288,224,112034,2,0,L|224:224,1,62.9999980773926,0|0,0:0|0:0,0:0:0:0:
32,160,112184,2,0,P|31:226|84:241,1,125.999996154785,4|0,0:0|0:0,0:0:0:0:
160,240,112409,1,0,0:0:0:0:
288,320,112484,2,0,P|289:254|236:239,1,125.999996154785,8|0,0:1|0:0,0:0:0:0:
160,240,112709,1,0,0:0:0:0:
352,160,112784,5,6,0:0:0:0:
144,160,112934,1,2,0:0:0:0:
352,160,113084,1,8,0:1:0:0:
400,160,113159,1,0,0:0:0:0:
440,176,113234,1,0,0:0:0:0:
460,212,113309,1,0,0:0:0:0:
460,252,113384,1,4,0:0:0:0:
455,270,113421,1,0,0:0:0:0:
440,288,113459,1,0,0:0:0:0:
400,316,113534,1,0,0:0:0:0:
352,316,113609,1,0,0:0:0:0:
208,320,113684,2,0,L|144:320,1,62.9999980773926,8|0,0:1|0:0,0:0:0:0:
304,320,113834,2,0,L|320:260,1,62.9999980773926,0|0,0:0|0:0,0:0:0:0:
80,160,113984,5,4,0:0:0:0:
96,224,114059,1,0,0:0:0:0:
144,272,114134,1,0,0:0:0:0:
208,288,114209,1,0,0:0:0:0:
368,160,114284,1,8,0:1:0:0:
352,224,114359,1,0,0:0:0:0:
304,272,114434,1,0,0:0:0:0:
240,288,114509,1,0,0:0:0:0:
464,144,114584,6,0,L|474:213,1,62.9999980773926,4|0,0:0|0:0,0:0:0:0:
384,208,114734,2,0,L|394:277,1,62.9999980773926
240,288,114884,2,0,L|230:225,1,62.9999980773926,8|0,0:1|0:0,0:0:0:0:
384,208,115034,2,0,L|374:145,1,62.9999980773926,4|0,0:0|0:0,0:0:0:0:
96,192,115184,5,6,0:0:0:0:
304,192,115334,1,0,0:0:0:0:
96,192,115484,2,0,L|112:256,1,62.9999980773926,8|0,0:1|0:0,0:0:0:0:
192,272,115634,2,0,L|256:272,1,62.9999980773926,0|0,0:0|0:0,0:0:0:0:
416,192,115784,1,4,0:0:0:0:
208,192,115934,1,0,0:0:0:0:
416,192,116084,2,0,L|400:256,1,62.9999980773926,8|0,0:1|0:0,0:0:0:0:
320,272,116234,2,0,L|256:272,1,62.9999980773926,0|0,0:0|0:0,0:0:0:0:
480,224,116384,6,0,L|352:224,1,125.999996154785,4|0,0:0|0:0,0:0:0:0:
416,256,116609,1,0,0:0:0:0:
480,272,116684,2,0,L|352:272,2,125.999996154785,8|0|4,0:1|0:0|0:0,0:0:0:0:
272,176,117059,2,0,L|256:96,2,62.9999980773926,0|0|0,0:0|0:1|0:0,0:0:0:0:
336,192,117284,2,0,L|416:192,1,62.9999980773926,8|0,0:1|0:0,0:0:0:0:
192,192,117434,2,0,L|112:192,1,62.9999980773926,0|0,0:0|0:0,0:0:0:0:
399,192,117584,5,2,0:0:0:0:
192,128,117884,2,0,L|464:128,2,251.999992309571,0|0|0,0:0|0:0|0:0,0:0:0:0:
444,128,118784,6,0,P|448:192|432:256,1,125.999996154785,0|0,0:0|0:0,0:0:0:0:
336,256,119084,2,0,P|304:320|256:352,1,125.999996154785,0|0,0:0|0:0,0:0:0:0:
144,352,119384,2,0,L|16:352,3,125.999996154785,0|0|0|0,0:0|0:0|0:0|0:0,0:0:0:0:
384,192,119984,6,0,L|272:192,1,99.0000030212403,6|0,0:0|1:0,0:0:0:0:
128,192,120284,2,0,L|240:192,1,99.0000030212403,4|0,0:0|1:0,0:0:0:0:
48,224,120584,6,0,L|160:224,1,99.0000030212403,4|0,0:0|1:0,0:0:0:0:
304,224,120884,2,0,L|192:224,1,99.0000030212403,4|0,0:0|1:0,0:0:0:0:
336,224,121184,6,0,L|464:224,1,99.0000030212403,4|0,0:0|1:0,0:0:0:0:
288,224,121484,2,0,L|176:224,1,99.0000030212403,4|0,0:0|1:0,0:0:0:0:
32,224,121784,6,0,L|144:224,1,99.0000030212403,4|0,0:0|1:0,0:0:0:0:
256,224,122084,2,0,L|144:224,1,99.0000030212403,4|0,0:0|1:0,0:0:0:0:
368,128,122384,5,0,0:0:0:0:
480,128,122534,1,0,1:0:0:0:
352,160,122684,1,0,0:0:0:0:
496,160,122834,1,0,1:0:0:0:
144,256,122984,5,0,0:0:0:0:
32,256,123134,1,0,1:0:0:0:
160,224,123284,1,0,0:0:0:0:
16,224,123434,1,0,1:0:0:0:
480,160,123584,6,0,P|470:217|448:272,1,99.0000030212403,0|0,0:0|1:0,0:0:0:0:
304,256,123884,2,0,P|287:314|256:352,1,99.0000030212403,0|0,0:0|1:0,0:0:0:0:
32,352,124184,6,0,L|144:352,1,99.0000030212403,0|0,0:0|1:0,0:0:0:0:
384,352,124484,2,0,L|496:352,1,99.0000030212403,0|0,0:0|1:0,0:0:0:0:
112,224,124784,6,4,L|32:160,3,99.0000030212403,6|4|4|4,0:0|0:0|0:0|0:0,0:0:0:0:
192,272,125384,6,4,L|80:240,3,99.0000030212403,4|4|4|4,0:0|0:0|0:0|0:0,0:0:0:0:
304,288,125984,6,4,L|192:288,3,99.0000030212403,4|4|4|4,0:0|0:0|0:0|0:0,0:0:0:0:
480,32,126584,6,4,L|368:32,1,99.0000030212403,4|4,0:0|0:0,0:0:0:0:
128,32,126884,2,4,L|16:32,1,99.0000030212403,4|4,0:0|0:0,0:0:0:0:
256,160,127184,5,0,0:0:0:0:
128,160,127334,1,0,0:0:0:0:
256,160,127484,1,0,0:0:0:0:
32,160,127634,1,0,0:0:0:0:
256,224,127784,5,0,0:0:0:0:
384,224,127934,1,0,0:0:0:0:
256,224,128084,1,0,0:0:0:0:
480,224,128234,1,0,0:0:0:0:
144,160,128384,6,0,P|160:240|369:153,1,396.000012084961,0|0,0:0|0:0,0:0:0:0:
142,162,129284,2,0,P|164:247|209:283,1,148.50000453186,0|0,0:0|0:0,0:0:0:0:
384,272,129584,5,6,0:0:0:0:
256,272,129734,1,0,0:0:0:0:
464,272,129884,2,0,L|480:368,2,62.9999980773926,8|0|0,0:0|0:0|0:0,0:0:0:0:
128,272,130184,1,4,0:0:0:0:
256,272,130334,1,0,0:0:0:0:
48,272,130484,2,0,L|32:368,2,62.9999980773926,8|0|0,0:0|0:0|0:0,0:0:0:0:
320,192,130784,5,4,0:0:0:0:
256,192,130859,1,0,0:0:0:0:
192,192,130934,1,0,0:0:0:0:
400,192,131084,2,0,P|432:240|448:320,1,125.999996154785,8|0,0:0|0:0,0:0:0:0:
32,224,131384,2,0,P|48:160|112:128,1,125.999996154785,4|0,0:0|0:0,0:0:0:0:
480,224,131684,2,0,P|464:160|400:128,1,125.999996154785,8|0,0:0|0:0,0:0:0:0:
180,256,131984,5,4,0:0:0:0:
68,256,132134,1,0,0:0:0:0:
196,224,132284,1,8,0:0:0:0:
52,224,132434,1,0,0:0:0:0:
180,256,132584,1,4,0:0:0:0:
68,256,132734,1,0,0:0:0:0:
320,192,132884,2,0,L|192:192,1,125.999996154785,8|0,0:0|0:0,0:0:0:0:
480,160,133184,6,0,L|464:288,1,125.999996154785,4|0,0:0|0:0,0:0:0:0:
240,192,133484,2,0,L|224:320,1,125.999996154785,8|0,0:0|0:0,0:0:0:0:
304,336,133709,1,0,0:0:0:0:
448,336,133784,1,4,0:0:0:0:
336,272,133934,1,0,0:0:0:0:
304,160,134084,1,8,0:0:0:0:
432,80,134234,1,0,0:0:0:0:
160,176,134384,6,0,L|144:240,1,62.9999980773926,6|0,0:0|0:0,0:0:0:0:
224,240,134534,2,0,L|304:240,1,62.9999980773926,0|0,0:0|0:0,0:0:0:0:
144,237,134684,1,8,0:0:0:0:
256,240,134834,1,0,0:0:0:0:
80,240,134984,2,0,L|96:304,1,62.9999980773926,4|0,0:0|0:0,0:0:0:0:
160,336,135134,2,0,L|224:336,1,62.9999980773926,0|0,0:0|0:0,0:0:0:0:
48,336,135284,1,8,0:0:0:0:
256,336,135434,1,0,0:0:0:0:
48,240,135584,5,4,0:0:0:0:
112,240,135659,1,0,0:0:0:0:
176,240,135734,1,0,0:0:0:0:
464,240,135884,1,8,0:0:0:0:
400,240,135959,1,0,0:0:0:0:
336,240,136034,1,0,0:0:0:0:
32,192,136184,2,0,L|16:320,1,125.999996154785,4|0,0:0|0:0,0:0:0:0:
144,320,136484,1,8,0:0:0:0:
16,317,136634,1,0,0:0:0:0:
352,224,136784,6,0,L|480:224,1,125.999996154785,4|0,0:0|0:0,0:0:0:0:
256,240,137084,1,8,0:0:0:0:
384,240,137234,1,0,0:0:0:0:
160,144,137384,2,0,L|80:144,1,62.9999980773926,4|0,0:0|0:0,0:0:0:0:
256,144,137534,2,0,L|320:144,1,62.9999980773926,0|0,0:0|0:0,0:0:0:0:
96,192,137684,1,8,0:0:0:0:
208,192,137834,1,0,0:0:0:0:
432,144,137984,6,0,P|432:208|416:272,1,125.999996154785,4|0,0:0|0:0,0:0:0:0:
80,144,138284,2,0,P|80:208|96:272,1,125.999996154785,8|0,0:0|0:0,0:0:0:0:
256,272,138509,1,0,0:0:0:0:
417,267,138584,2,0,P|431:205|431:143,1,125.999996154785,4|0,0:0|0:0,0:0:0:0:
144,144,138884,1,8,0:0:0:0:
368,144,139034,1,0,0:0:0:0:
128,192,139184,5,6,0:0:0:0:
112,240,139259,1,0,0:0:0:0:
128,288,139334,1,0,0:0:0:0:
176,304,139409,1,0,0:0:0:0:
254,288,139484,2,0,L|110:288,1,125.999996154785,8|0,0:0|0:0,0:0:0:0:
384,192,139784,1,4,0:0:0:0:
400,144,139859,1,0,0:0:0:0:
384,96,139934,1,0,0:0:0:0:
336,80,140009,1,0,0:0:0:0:
258,96,140084,2,0,L|402:96,1,125.999996154785,8|0,0:0|0:0,0:0:0:0:
128,160,140384,6,0,L|256:160,1,125.999996154785,4|0,0:0|0:0,0:0:0:0:
384,160,140684,2,0,L|256:160,1,125.999996154785,8|0,0:0|0:0,0:0:0:0:
465,347,140984,2,0,P|481:286|480:224,1,125.999996154785,4|0,0:0|0:0,0:0:0:0:
45,347,141284,2,0,P|29:286|32:224,1,125.999996154785,8|0,0:0|0:0,0:0:0:0:
332,128,141584,5,4,0:0:0:0:
444,128,141734,1,0,0:0:0:0:
316,160,141884,1,8,0:0:0:0:
460,160,142034,1,0,0:0:0:0:
332,128,142184,1,4,0:0:0:0:
444,128,142334,1,0,0:0:0:0:
192,192,142484,2,0,L|336:192,1,125.999996154785,8|0,0:0|0:0,0:0:0:0:
32,224,142784,6,0,L|48:96,1,125.999996154785,0|0,0:0|0:0,0:0:0:0:
272,192,143084,2,0,L|288:64,1,125.999996154785,8|0,0:0|0:0,0:0:0:0:
208,48,143309,1,0,0:0:0:0:
64,48,143384,1,4,0:0:0:0:
176,112,143534,1,0,0:0:0:0:
208,224,143684,1,8,0:0:0:0:
80,304,143834,1,0,0:0:0:0:
336,272,143984,6,0,L|400:272,1,62.9999980773926,6|0,0:0|0:0,0:0:0:0:
304,256,144134,2,0,L|288:192,1,62.9999980773926,0|0,0:0|0:0,0:0:0:0:
432,192,144284,1,8,0:0:0:0:
304,192,144434,1,0,0:0:0:0:
432,192,144584,2,0,L|448:256,1,62.9999980773926,4|0,0:0|0:0,0:0:0:0:
288,256,144734,2,0,L|224:256,1,62.9999980773926,0|0,0:0|0:0,0:0:0:0:
80,256,144884,1,8,0:0:0:0:
288,256,145034,1,0,0:0:0:0:
64,224,145184,5,4,0:0:0:0:
96,176,145259,1,0,0:0:0:0:
144,144,145334,1,0,0:0:0:0:
448,224,145484,1,8,0:0:0:0:
423,167,145559,1,0,0:0:0:0:
366,143,145634,1,0,0:0:0:0:
128,240,145784,2,0,P|71:215|47:159,1,125.999996154785,4|0,0:0|0:0,0:0:0:0:
256,240,146084,1,8,0:0:0:0:
47,159,146234,1,0,0:0:0:0:
384,80,146384,6,0,L|400:208,1,125.999996154785,4|0,0:0|0:0,0:0:0:0:
128,80,146684,2,0,L|112:208,1,125.999996154785,8|0,0:0|0:0,0:0:0:0:
384,80,146984,2,0,L|400:208,1,125.999996154785,4|0,0:0|0:0,0:0:0:0:
128,80,147284,1,8,0:0:0:0:
384,80,147434,1,0,0:0:0:0:
128,192,147584,6,0,L|256:192,1,125.999996154785,4|0,0:0|0:0,0:0:0:0:
380,192,147884,2,0,L|252:192,1,125.999996154785,8|0,0:0|0:0,0:0:0:0:
464,160,148184,1,0,0:0:0:0:
432,128,148259,1,0,0:0:0:0:
384,112,148334,1,0,0:0:0:0:
160,112,148484,2,0,P|99:171|158:232,1,188.999994232178,0|0,0:0|0:0,0:0:0:0:
384,336,148784,5,6,0:0:0:0:
448,304,148859,1,0,0:0:0:0:
464,240,148934,1,0,0:0:0:0:
448,176,149009,1,0,0:0:0:0:
384,144,149084,1,8,0:0:0:0:
304,144,149159,1,0,0:0:0:0:
240,160,149234,1,0,0:0:0:0:
304,144,149309,1,0,0:0:0:0:
128,48,149384,5,4,0:0:0:0:
64,80,149459,1,0,0:0:0:0:
48,144,149534,1,0,0:0:0:0:
64,208,149609,1,0,0:0:0:0:
128,240,149684,1,8,0:0:0:0:
208,256,149759,1,0,0:0:0:0:
272,240,149834,1,0,0:0:0:0:
208,256,149909,1,0,0:0:0:0:
480,336,149984,6,0,L|465:275,1,62.9999980773926,4|0,0:0|0:0,0:0:0:0:
320,240,150134,2,0,L|336:304,1,62.9999980773926,0|0,0:0|0:0,0:0:0:0:
256,192,150284,2,0,L|272:256,1,62.9999980773926,8|0,0:0|0:0,0:0:0:0:
192,160,150434,2,0,L|208:224,1,62.9999980773926,0|0,0:0|0:0,0:0:0:0:
64,240,150584,5,4,0:0:0:0:
80,176,150659,1,0,0:0:0:0:
128,128,150734,1,0,0:0:0:0:
192,112,150809,1,0,0:0:0:0:
336,112,150884,1,8,0:0:0:0:
320,176,150959,1,0,0:0:0:0:
272,224,151034,1,0,0:0:0:0:
208,240,151109,1,0,0:0:0:0:
480,160,151184,6,0,L|464:224,1,62.9999980773926,4|0,0:0|0:0,0:0:0:0:
288,224,151334,2,0,L|208:224,1,62.9999980773926,0|0,0:0|0:0,0:0:0:0:
32,160,151484,2,0,L|48:224,1,62.9999980773926,8|0,0:0|0:0,0:0:0:0:
224,224,151634,2,0,L|304:224,1,62.9999980773926,0|0,0:0|0:0,0:0:0:0:
32,160,151784,5,4,0:0:0:0:
47,221,151859,1,0,0:0:0:0:
80,272,151934,1,0,0:0:0:0:
144,304,152009,1,0,0:0:0:0:
352,256,152084,1,8,0:0:0:0:
287,224,152159,1,0,0:0:0:0:
144,224,152234,1,0,0:0:0:0:
80,256,152309,1,0,0:0:0:0:
369,314,152384,6,0,L|385:250,1,62.9999980773926,4|0,0:0|0:0,0:0:0:0:
193,256,152534,2,0,L|209:192,1,62.9999980773926
384,252,152684,2,0,L|397:191,1,62.9999980773926,8|0,0:0|0:0,0:0:0:0:
208,194,152834,2,0,L|223:130,1,62.9999980773926
384,288,152984,6,0,L|368:352,1,62.9999980773926,4|0,0:0|0:0,0:0:0:0:
288,352,153134,2,0,L|224:352,1,62.9999980773926,0|0,0:0|0:0,0:0:0:0:
304,336,153284,2,0,L|320:272,1,62.9999980773926,8|0,0:0|0:0,0:0:0:0:
400,240,153434,2,0,L|464:240,1,62.9999980773926,0|0,0:0|0:0,0:0:0:0:
224,192,153584,5,6,0:0:0:0:
160,176,153659,1,0,0:0:0:0:
112,144,153734,1,0,0:0:0:0:
80,96,153809,1,0,0:0:0:0:
256,80,153884,2,0,L|240:160,1,62.9999980773926,8|0,0:0|0:0,0:0:0:0:
112,144,154034,2,0,L|64:208,1,62.9999980773926,0|0,0:0|0:0,0:0:0:0:
288,192,154184,5,4,0:0:0:0:
352,208,154259,1,0,0:0:0:0:
400,240,154334,1,0,0:0:0:0:
432,288,154409,1,0,0:0:0:0:
256,304,154484,2,0,L|272:224,1,62.9999980773926,8|0,0:0|0:0,0:0:0:0:
400,240,154634,2,0,L|448:176,1,62.9999980773926,0|0,0:0|0:0,0:0:0:0:
224,112,154784,5,4,0:0:0:0:
144,144,154859,1,0,0:0:0:0:
128,192,154934,1,0,0:0:0:0:
144,240,155009,1,0,0:0:0:0:
288,160,155084,2,0,L|368:160,1,62.9999980773926,8|0,0:0|0:0,0:0:0:0:
288,160,155234,2,0,L|224:160,1,62.9999980773926,0|0,0:0|0:0,0:0:0:0:
400,192,155384,5,4,0:0:0:0:
448,208,155459,1,0,0:0:0:0:
464,256,155534,1,0,0:0:0:0:
448,304,155609,1,0,0:0:0:0:
352,352,155684,1,8,0:0:0:0:
288,352,155759,1,0,0:0:0:0:
352,352,155834,1,0,0:0:0:0:
416,336,155909,1,0,0:0:0:0:
160,160,155984,6,0,L|144:224,1,62.9999980773926,4|0,0:0|0:0,0:0:0:0:
224,256,156134,2,0,L|304:256,1,62.9999980773926,0|0,0:0|0:0,0:0:0:0:
352,160,156284,2,0,L|368:224,1,62.9999980773926,8|0,0:0|0:0,0:0:0:0:
288,256,156434,2,0,L|224:256,1,62.9999980773926,0|0,0:0|0:0,0:0:0:0:
416,256,156584,5,4,0:0:0:0:
469,226,156659,1,0,0:0:0:0:
483,166,156734,1,0,0:0:0:0:
449,116,156809,1,0,0:0:0:0:
224,128,156884,2,0,L|288:128,1,62.9999980773926,8|0,0:0|0:0,0:0:0:0:
368,208,157034,2,0,L|304:208,1,62.9999980773926
112,224,157184,6,0,L|96:288,1,62.9999980773926,4|0,0:0|0:0,0:0:0:0:
240,288,157334,2,0,L|320:288,1,62.9999980773926,0|0,0:0|0:0,0:0:0:0:
96,285,157484,2,0,L|112:221,1,62.9999980773926,8|0,0:0|0:0,0:0:0:0:
256,224,157634,2,0,L|320:224,1,62.9999980773926,0|0,0:0|0:0,0:0:0:0:
126,162,157784,6,0,L|110:226,1,62.9999980773926,4|0,0:0|0:0,0:0:0:0:
288,224,157934,2,0,L|368:224,1,62.9999980773926,0|0,0:0|0:0,0:0:0:0:
192,224,158084,2,0,L|176:336,1,62.9999980773926,8|0,0:0|0:0,0:0:0:0:
256,352,158234,2,0,L|272:240,1,62.9999980773926,0|0,0:0|0:0,0:0:0:0:
128,48,158384,5,6,0:0:0:0:
64,80,158459,1,0,0:0:0:0:
48,144,158534,1,0,0:0:0:0:
64,208,158609,1,0,0:0:0:0:
128,240,158684,1,8,0:0:0:0:
288,240,158759,1,0,0:0:0:0:
336,224,158834,1,0,0:0:0:0:
368,192,158909,1,0,0:0:0:0:
208,96,158984,5,4,0:0:0:0:
144,128,159059,1,0,0:0:0:0:
128,192,159134,1,0,0:0:0:0:
144,256,159209,1,0,0:0:0:0:
208,288,159284,1,8,0:0:0:0:
368,192,159359,1,0,0:0:0:0:
400,160,159434,1,0,0:0:0:0:
416,112,159509,1,0,0:0:0:0:
32,80,159584,6,0,L|48:144,1,62.9999980773926,4|0,0:0|0:0,0:0:0:0:
192,144,159734,2,0,L|176:80,1,62.9999980773926,0|0,0:0|0:0,0:0:0:0:
256,192,159884,2,0,L|240:128,1,62.9999980773926,8|0,0:0|0:0,0:0:0:0:
320,224,160034,2,0,L|304:160,1,62.9999980773926,0|0,0:0|0:0,0:0:0:0:
96,160,160184,6,0,L|160:160,1,62.9999980773926,4|0,0:0|0:0,0:0:0:0:
304,162,160334,2,0,L|320:226,1,62.9999980773926,0|0,0:0|0:0,0:0:0:0:
176,224,160484,2,0,L|112:224,1,62.9999980773926,8|0,0:0|0:0,0:0:0:0:
208,208,160634,2,0,L|224:144,1,62.9999980773926,0|0,0:0|0:0,0:0:0:0:
48,240,160784,6,0,L|64:304,1,62.9999980773926,4|0,0:0|0:0,0:0:0:0:
144,304,160934,1,0,0:0:0:0:
192,288,161009,1,0,0:0:0:0:
224,240,161084,1,8,0:0:0:0:
224,192,161159,1,0,0:0:0:0:
192,144,161234,1,0,0:0:0:0:
144,128,161309,1,0,0:0:0:0:
80,128,161384,6,0,L|16:128,1,62.9999980773926,4|0,0:0|0:0,0:0:0:0:
80,160,161534,2,0,L|144:160,1,62.9999980773926,0|0,0:0|0:0,0:0:0:0:
288,160,161684,2,0,L|304:224,1,62.9999980773926,8|0,0:0|0:0,0:0:0:0:
224,224,161834,2,0,L|208:336,1,62.9999980773926,0|0,0:0|0:0,0:0:0:0:
480,352,161984,5,4,0:0:0:0:
464,288,162059,1,0,0:0:0:0:
416,240,162134,1,0,0:0:0:0:
352,224,162209,1,0,0:0:0:0:
192,352,162284,1,8,0:0:0:0:
208,288,162359,1,0,0:0:0:0:
256,240,162434,1,0,0:0:0:0:
320,224,162509,1,0,0:0:0:0:
144,112,162584,5,4,0:0:0:0:
96,116,162659,1,0,0:0:0:0:
56,140,162734,1,0,0:0:0:0:
36,176,162809,1,0,0:0:0:0:
36,216,162884,1,8,0:0:0:0:
56,252,162959,1,0,0:0:0:0:
96,268,163034,1,0,0:0:0:0:
144,276,163109,1,0,0:0:0:0:
288,192,163184,5,6,0:0:0:0:
352,176,163259,1,0,0:0:0:0:
400,144,163334,1,0,0:0:0:0:
432,96,163409,1,0,0:0:0:0:
224,96,163484,2,0,L|288:96,1,62.9999980773926,8|0,0:0|0:0,0:0:0:0:
432,96,163634,2,0,L|480:144,1,62.9999980773926,0|0,0:0|0:0,0:0:0:0:
224,192,163784,5,4,0:0:0:0:
160,176,163859,1,0,0:0:0:0:
112,144,163934,1,0,0:0:0:0:
80,96,164009,1,0,0:0:0:0:
288,96,164084,2,0,L|224:96,1,62.9999980773926,8|0,0:0|0:0,0:0:0:0:
80,96,164234,2,0,L|32:144,1,62.9999980773926,0|0,0:0|0:0,0:0:0:0:
336,192,164384,5,4,0:0:0:0:
400,208,164459,1,0,0:0:0:0:
448,240,164534,1,0,0:0:0:0:
480,288,164609,1,0,0:0:0:0:
176,192,164684,1,8,0:0:0:0:
112,208,164759,1,0,0:0:0:0:
64,240,164834,1,0,0:0:0:0:
32,288,164909,1,0,0:0:0:0:
256,304,164984,6,4,L|320:304,1,62.9999980773926
224,304,165134,1,0,0:0:0:0:
163,290,165209,1,0,0:0:0:0:
124,242,165284,1,8,0:0:0:0:
124,180,165359,1,0,0:0:0:0:
162,131,165434,1,0,0:0:0:0:
222,117,165509,1,0,0:0:0:0:
464,112,165584,5,6,0:0:0:0:
256,192,165659,12,0,167684,0:0:0:0:
304,96,167984,6,0,L|432:96,1,125.999996154785,6|0,0:0|0:0,0:0:0:0:
304,192,168284,2,0,L|240:192,2,62.9999980773926,8|0|0,0:1|0:0|0:0,0:0:0:0:
176,192,168584,1,4,0:0:0:0:
144,192,168621,1,0,0:0:0:0:
112,192,168659,1,0,0:0:0:0:
194,192,168734,2,0,L|258:192,1,62.9999980773926,0|0,0:0|0:0,0:0:0:0:
176,112,168884,1,8,0:1:0:0:
32,112,169034,2,0,L|96:112,1,62.9999980773926,0|0,0:0|0:0,0:0:0:0:
176,112,169184,6,0,L|192:176,1,62.9999980773926,4|0,0:0|0:0,0:0:0:0:
96,208,169334,2,0,L|112:272,1,62.9999980773926,0|0,0:0|0:0,0:0:0:0:
208,272,169484,1,8,0:1:0:0:
336,272,169634,2,0,L|400:272,1,62.9999980773926,0|0,0:0|0:0,0:0:0:0:
304,272,169784,2,0,L|272:272,2,31.4999990386963,4|0|0,0:0|0:0|0:0,0:0:0:0:
400,320,169934,2,0,L|336:320,1,62.9999980773926,0|0,0:0|0:0,0:0:0:0:
256,272,170084,2,0,B|192:272|192:272|256:272,1,125.999996154785,8|0,0:1|0:0,0:0:0:0:
336,272,170309,1,0,0:0:0:0:
416,272,170384,6,0,L|432:208,1,62.9999980773926,4|0,0:0|0:0,0:0:0:0:
336,192,170534,2,0,L|320:128,1,62.9999980773926,0|0,0:0|0:1,0:0:0:0:
224,128,170684,1,8,0:1:0:0:
368,128,170834,2,0,L|304:128,1,62.9999980773926,0|0,0:0|0:0,0:0:0:0:
224,128,170984,2,0,L|176:128,2,31.4999990386963,4|0|0,0:0|0:0|0:0,0:0:0:0:
305,128,171134,1,0,0:0:0:0:
160,224,171284,2,0,B|96:224|96:224|160:224,1,125.999996154785,8|0,0:1|0:0,0:0:0:0:
240,224,171509,1,0,0:0:0:0:
320,224,171584,6,0,L|304:160,1,62.9999980773926,4|0,0:0|0:0,0:0:0:0:
208,160,171734,2,0,L|224:96,1,62.9999980773926,0|0,0:0|0:0,0:0:0:0:
320,95,171884,2,0,P|400:175|320:255,1,251.999992309571,8|4,0:1|0:0,0:0:0:0:
288,256,172221,1,0,0:0:0:0:
256,256,172259,1,0,0:0:0:0:
320,256,172334,2,0,L|384:256,1,62.9999980773926,0|0,0:0|0:0,0:0:0:0:
288,256,172484,2,0,L|160:256,1,125.999996154785,8|0,0:1|0:0,0:0:0:0:
240,288,172709,1,0,0:0:0:0:
400,144,172784,5,6,0:0:0:0:
256,144,172934,2,0,L|192:144,2,62.9999980773926,0|0|8,0:0|0:0|0:1,0:0:0:0:
400,144,173234,2,0,L|464:144,1,62.9999980773926,0|0,0:0|0:0,0:0:0:0:
368,224,173384,2,0,L|336:224,2,31.4999990386963,4|0|0,0:0|0:0|0:0,0:0:0:0:
464,288,173534,2,0,L|400:288,1,62.9999980773926,0|0,0:0|0:0,0:0:0:0:
304,288,173684,2,0,L|368:288,1,62.9999980773926,8|0,0:1|0:0,0:0:0:0:
448,288,173834,1,0,0:0:0:0:
288,256,173984,6,0,L|286:191,1,62.9999980773926,4|0,0:0|0:0,0:0:0:0:
368,192,174134,2,0,L|370:127,1,62.9999980773926
288,256,174284,2,0,P|240:224|224:144,1,125.999996154785,8|0,0:1|0:0,0:0:0:0:
304,144,174509,1,0,0:0:0:0:
384,192,174584,2,0,L|432:192,2,31.4999990386963,4|0|0,0:0|0:0|0:0,0:0:0:0:
304,192,174734,2,0,L|240:192,1,62.9999980773926,0|0,0:0|0:0,0:0:0:0:
336,192,174884,1,8,0:1:0:0:
392,175,174959,1,0,0:0:0:0:
391,117,175034,1,0,0:0:0:0:
334,102,175109,1,0,0:0:0:0:
240,112,175184,6,0,L|240:176,1,62.9999980773926,4|0,0:0|0:0,0:0:0:0:
320,192,175334,2,0,L|320:256,1,62.9999980773926
240,112,175484,1,8,0:1:0:0:
368,112,175634,1,0,0:0:0:0:
240,144,175784,1,4,0:0:0:0:
208,144,175821,1,0,0:0:0:0:
240,176,175859,2,0,L|304:176,2,62.9999980773926,0|0|0,0:0|0:0|0:0,0:0:0:0:
160,176,176084,2,0,B|96:176|96:176|160:176,1,125.999996154785,8|0,0:1|0:0,0:0:0:0:
240,256,176309,1,0,0:0:0:0:
320,336,176384,6,0,L|256:336,1,62.9999980773926,4|0,0:0|0:0,0:0:0:0:
177,256,176534,2,0,L|241:256,1,62.9999980773926,0|0,0:0|0:0,0:0:0:0:
321,255,176684,2,0,L|385:255,2,62.9999980773926,8|0|0,0:1|0:0|0:0,0:0:0:0:
177,256,176984,2,0,L|129:256,2,31.4999990386963,4|0|0,0:0|0:0|0:0,0:0:0:0:
272,256,177134,2,0,L|288:192,1,62.9999980773926,0|0,0:0|0:0,0:0:0:0:
192,176,177284,2,0,L|208:112,1,62.9999980773926,8|0,0:1|0:0,0:0:0:0:
304,96,177434,2,0,L|240:96,1,62.9999980773926
96,144,177584,6,0,P|67:72|119:52,1,125.999996154785,2|0,0:0|0:0,0:0:0:0:
224,48,177884,2,0,L|304:48,2,62.9999980773926,8|0|0,0:1|0:0|0:0,0:0:0:0:
95,51,178184,1,4,0:0:0:0:
104,71,178221,1,0,0:0:0:0:
120,93,178259,1,0,0:0:0:0:
158,125,178334,1,0,0:0:0:0:
205,142,178409,1,0,0:0:0:0:
256,144,178484,1,8,0:1:0:0:
400,144,178634,2,0,L|336:144,1,62.9999980773926
240,160,178784,6,0,L|192:208,1,62.9999980773926,4|0,0:0|0:0,0:0:0:0:
112,224,178934,1,0,0:0:0:0:
96,192,179009,1,0,0:0:0:0:
112,160,179084,1,8,0:1:0:0:
224,80,179234,2,0,L|288:80,2,62.9999980773926,0|0|4,0:0|0:0|0:0,0:0:0:0:
192,80,179421,1,0,0:0:0:0:
160,80,179459,1,0,0:0:0:0:
80,80,179534,1,0,0:0:0:0:
224,80,179684,2,0,P|272:128|224:160,1,125.999996154785,8|0,0:1|0:0,0:0:0:0:
160,176,179909,1,0,0:0:0:0:
96,176,179984,6,0,L|160:176,1,62.9999980773926,4|0,0:0|0:0,0:0:0:0:
256,176,180134,2,0,L|320:176,1,62.9999980773926,0|0,0:0|0:0,0:0:0:0:
400,176,180284,1,8,0:1:0:0:
256,208,180434,2,0,L|192:208,1,62.9999980773926,0|0,0:0|0:0,0:0:0:0:
288,208,180584,2,0,L|320:208,2,31.4999990386963,4|0|0,0:0|0:0|0:0,0:0:0:0:
192,256,180734,2,0,L|256:256,1,62.9999980773926,0|0,0:0|0:0,0:0:0:0:
336,256,180884,1,8,0:1:0:0:
192,224,181034,2,0,L|256:224,1,62.9999980773926,0|0,0:0|0:0,0:0:0:0:
352,224,181184,6,0,L|416:224,2,62.9999980773926,4|0|0,0:0|0:0|0:0,0:0:0:0:
208,224,181484,1,8,0:1:0:0:
64,144,181634,2,0,L|128:144,1,62.9999980773926,0|0,0:0|0:0,0:0:0:0:
224,144,181784,2,0,L|256:144,2,31.4999990386963,4|0|0,0:0|0:0|0:0,0:0:0:0:
128,112,181934,2,0,L|192:112,1,62.9999980773926,0|0,0:0|0:0,0:0:0:0:
288,112,182084,2,0,L|224:112,1,62.9999980773926,8|0,0:1|0:0,0:0:0:0:
128,144,182234,2,0,L|192:144,1,62.9999980773926,0|0,0:0|0:0,0:0:0:0:
352,176,182384,6,0,L|354:246,1,62.9999980773926,2|0,0:0|0:0,0:0:0:0:
256,240,182534,2,0,L|254:310,1,62.9999980773926,0|0,0:0|0:0,0:0:0:0:
112,320,182684,1,8,0:1:0:0:
240,320,182834,1,0,0:0:0:0:
32,320,182984,2,0,L|-16:320,2,31.4999990386963,4|0|0,0:0|0:0|0:0,0:0:0:0:
176,240,183134,2,0,L|240:240,1,62.9999980773926,0|0,0:0|0:0,0:0:0:0:
96,240,183284,2,0,L|16:240,2,62.9999980773926,8|0|0,0:1|0:0|0:0,0:0:0:0:
368,160,183584,5,4,0:0:0:0:
128,160,183734,1,0,0:0:0:0:
192,160,183809,1,0,0:0:0:0:
256,160,183884,1,8,0:1:0:0:
32,160,184034,1,0,0:0:0:0:
336,240,184184,6,0,L|384:240,2,31.4999990386963,4|0|0,0:0|0:0|0:0,0:0:0:0:
176,224,184334,2,0,L|112:224,1,62.9999980773926,0|0,0:0|0:0,0:0:0:0:
336,224,184484,2,0,L|480:224,1,125.999996154785,8|0,0:1|0:1,0:0:0:0:
192,160,184784,1,4,0:0:0:0:
320,160,184934,1,0,0:0:0:0:
80,192,185084,1,8,0:1:0:0:
432,192,185234,1,0,0:0:0:0:
208,192,185384,6,0,L|144:192,1,62.9999980773926,4|0,0:0|0:0,0:0:0:0:
304,192,185534,2,0,L|368:192,1,62.9999980773926,0|0,0:0|0:0,0:0:0:0:
208,192,185684,2,0,L|64:192,1,125.999996154785,8|0,0:1|0:0,0:0:0:0:
480,192,185984,5,4,0:0:0:0:
256,192,186284,1,4,0:0:0:0:
432,192,186584,2,4,L|416:320,1,125.999996154785,4|0,0:0|1:0,0:0:0:0:
192,320,186884,1,4,0:0:0:0:
416,317,187034,1,0,1:0:0:0:
96,224,187184,6,0,L|32:224,1,62.9999980773926,2|0,0:0|0:0,0:0:0:0:
112,192,187334,2,0,L|176:192,1,62.9999980773926,0|0,0:0|0:0,0:0:0:0:
256,160,187484,2,0,L|192:160,1,62.9999980773926,8|0,0:0|0:0,0:0:0:0:
112,160,187634,2,0,L|32:160,1,62.9999980773926,0|0,0:0|0:0,0:0:0:0:
256,160,187784,5,4,0:0:0:0:
304,176,187859,1,0,0:0:0:0:
336,208,187934,1,0,0:0:0:0:
336,256,188009,1,0,0:0:0:0:
304,304,188084,1,8,0:0:0:0:
256,320,188159,1,0,0:0:0:0:
192,320,188234,2,0,L|128:320,1,62.9999980773926,0|0,0:0|0:0,0:0:0:0:
368,160,188384,6,0,L|432:160,1,62.9999980773926,4|0,0:0|0:0,0:0:0:0:
336,160,188534,2,0,L|320:224,1,62.9999980773926,0|0,0:0|0:0,0:0:0:0:
256,240,188684,2,0,L|192:240,1,62.9999980773926,8|0,0:0|0:0,0:0:0:0:
384,240,188834,2,0,L|448:240,1,62.9999980773926,0|0,0:0|0:0,0:0:0:0:
224,192,188984,6,0,L|160:192,1,62.9999980773926,4|0,0:0|0:0,0:0:0:0:
224,160,189134,2,0,L|288:160,1,62.9999980773926,0|0,0:0|0:0,0:0:0:0:
80,128,189284,2,0,L|64:192,1,62.9999980773926,8|0,0:0|0:0,0:0:0:0:
288,192,189434,2,0,L|368:192,1,62.9999980773926,0|0,0:0|0:0,0:0:0:0:
176,192,189584,5,4,0:0:0:0:
128,224,189659,1,0,0:0:0:0:
96,272,189734,1,0,0:0:0:0:
80,320,189809,1,0,0:0:0:0:
160,320,189884,2,0,L|144:256,1,62.9999980773926,8|0,0:0|0:0,0:0:0:0:
208,256,190034,2,0,L|192:192,1,62.9999980773926,0|0,0:0|0:0,0:0:0:0:
256,208,190184,6,0,L|240:144,1,62.9999980773926,0|0,0:0|0:0,0:0:0:0:
304,160,190334,2,0,L|288:96,1,62.9999980773926,0|0,0:0|0:0,0:0:0:0:
144,192,190484,2,0,L|80:192,1,62.9999980773926,8|0,0:0|0:0,0:0:0:0:
176,192,190634,2,0,L|192:256,1,62.9999980773926,0|0,0:0|0:0,0:0:0:0:
368,352,190784,6,0,L|384:288,1,62.9999980773926,4|0,0:0|0:0,0:0:0:0:
176,192,190934,2,0,L|192:256,1,62.9999980773926
383,290,191084,2,0,L|399:226,1,62.9999980773926,8|0,0:0|0:0,0:0:0:0:
160,130,191234,2,0,L|176:194,1,62.9999980773926
400,192,191384,6,0,L|408:126,1,62.9999980773926,4|0,0:0|0:0,0:0:0:0:
320,80,191534,1,0,0:0:0:0:
263,97,191609,1,0,0:0:0:0:
263,156,191684,1,8,0:0:0:0:
319,174,191759,1,0,0:0:0:0:
400,256,191834,2,0,L|336:256,1,62.9999980773926
112,192,191984,6,0,L|96:256,1,62.9999980773926,6|0,0:0|0:0,0:0:0:0:
256,256,192134,1,0,0:0:0:0:
416,253,192209,1,0,0:0:0:0:
256,256,192284,1,8,0:0:0:0:
96,253,192359,2,0,L|32:256,1,62.9999980773926,0|0,0:0|0:0,0:0:0:0:
96,253,192509,1,0,0:0:0:0:
400,192,192584,6,0,L|416:256,1,62.9999980773926,4|0,0:0|0:0,0:0:0:0:
256,256,192734,1,0,0:0:0:0:
96,253,192809,1,0,0:0:0:0:
256,256,192884,1,8,0:0:0:0:
416,253,192959,2,0,L|480:256,1,62.9999980773926,0|0,0:0|0:0,0:0:0:0:
416,256,193109,1,0,0:0:0:0:
96,272,193184,5,4,0:0:0:0:
116,213,193259,1,0,0:0:0:0:
162,171,193334,1,0,0:0:0:0:
223,156,193409,1,0,0:0:0:0:
416,272,193484,1,12,0:0:0:0:
396,213,193559,1,0,0:0:0:0:
350,171,193634,1,0,0:0:0:0:
289,156,193709,1,0,0:0:0:0:
96,272,193784,5,4,0:0:0:0:
116,213,193859,1,0,0:0:0:0:
162,171,193934,1,0,0:0:0:0:
223,156,194009,1,0,0:0:0:0:
289,156,194084,1,8,0:0:0:0:
350,171,194159,1,0,0:0:0:0:
396,213,194234,1,0,0:0:0:0:
416,272,194309,1,0,0:0:0:0:
256,192,194384,6,0,L|192:192,1,62.9999980773926,4|0,0:0|0:0,0:0:0:0:
288,192,194534,1,0,0:0:0:0:
344,209,194609,1,0,0:0:0:0:
345,268,194684,1,8,0:0:0:0:
290,288,194759,1,0,0:0:0:0:
208,304,194834,2,0,L|198:231,1,62.9999980773926
352,192,194984,6,0,L|366:119,1,62.9999980773926,4|0,0:0|0:0,0:0:0:0:
448,144,195134,2,0,L|462:71,1,62.9999980773926,4|0,0:0|0:0,0:0:0:0:
160,192,195284,6,0,L|146:119,1,62.9999980773926,8|0,0:0|0:0,0:0:0:0:
64,144,195434,2,0,L|50:71,1,62.9999980773926,4|0,0:0|0:0,0:0:0:0:
272,288,195584,6,0,L|288:352,1,62.9999980773926,4|0,0:0|0:0,0:0:0:0:
128,272,195734,2,0,L|112:208,1,62.9999980773926,0|0,0:0|0:0,0:0:0:0:
336,272,195884,2,0,L|352:208,1,62.9999980773926,8|0,0:0|0:0,0:0:0:0:
272,208,196034,2,0,L|208:208,1,62.9999980773926,0|0,0:0|0:0,0:0:0:0:
304,192,196184,6,0,L|319:130,1,62.9999980773926,4|0,0:0|0:0,0:0:0:0:
240,112,196334,2,0,L|176:112,1,62.9999980773926,0|0,0:0|0:0,0:0:0:0:
368,192,196484,2,0,L|384:304,1,62.9999980773926,8|0,0:0|0:0,0:0:0:0:
144,192,196634,2,0,L|128:304,1,62.9999980773926,0|0,0:0|0:0,0:0:0:0:
432,288,196784,6,0,L|496:288,1,62.9999980773926,6|0,0:0|0:0,0:0:0:0:
432,256,196934,2,0,L|368:256,1,62.9999980773926,0|0,0:0|0:0,0:0:0:0:
224,224,197084,2,0,L|288:224,1,62.9999980773926,8|0,0:0|0:0,0:0:0:0:
352,224,197234,2,0,L|416:224,1,62.9999980773926,0|0,0:0|0:0,0:0:0:0:
80,96,197384,6,0,L|16:96,1,62.9999980773926,4|0,0:0|0:0,0:0:0:0:
80,128,197534,2,0,L|144:128,1,62.9999980773926,0|0,0:0|0:0,0:0:0:0:
288,160,197684,2,0,L|224:160,1,62.9999980773926,8|0,0:0|0:0,0:0:0:0:
160,160,197834,2,0,L|96:160,1,62.9999980773926,0|0,0:0|0:0,0:0:0:0:
288,224,197984,6,0,L|304:288,1,62.9999980773926,4|0,0:0|0:0,0:0:0:0:
448,288,198134,2,0,L|464:352,1,62.9999980773926,0|0,0:0|0:0,0:0:0:0:
224,224,198284,2,0,L|208:288,1,62.9999980773926,12|0,0:0|0:0,0:0:0:0:
64,288,198434,2,0,L|48:352,1,62.9999980773926,0|0,0:0|0:0,0:0:0:0:
400,288,198584,5,4,0:0:0:0:
384,224,198659,1,0,0:0:0:0:
336,176,198734,1,0,0:0:0:0:
272,160,198809,1,0,0:0:0:0:
112,288,198884,1,8,0:0:0:0:
128,224,198959,1,0,0:0:0:0:
176,176,199034,1,0,0:0:0:0:
240,160,199109,1,0,0:0:0:0:
48,32,199184,6,0,L|32:96,1,62.9999980773926,4|0,0:0|0:0,0:0:0:0:
176,96,199334,1,0,0:0:0:0:
320,96,199409,1,0,0:0:0:0:
464,128,199484,2,0,L|480:192,1,62.9999980773926,8|0,0:0|0:0,0:0:0:0:
336,192,199634,1,0,0:0:0:0:
192,192,199709,1,0,0:0:0:0:
48,192,199784,6,0,L|32:256,1,62.9999980773926,4|0,0:0|0:0,0:0:0:0:
176,256,199934,1,0,0:0:0:0:
320,256,200009,1,0,0:0:0:0:
479,333,200084,2,0,L|464:272,1,62.9999980773926,8|0,0:0|0:0,0:0:0:0:
256,288,200234,2,0,L|176:288,1,62.9999980773926,0|0,0:0|0:0,0:0:0:0:
384,194,200384,6,0,L|399:255,1,62.9999980773926,0|0,0:0|0:0,0:0:0:0:
192,352,200534,2,0,L|176:288,1,62.9999980773926,0|0,0:0|0:0,0:0:0:0:
400,256,200684,2,0,L|416:320,1,62.9999980773926,8|0,0:0|0:0,0:0:0:0:
176,289,200834,2,0,L|160:225,1,62.9999980773926,0|0,0:0|0:0,0:0:0:0:
368,192,200984,5,4,0:0:0:0:
416,188,201059,1,0,0:0:0:0:
456,164,201134,1,0,0:0:0:0:
476,128,201209,1,0,0:0:0:0:
476,88,201284,1,8,0:0:0:0:
456,52,201359,1,0,0:0:0:0:
416,36,201434,1,0,0:0:0:0:
368,28,201509,1,0,0:0:0:0:
224,160,201584,5,2,0:0:0:0:
160,160,201659,1,0,0:0:0:0:
96,160,201734,1,0,0:0:0:0:
32,160,201809,1,0,0:0:0:0:
224,112,201884,2,0,L|288:112,1,62.9999980773926,8|0,0:0|0:0,0:0:0:0:
96,112,202034,2,0,L|32:112,1,62.9999980773926,0|0,0:0|0:0,0:0:0:0:
288,224,202184,5,4,0:0:0:0:
352,224,202259,1,0,0:0:0:0:
416,224,202334,1,0,0:0:0:0:
480,224,202409,1,0,0:0:0:0:
288,272,202484,2,0,L|224:272,1,62.9999980773926,8|0,0:0|0:0,0:0:0:0:
416,272,202634,2,0,L|480:272,1,62.9999980773926,0|0,0:0|0:0,0:0:0:0:
176,160,202784,5,4,0:0:0:0:
80,176,202859,1,0,0:0:0:0:
48,256,202934,1,0,0:0:0:0:
128,320,203009,1,0,0:0:0:0:
336,224,203084,1,8,0:0:0:0:
432,208,203159,1,0,0:0:0:0:
464,128,203234,1,0,0:0:0:0:
384,64,203309,1,0,0:0:0:0:
144,48,203384,5,4,0:0:0:0:
96,52,203459,1,0,0:0:0:0:
56,76,203534,1,0,0:0:0:0:
36,112,203609,1,0,0:0:0:0:
36,152,203684,1,8,0:0:0:0:
56,188,203759,1,0,0:0:0:0:
96,204,203834,1,0,0:0:0:0:
144,212,203909,1,0,0:0:0:0:
473,349,203984,5,4,0:0:0:0:
457,301,204059,1,0,0:0:0:0:
425,253,204134,1,0,0:0:0:0:
377,221,204209,1,0,0:0:0:0:
329,205,204284,1,8,0:0:0:0:
275,195,204359,1,0,0:0:0:0:
227,196,204434,1,0,0:0:0:0:
185,205,204509,1,0,0:0:0:0:
137,221,204584,1,4,0:0:0:0:
89,253,204659,1,0,0:0:0:0:
57,301,204734,1,0,0:0:0:0:
41,349,204809,1,0,0:0:0:0:
464,160,204884,6,0,L|480:96,1,62.9999980773926,8|0,0:0|0:0,0:0:0:0:
48,160,205034,2,0,L|32:96,1,62.9999980773926,0|0,0:0|0:0,0:0:0:0:
288,160,205184,6,0,L|304:272,1,62.9999980773926,4|0,0:0|0:0,0:0:0:0:
224,224,205334,2,0,L|208:336,1,62.9999980773926,0|0,0:0|0:0,0:0:0:0:
480,224,205484,2,0,L|464:160,1,62.9999980773926,8|0,0:0|0:0,0:0:0:0:
32,224,205634,2,0,L|48:160,1,62.9999980773926,0|0,0:0|0:0,0:0:0:0:
256,192,205784,6,0,L|320:192,1,62.9999980773926,4|0,0:0|0:0,0:0:0:0:
256,192,205934,2,0,L|176:192,1,62.9999980773926,0|0,0:0|0:0,0:0:0:0:
384,192,206084,1,8,0:0:0:0:
176,96,206384,6,0,L|48:96,1,125.999996154785,2|0,0:0|0:0,0:0:0:0:
256,160,206684,1,4,0:0:0:0:
192,160,206759,1,0,0:0:0:0:
128,160,206834,1,0,0:0:0:0:
336,288,206984,2,0,L|464:288,1,125.999996154785,4|0,0:0|0:0,0:0:0:0:
256,224,207284,1,4,0:0:0:0:
320,224,207359,1,0,0:0:0:0:
384,224,207434,1,0,0:0:0:0:
128,352,207584,5,4,0:0:0:0:
102,295,207659,1,0,0:0:0:0:
106,233,207734,1,0,0:0:0:0:
383,351,207884,1,4,0:0:0:0:
404,296,207959,1,0,0:0:0:0:
402,231,208034,1,0,0:0:0:0:
192,160,208184,1,4,0:0:0:0:
320,160,208334,1,0,0:0:0:0:
96,224,208484,1,4,0:0:0:0:
416,224,208634,1,0,0:0:0:0:
176,240,208784,5,4,0:0:0:0:
192,208,208859,1,0,0:0:0:0:
224,192,208934,1,0,0:0:0:0:
256,192,209009,1,0,0:0:0:0:
64,240,209084,1,4,0:0:0:0:
48,272,209159,1,0,0:0:0:0:
48,304,209234,1,0,0:0:0:0:
64,336,209309,1,0,0:0:0:0:
96,352,209384,2,0,L|240:352,1,125.999996154785,4|0,0:0|0:0,0:0:0:0:
432,352,209684,1,4,0:0:0:0:
222,352,209834,1,0,0:0:0:0:
448,192,209984,6,0,P|480:256|448:288,1,125.999996154785,4|0,0:0|0:0,0:0:0:0:
368,288,210209,1,0,0:0:0:0:
288,288,210284,2,0,P|256:224|288:192,1,125.999996154785,4|0,0:0|0:0,0:0:0:0:
368,192,210509,1,0,0:0:0:0:
160,224,210584,2,0,L|96:224,1,62.9999980773926,4|0,0:0|0:0,0:0:0:0:
192,224,210734,2,0,L|208:288,1,62.9999980773926,0|0,0:0|0:0,0:0:0:0:
128,320,210884,2,0,L|64:320,2,62.9999980773926,4|0|0,0:0|0:0|0:0,0:0:0:0:
359,283,211184,6,0,L|391:107,1,125.999996154785,4|0,0:0|0:0,0:0:0:0:
256,160,211484,2,0,L|400:160,1,125.999996154785,4|0,0:0|0:0,0:0:0:0:
128,160,211784,1,4,0:0:0:0:
256,160,211934,1,0,0:0:0:0:
128,160,212084,1,4,0:0:0:0:
382,160,212234,1,0,0:0:0:0:
96,224,212384,6,0,L|32:225,2,62.9999980773926,4|0|0,0:0|0:0|0:0,0:0:0:0:
224,208,212684,2,0,L|159:210,2,62.9999980773926,4|0|0,0:0|0:0|0:0,0:0:0:0:
288,208,212984,2,0,L|365:216,2,62.9999980773926,4|0|0,0:0|0:0|0:0,0:0:0:0:
192,160,213284,1,4,0:0:0:0:
320,160,213434,1,0,0:0:0:0:
96,160,213584,6,0,P|16:240|115:324,1,251.999992309571,4|4,0:0|0:0,0:0:0:0:
336,336,214034,1,0,0:0:0:0:
192,304,214184,2,0,L|176:240,1,62.9999980773926,4|0,0:0|0:0,0:0:0:0:
256,240,214334,2,0,L|272:128,1,62.9999980773926,0|0,0:0|0:0,0:0:0:0:
176,176,214484,2,0,P|144:112|189:76,1,125.999996154785,4|0,0:0|0:0,0:0:0:0:
256,64,214709,1,0,0:0:0:0:
32,224,214784,6,0,P|30:291|48:352,1,125.999996154785,4|0,0:0|0:0,0:0:0:0:
320,352,215084,2,0,L|192:352,1,125.999996154785,4|0,0:0|0:0,0:0:0:0:
480,320,215384,2,0,P|482:253|464:192,1,125.999996154785,4|0,0:0|0:0,0:0:0:0:
144,240,215684,1,4,0:0:0:0:
368,240,215834,1,0,0:0:0:0:
128,192,215984,5,4,0:0:0:0:
256,192,216134,2,0,L|240:320,1,125.999996154785,0|4,0:0|0:0,0:0:0:0:
112,320,216434,1,0,0:0:0:0:
368,272,216584,2,0,L|352:144,1,125.999996154785,4|0,0:0|0:0,0:0:0:0:
144,272,216884,2,0,L|160:144,1,125.999996154785,4|0,0:0|0:0,0:0:0:0:
384,192,217184,5,4,0:0:0:0:
256,192,217334,2,0,L|272:64,1,125.999996154785,0|4,0:0|0:0,0:0:0:0:
400,64,217634,1,0,0:0:0:0:
128,144,217784,2,0,L|112:269,1,125.999996154785,4|0,0:0|0:0,0:0:0:0:
384,144,218083,2,0,L|399:269,1,125.999996154785,4|0,0:0|0:0,0:0:0:0:
192,256,218384,6,0,L|176:368,1,62.9999980773926,4|0,0:0|0:0,0:0:0:0:
272,320,218534,2,0,L|288:208,1,62.9999980773926,0|0,0:0|0:0,0:0:0:0:
208,224,218684,2,0,L|144:208,1,62.9999980773926,4|0,0:0|0:0,0:0:0:0:
240,176,218834,2,0,L|256:112,1,62.9999980773926,0|0,0:0|0:0,0:0:0:0:
336,112,218984,1,4,0:0:0:0:
416,112,219059,1,0,0:0:0:0:
336,112,219134,2,0,L|320:176,1,62.9999980773926,0|0,0:0|0:0,0:0:0:0:
160,224,219284,2,0,L|288:224,1,125.999996154785,4|0,0:0|0:0,0:0:0:0:
64,192,219584,6,0,P|32:256|64:288,1,125.999996154785,4|0,0:0|0:0,0:0:0:0:
144,288,219809,1,0,0:0:0:0:
224,288,219884,2,0,P|256:224|224:192,1,125.999996154785,4|0,0:0|0:0,0:0:0:0:
144,192,220109,1,0,0:0:0:0:
352,224,220184,2,0,L|416:224,1,62.9999980773926,4|0,0:0|0:0,0:0:0:0:
320,224,220334,2,0,L|304:288,1,62.9999980773926,0|0,0:0|0:0,0:0:0:0:
384,320,220484,2,0,L|448:320,2,62.9999980773926,4|0|0,0:0|0:0|0:0,0:0:0:0:
64,48,220784,6,0,L|48:176,1,125.999996154785,4|0,0:0|0:0,0:0:0:0:
192,112,221084,2,0,L|208:240,1,125.999996154785,4|0,0:0|0:0,0:0:0:0:
448,160,221384,2,0,L|464:288,1,125.999996154785,4|0,0:0|0:0,0:0:0:0:
256,224,221684,2,0,L|240:352,1,125.999996154785,4|0,0:0|0:0,0:0:0:0:
480,160,221984,6,4,L|224:160,2,251.999992309571,4|4|4,0:0|0:0|0:0,0:0:0:0:
192,224,222884,2,0,L|336:224,1,125.999996154785,4|0,0:0|0:0,0:0:0:0:
32,144,223184,6,0,P|32:208|48:256,1,107.999996704102,4|0,0:0|0:0,0:0:0:0:
256,208,223484,2,0,P|256:272|240:320,1,107.999996704102,4|0,0:0|0:0,0:0:0:0:
480,144,223784,2,0,P|480:208|464:256,1,107.999996704102,4|0,0:0|0:0,0:0:0:0:
176,160,224084,2,0,L|112:160,1,53.9999983520508,4|0,0:0|0:0,0:0:0:0:
336,160,224234,2,0,L|400:160,1,53.9999983520508,0|0,0:0|0:0,0:0:0:0:
112,160,224384,6,0,P|110:94|128:48,1,107.999996704102,4|0,0:0|0:0,0:0:0:0:
256,144,224684,2,0,L|256:32,1,107.999996704102,4|0,0:0|0:0,0:0:0:0:
400,160,224984,2,0,P|401:94|384:48,1,107.999996704102,4|0,0:0|0:0,0:0:0:0:
124,54,225284,1,8,0:0:0:0:
320,144,225584,6,0,P|400:208|304:294,1,251.999992309571,2|4,0:0|0:0,0:0:0:0:
63,296,226034,1,0,0:0:0:0:
191,296,226184,2,0,L|319:296,1,125.999996154785,4|0,0:0|0:0,0:0:0:0:
190,261,226484,2,0,L|46:261,1,125.999996154785,8|0,0:0|0:0,0:0:0:0:
208,240,226784,6,0,L|224:176,2,62.9999980773926,4|0|0,0:0|0:0|0:0,0:0:0:0:
96,160,227084,2,0,L|224:160,1,125.999996154785,4|0,0:0|0:0,0:0:0:0:
96,192,227384,2,0,L|80:256,1,62.9999980773926,4|0,0:0|0:0,0:0:0:0:
160,272,227534,2,0,L|144:336,1,62.9999980773926,0|0,0:0|0:0,0:0:0:0:
224,272,227684,2,0,P|260:222|208:192,1,125.999996154785,8|0,0:0|0:0,0:0:0:0:
144,192,227909,1,0,0:0:0:0:
320,192,227984,6,0,L|448:192,1,125.999996154785,6|0,0:0|0:0,0:0:0:0:
320,224,228284,2,0,L|192:224,1,125.999996154785,4|0,0:0|0:0,0:0:0:0:
256,224,228509,1,0,0:0:0:0:
320,224,228584,2,0,L|384:224,2,62.9999980773926,4|0|0,0:0|0:0|0:0,0:0:0:0:
210,256,228884,2,0,L|338:256,1,125.999996154785,8|0,0:0|0:0,0:0:0:0:
176,256,229184,6,0,L|189:130,1,125.999996154785,4|0,0:0|0:0,0:0:0:0:
320,128,229484,2,0,P|331:217|304:224,1,125.999996154785,4|0,0:0|0:0,0:0:0:0:
240,224,229709,1,0,0:0:0:0:
160,224,229784,2,0,L|176:288,1,62.9999980773926,4|0,0:0|0:0,0:0:0:0:
256,272,229934,2,0,L|272:336,1,62.9999980773926,0|0,0:0|0:0,0:0:0:0:
192,320,230084,2,0,P|161:299|204:232,1,125.999996154785,8|0,0:0|0:0,0:0:0:0:
272,224,230309,1,0,0:0:0:0:
80,224,230384,6,0,L|64:96,1,125.999996154785,6|0,0:0|0:0,0:0:0:0:
192,96,230684,2,0,L|256:96,2,62.9999980773926,4|0|0,0:0|0:0|0:0,0:0:0:0:
32,160,230984,2,0,L|160:160,1,125.999996154785,4|0,0:0|0:0,0:0:0:0:
288,224,231284,2,0,L|160:224,1,125.999996154785,8|0,0:0|0:0,0:0:0:0:
320,160,231584,5,4,0:0:0:0:
192,160,231734,1,0,0:0:0:0:
336,192,231884,2,0,L|464:192,1,125.999996154785,4|0,0:0|0:0,0:0:0:0:
400,192,232109,1,0,0:0:0:0:
336,192,232184,2,0,L|320:256,1,62.9999980773926,4|0,0:0|0:0,0:0:0:0:
240,240,232334,2,0,L|224:304,1,62.9999980773926,0|0,0:0|0:0,0:0:0:0:
321,333,232484,2,0,P|353:317|321:253,1,125.999996154785,8|0,0:0|0:0,0:0:0:0:
240,240,232709,1,0,0:0:0:0:
464,160,232784,6,0,L|480:288,1,125.999996154785,6|0,0:0|0:0,0:0:0:0:
224,192,233084,2,0,P|198:268|235:285,1,125.999996154785,8|0,0:0|0:0,0:0:0:0:
304,288,233309,1,0,0:0:0:0:
479,285,233384,2,0,L|463:157,1,125.999996154785,4|0,0:0|0:0,0:0:0:0:
224,160,233684,2,0,L|160:160,2,62.9999980773926,8|0|0,0:0|0:0|0:0,0:0:0:0:
432,160,233984,6,0,P|464:214|416:256,1,125.999996154785,4|0,0:0|0:0,0:0:0:0:
112,160,234284,2,0,L|48:160,2,62.9999980773926,8|0|0,0:0|0:0|0:0,0:0:0:0:
336,32,234584,2,0,L|384:80,1,62.9999980773926,4|0,0:0|0:0,0:0:0:0:
176,96,234734,2,0,L|128:144,1,62.9999980773926,0|0,0:0|0:0,0:0:0:0:
336,192,234884,2,0,P|368:256|320:288,1,125.999996154785,8|0,0:0|0:0,0:0:0:0:
256,288,235109,1,0,0:0:0:0:
112,288,235184,6,0,P|29:224|128:146,1,251.999992309571,2|0,0:0|0:0,0:0:0:0:
352,144,235634,1,0,0:0:0:0:
224,192,235784,2,0,L|352:192,1,125.999996154785,4|0,0:0|0:0,0:0:0:0:
192,192,236084,2,0,L|176:320,1,125.999996154785,8|0,0:0|0:0,0:0:0:0:
304,320,236384,6,0,L|368:320,2,62.9999980773926,4|0|0,0:0|0:0|0:0,0:0:0:0:
448,288,236684,2,0,L|464:160,1,125.999996154785,4|0,0:0|0:0,0:0:0:0:
320,48,236984,2,0,L|304:160,1,62.9999980773926,4|0,0:0|0:0,0:0:0:0:
400,128,237134,2,0,L|416:240,1,62.9999980773926,0|0,0:0|0:0,0:0:0:0:
320,192,237284,2,0,P|284:242|326:286,1,125.999996154785,8|0,0:0|0:0,0:0:0:0:
400,288,237509,1,0,0:0:0:0:
128,272,237584,6,0,P|111:211|127:151,1,125.999996154785,6|0,0:0|0:0,0:0:0:0:
256,144,237884,2,0,P|299:175|239:203,1,125.999996154785,4|0,0:0|0:0,0:0:0:0:
176,208,238109,1,0,0:0:0:0:
96,208,238184,2,0,L|80:272,2,62.9999980773926,4|0|0,0:0|0:0|0:0,0:0:0:0:
192,288,238484,2,0,L|320:288,1,125.999996154785,8|0,0:0|0:0,0:0:0:0:
192,256,238784,6,0,L|64:256,1,125.999996154785,4|0,0:0|0:0,0:0:0:0:
224,256,239084,2,0,P|235:167|208:160,1,125.999996154785,4|0,0:0|0:0,0:0:0:0:
144,160,239309,1,0,0:0:0:0:
64,160,239384,2,0,L|48:224,1,62.9999980773926,4|0,0:0|0:0,0:0:0:0:
128,224,239534,2,0,L|112:288,1,62.9999980773926,0|0,0:0|0:0,0:0:0:0:
208,240,239684,2,0,P|246:196|208:152,1,125.999996154785,8|0,0:0|0:0,0:0:0:0:
128,144,239909,1,0,0:0:0:0:
432,160,239984,6,0,P|464:224|421:264,1,125.999996154785,6|0,0:0|0:0,0:0:0:0:
224,192,240284,2,0,L|208:256,2,62.9999980773926,8|0|0,0:0|0:0|0:0,0:0:0:0:
480,256,240584,2,0,L|352:256,1,125.999996154785,4|0,0:0|0:0,0:0:0:0:
32,256,240884,1,8,0:0:0:0:
95,256,240959,1,0,0:0:0:0:
158,256,241034,1,0,0:0:0:0:
320,224,241184,1,4,0:0:0:0:
192,224,241334,1,0,0:0:0:0:
416,224,241484,6,0,P|448:288|400:320,1,125.999996154785,8|0,0:0|0:0,0:0:0:0:
336,336,241709,1,0,0:0:0:0:
160,224,241784,2,0,L|224:224,1,62.9999980773926,4|0,0:0|0:0,0:0:0:0:
384,224,241934,2,0,L|432:176,1,62.9999980773926,0|0,0:0|0:0,0:0:0:0:
256,112,242084,2,0,P|224:128|256:192,1,125.999996154785,8|0,0:0|0:0,0:0:0:0:
336,192,242309,1,0,0:0:0:0:
192,240,242384,5,6,0:0:0:0:
80,240,242534,1,0,0:0:0:0:
304,240,242684,1,8,0:0:0:0:
416,240,242834,1,0,0:0:0:0:
192,288,242984,1,4,0:0:0:0:
304,288,243134,1,0,0:0:0:0:
80,240,243284,1,8,0:0:0:0:
416,240,243434,1,0,0:0:0:0:
160,240,243584,5,4,0:0:0:0:
352,240,243884,1,4,0:0:0:0:
32,192,244184,1,4,0:0:0:0:
480,192,244484,1,4,0:0:0:0:
96,192,244784,6,0,L|32:192,1,62.9999980773926,6|0,0:0|0:0,0:0:0:0:
128,192,244934,2,0,L|144:256,1,62.9999980773926,0|0,0:0|0:0,0:0:0:0:
224,288,245084,2,0,L|144:288,1,62.9999980773926,8|0,0:0|0:0,0:0:0:0:
96,288,245234,2,0,L|32:288,1,62.9999980773926,0|0,0:0|0:0,0:0:0:0:
224,224,245384,5,4,0:0:0:0:
304,192,245459,1,0,0:0:0:0:
320,144,245534,1,0,0:0:0:0:
304,192,245609,1,0,0:0:0:0:
96,160,245684,2,0,L|80:272,1,62.9999980773926,8|0,0:0|0:0,0:0:0:0:
160,224,245834,2,0,L|176:304,1,62.9999980773926,0|0,0:0|0:0,0:0:0:0:
416,160,245984,6,0,L|432:272,1,62.9999980773926,4|0,0:0|0:0,0:0:0:0:
352,224,246134,2,0,L|336:304,1,62.9999980773926,0|0,0:0|0:0,0:0:0:0:
176,320,246284,1,8,0:0:0:0:
128,304,246359,1,0,0:0:0:0:
96,272,246434,1,0,0:0:0:0:
80,224,246509,1,0,0:0:0:0:
256,128,246584,6,0,L|272:240,1,62.9999980773926,4|0,0:0|0:0,0:0:0:0:
192,192,246734,2,0,L|208:304,1,62.9999980773926,0|0,0:0|0:0,0:0:0:0:
336,320,246884,1,8,0:0:0:0:
384,304,246959,1,0,0:0:0:0:
416,272,247034,1,0,0:0:0:0:
431,224,247109,1,0,0:0:0:0:
128,288,247184,6,0,L|64:288,1,62.9999980773926,4|0,0:0|0:0,0:0:0:0:
160,288,247334,2,0,L|176:227,1,62.9999980773926,0|0,0:0|0:0,0:0:0:0:
96,208,247484,1,8,0:0:0:0:
32,176,247559,1,0,0:0:0:0:
16,144,247634,1,0,0:0:0:0:
32,112,247709,1,0,0:0:0:0:
208,96,247784,6,0,L|224:208,1,62.9999980773926,4|0,0:0|0:0,0:0:0:0:
144,192,247934,2,0,L|128:304,1,62.9999980773926,0|0,0:0|0:0,0:0:0:0:
272,256,248084,2,0,L|336:256,1,62.9999980773926,8|0,0:0|0:0,0:0:0:0:
48,256,248234,2,0,L|112:256,1,62.9999980773926,0|0,0:0|0:0,0:0:0:0:
256,160,248384,5,4,0:0:0:0:
320,160,248459,1,0,0:0:0:0:
256,160,248534,1,0,0:0:0:0:
192,160,248609,1,0,0:0:0:0:
400,192,248684,2,0,L|416:128,1,62.9999980773926,8|0,0:0|0:0,0:0:0:0:
112,192,248834,2,0,L|96:128,1,62.9999980773926,0|0,0:0|0:0,0:0:0:0:
288,144,248984,6,0,L|352:144,1,62.9999980773926,4|0,0:0|0:0,0:0:0:0:
208,224,249134,2,0,L|192:288,1,62.9999980773926,0|0,0:0|0:0,0:0:0:0:
352,336,249284,1,8,0:0:0:0:
432,320,249359,1,0,0:0:0:0:
448,272,249434,1,0,0:0:0:0:
432,224,249509,1,0,0:0:0:0:
223,162,249584,6,0,L|207:226,1,62.9999980773926,6|0,0:0|0:0,0:0:0:0:
288,240,249734,2,0,L|272:304,1,62.9999980773926,0|0,0:0|0:0,0:0:0:0:
128,320,249884,2,0,L|192:320,1,62.9999980773926,8|0,0:0|0:0,0:0:0:0:
256,320,250034,2,0,L|320:320,1,62.9999980773926,0|0,0:0|0:0,0:0:0:0:
32,288,250184,5,4,0:0:0:0:
48,224,250259,1,0,0:0:0:0:
96,176,250334,1,0,0:0:0:0:
160,160,250409,1,0,0:0:0:0:
320,160,250484,1,8,0:0:0:0:
304,224,250559,1,0,0:0:0:0:
256,272,250634,1,0,0:0:0:0:
192,288,250709,1,0,0:0:0:0:
400,272,250784,6,0,L|416:384,3,62.9999980773926,4|0|0|0,0:0|0:0|0:0|0:0,0:0:0:0:
208,352,251084,1,8,0:0:0:0:
224,288,251159,1,0,0:0:0:0:
272,240,251234,1,0,0:0:0:0:
336,224,251309,1,0,0:0:0:0:
160,192,251384,6,0,L|96:192,1,62.9999980773926,4|0,0:0|0:0,0:0:0:0:
304,192,251534,2,0,L|336:128,1,62.9999980773926,0|0,0:0|0:0,0:0:0:0:
160,192,251684,1,8,0:0:0:0:
176,240,251759,1,0,0:0:0:0:
208,272,251834,1,0,0:0:0:0:
256,288,251909,1,0,0:0:0:0:
432,192,251984,5,4,0:0:0:0:
416,144,252059,1,0,0:0:0:0:
384,112,252134,1,0,0:0:0:0:
336,96,252209,1,0,0:0:0:0:
160,304,252284,2,0,L|144:192,1,62.9999980773926,8|0,0:0|0:0,0:0:0:0:
224,224,252434,2,0,L|240:112,1,62.9999980773926,0|0,0:0|0:0,0:0:0:0:
32,144,252584,6,0,L|48:208,1,62.9999980773926,4|0,0:0|0:0,0:0:0:0:
112,240,252734,2,0,L|169:271,1,62.9999980773926,0|0,0:0|0:0,0:0:0:0:
352,304,252884,2,0,L|368:192,1,62.9999980773926,8|0,0:0|0:0,0:0:0:0:
288,224,253034,2,0,L|272:112,1,62.9999980773926,0|0,0:0|0:0,0:0:0:0:
480,144,253184,6,0,L|464:208,1,62.9999980773926,4|0,0:0|0:0,0:0:0:0:
400,240,253334,2,0,L|336:272,1,62.9999980773926,0|0,0:0|0:0,0:0:0:0:
176,128,253484,2,0,L|192:192,1,62.9999980773926,8|0,0:0|0:0,0:0:0:0:
343,268,253634,2,0,L|407:300,1,62.9999980773926,0|0,0:0|0:0,0:0:0:0:
112,208,253784,6,0,L|96:144,1,62.9999980773926,4|0,0:0|0:0,0:0:0:0:
400,208,253934,2,0,L|416:144,1,62.9999980773926,0|0,0:0|0:0,0:0:0:0:
256,224,254084,1,8,0:0:0:0:
192,224,254159,1,0,0:0:0:0:
256,224,254234,1,0,0:0:0:0:
320,224,254309,1,0,0:0:0:0:
96,208,254384,6,0,L|32:160,1,62.9999980773926,6|0,0:0|0:0,0:0:0:0:
16,144,254534,2,0,L|32:80,1,62.9999980773926,0|0,0:0|0:0,0:0:0:0:
176,320,254684,2,0,L|192:256,1,62.9999980773926,8|0,0:0|0:0,0:0:0:0:
112,256,254834,2,0,L|128:192,1,62.9999980773926,0|0,0:0|0:0,0:0:0:0:
272,176,254984,5,4,0:0:0:0:
256,224,255059,1,0,0:0:0:0:
224,256,255134,1,0,0:0:0:0:
176,272,255209,1,0,0:0:0:0:
384,224,255284,1,8,0:0:0:0:
368,288,255359,1,0,0:0:0:0:
320,336,255434,1,0,0:0:0:0:
256,352,255509,1,0,0:0:0:0:
480,160,255584,6,0,L|464:224,1,62.9999980773926,4|0,0:0|0:0,0:0:0:0:
288,224,255734,2,0,L|208:224,1,62.9999980773926,0|0,0:0|0:0,0:0:0:0:
400,224,255884,2,0,L|416:160,1,62.9999980773926,8|0,0:0|0:0,0:0:0:0:
336,112,256034,2,0,L|272:96,1,62.9999980773926,0|0,0:0|0:0,0:0:0:0:
64,192,256184,6,0,L|128:192,1,62.9999980773926,4|0,0:0|0:0,0:0:0:0:
288,192,256334,2,0,L|336:144,1,62.9999980773926,0|0,0:0|0:0,0:0:0:0:
192,224,256484,1,8,0:0:0:0:
113,224,256559,1,0,0:0:0:0:
97,272,256634,1,0,0:0:0:0:
113,320,256709,1,0,0:0:0:0:
416,192,256784,6,0,L|480:240,1,62.9999980773926,4|0,0:0|0:0,0:0:0:0:
496,240,256934,2,0,L|480:304,1,62.9999980773926,0|0,0:0|0:0,0:0:0:0:
336,64,257084,2,0,L|320:128,1,62.9999980773926,8|0,0:0|0:0,0:0:0:0:
400,128,257234,2,0,L|384:192,1,62.9999980773926,0|0,0:0|0:0,0:0:0:0:
240,208,257384,5,4,0:0:0:0:
256,160,257459,1,0,0:0:0:0:
288,128,257534,1,0,0:0:0:0:
336,112,257609,1,0,0:0:0:0:
128,160,257684,1,8,0:0:0:0:
144,96,257759,1,0,0:0:0:0:
192,48,257834,1,0,0:0:0:0:
256,32,257909,1,0,0:0:0:0:
32,224,257984,6,0,L|48:160,1,62.9999980773926,4|0,0:0|0:0,0:0:0:0:
224,160,258134,2,0,L|304:160,1,62.9999980773926,0|0,0:0|0:0,0:0:0:0:
112,160,258284,2,0,L|96:224,1,62.9999980773926,8|0,0:0|0:0,0:0:0:0:
176,272,258434,2,0,L|240:288,1,62.9999980773926,0|0,0:0|0:0,0:0:0:0:
448,192,258584,6,0,L|384:192,1,62.9999980773926,4|0,0:0|0:0,0:0:0:0:
224,192,258734,2,0,L|176:240,1,62.9999980773926,0|0,0:0|0:0,0:0:0:0:
320,160,258884,1,8,0:0:0:0:
399,160,258959,1,0,0:0:0:0:
415,112,259034,1,0,0:0:0:0:
399,64,259109,1,0,0:0:0:0:
160,128,259184,6,0,L|144:240,1,62.9999980773926,6|0,0:0|0:0,0:0:0:0:
224,192,259334,2,0,L|240:304,1,62.9999980773926,0|0,0:0|0:0,0:0:0:0:
96,288,259484,2,0,L|80:368,1,62.9999980773926,8|0,0:0|0:0,0:0:0:0:
288,352,259634,2,0,L|272:272,1,62.9999980773926,0|0,0:0|0:0,0:0:0:0:
48,160,259784,6,0,L|32:224,1,62.9999980773926,4|0,0:0|0:0,0:0:0:0:
112,240,259934,2,0,L|176:240,1,62.9999980773926
336,304,260084,2,0,L|320:240,1,62.9999980773926,8|0,0:0|0:0,0:0:0:0:
240,240,260234,2,0,L|160:240,1,62.9999980773926,0|0,0:0|0:0,0:0:0:0:
480,352,260384,5,4,0:0:0:0:
464,288,260459,1,0,0:0:0:0:
416,240,260534,1,0,0:0:0:0:
352,224,260609,1,0,0:0:0:0:
192,272,260684,1,8,0:0:0:0:
208,208,260759,1,0,0:0:0:0:
256,160,260834,1,0,0:0:0:0:
320,144,260909,1,0,0:0:0:0:
32,32,260984,5,4,0:0:0:0:
48,96,261059,1,0,0:0:0:0:
256,80,261134,1,4,0:0:0:0:
240,144,261209,1,0,0:0:0:0:
32,32,261284,1,8,0:0:0:0:
48,96,261359,1,0,0:0:0:0:
96,144,261434,1,0,0:0:0:0:
160,160,261509,1,0,0:0:0:0:
464,320,261584,6,0,L|480:256,1,62.9999980773926,4|0,0:0|0:0,0:0:0:0:
400,240,261734,2,0,L|320:240,1,62.9999980773926,0|0,0:0|0:0,0:0:0:0:
48,256,261884,2,0,L|32:192,1,62.9999980773926,8|0,0:0|0:0,0:0:0:0:
112,176,262034,2,0,L|176:176,1,62.9999980773926,0|0,0:0|0:0,0:0:0:0:
400,176,262184,6,0,L|336:176,1,62.9999980773926,4|0,0:0|0:0,0:0:0:0:
112,176,262334,2,0,L|176:176,1,62.9999980773926
464,272,262484,2,0,L|480:336,1,62.9999980773926,8|0,0:0|0:0,0:0:0:0:
400,352,262634,2,0,L|336:352,1,62.9999980773926,0|0,0:0|0:0,0:0:0:0:
160,304,262784,5,4,0:0:0:0:
40,304,262934,1,4,0:0:0:0:
256,240,263084,5,4,0:0:0:0:
136,240,263234,1,4,0:0:0:0:
368,176,263384,5,4,0:0:0:0:
144,176,263534,1,4,0:0:0:0:
448,112,263684,5,4,0:0:0:0:
64,112,263984,1,6,0:0:0:0:
