osu file format v14

[General]
AudioFilename: audio.mp3
AudioLeadIn: 0
PreviewTime: 124573
Countdown: 0
SampleSet: None
StackLeniency: 0.8
Mode: 3
LetterboxInBreaks: 0
SpecialStyle: 1
WidescreenStoryboard: 0

[Editor]
DistanceSpacing: 0.8
BeatDivisor: 4
GridSize: 32
TimelineZoom: 2.1

[Metadata]
Title:Lifeworld
TitleUnicode:Lifeworld
Artist:Helblinde + Melancholia
ArtistUnicode:Helblinde + Melancholia
Creator:Herkkupala
Version:Daydream
Source:Yumekui Merry
Tags:handstream technical yes treat minipack 1
BeatmapID:2850531
BeatmapSetID:701515

[Difficulty]
HPDrainRate:8.5
CircleSize:4
OverallDifficulty:8.5
ApproachRate:5
SliderMultiplier:1.4
SliderTickRate:1

[Events]
//Background and Video events
0,0,"bg.png",0,0
//Break Periods
//Storyboard Layer 0 (Background)
//Storyboard Layer 1 (Fail)
//Storyboard Layer 2 (Pass)
//Storyboard Layer 3 (Foreground)
//Storyboard Layer 4 (Overlay)
//Storyboard Sound Samples

[TimingPoints]
205,291.262136,4,1,0,30,1,0

[HitObjects]
64,192,1661,5,0,0:0:0:0:
448,192,1661,1,0,0:0:0:0:
192,192,1806,1,0,0:0:0:0:
320,192,1952,1,0,0:0:0:0:
448,192,1952,1,0,0:0:0:0:
64,192,2098,1,0,0:0:0:0:
192,192,2243,1,0,0:0:0:0:
320,192,2243,1,0,0:0:0:0:
448,192,2389,1,0,0:0:0:0:
64,192,2535,1,0,0:0:0:0:
192,192,2535,1,0,0:0:0:0:
320,192,2680,1,0,0:0:0:0:
64,192,2826,1,0,0:0:0:0:
448,192,2826,1,0,0:0:0:0:
320,192,2971,1,0,0:0:0:0:
64,192,3117,1,0,0:0:0:0:
192,192,3117,1,0,0:0:0:0:
448,192,3263,1,0,0:0:0:0:
192,192,3408,1,0,0:0:0:0:
320,192,3408,1,0,0:0:0:0:
64,192,3554,1,0,0:0:0:0:
320,192,3700,1,0,0:0:0:0:
448,192,3700,1,0,0:0:0:0:
192,192,3845,1,0,0:0:0:0:
64,192,3991,1,0,0:0:0:0:
448,192,3991,1,0,0:0:0:0:
320,192,4137,1,0,0:0:0:0:
192,192,4282,1,0,0:0:0:0:
448,192,4282,1,0,0:0:0:0:
320,192,4428,1,0,0:0:0:0:
64,192,4573,1,0,0:0:0:0:
448,192,4573,1,0,0:0:0:0:
192,192,4719,1,0,0:0:0:0:
64,192,4865,1,0,0:0:0:0:
320,192,4865,1,0,0:0:0:0:
192,192,5010,1,0,0:0:0:0:
64,192,5156,1,0,0:0:0:0:
448,192,5156,1,0,0:0:0:0:
320,192,5302,1,0,0:0:0:0:
192,192,5447,1,0,0:0:0:0:
448,192,5447,1,0,0:0:0:0:
64,192,5593,1,0,0:0:0:0:
320,192,5738,1,0,0:0:0:0:
448,192,5738,1,0,0:0:0:0:
192,192,5884,128,0,5957:0:0:0:0:
192,192,6175,128,0,6248:0:0:0:0:
320,192,6321,1,0,0:0:0:0:
448,192,6321,1,0,0:0:0:0:
64,192,6467,1,0,0:0:0:0:
320,192,6612,1,0,0:0:0:0:
448,192,6612,1,0,0:0:0:0:
192,192,6758,1,0,0:0:0:0:
320,192,6904,1,0,0:0:0:0:
448,192,6904,1,0,0:0:0:0:
64,192,7049,1,0,0:0:0:0:
320,192,7195,1,0,0:0:0:0:
448,192,7195,1,0,0:0:0:0:
192,192,7340,1,0,0:0:0:0:
64,192,7486,1,0,0:0:0:0:
320,192,7486,1,0,0:0:0:0:
320,192,7632,1,0,0:0:0:0:
192,192,7777,1,0,0:0:0:0:
448,192,7777,1,0,0:0:0:0:
192,192,7923,1,0,0:0:0:0:
320,192,8069,1,0,0:0:0:0:
448,192,8069,1,0,0:0:0:0:
320,192,8214,1,0,0:0:0:0:
64,192,8360,1,0,0:0:0:0:
192,192,8360,1,0,0:0:0:0:
192,192,8505,1,0,0:0:0:0:
320,192,8651,1,0,0:0:0:0:
448,192,8651,1,0,0:0:0:0:
64,192,8797,1,0,0:0:0:0:
192,192,8942,1,0,0:0:0:0:
448,192,8942,1,0,0:0:0:0:
320,192,9088,1,0,0:0:0:0:
64,192,9234,1,0,0:0:0:0:
192,192,9234,1,0,0:0:0:0:
448,192,9379,1,0,0:0:0:0:
64,192,9525,1,0,0:0:0:0:
320,192,9525,1,0,0:0:0:0:
192,192,9671,1,0,0:0:0:0:
64,192,9816,1,0,0:0:0:0:
448,192,9816,1,0,0:0:0:0:
192,192,9962,1,0,0:0:0:0:
320,192,10107,1,0,0:0:0:0:
448,192,10107,1,0,0:0:0:0:
64,192,10253,1,0,0:0:0:0:
192,192,10399,1,0,0:0:0:0:
448,192,10399,1,0,0:0:0:0:
320,192,10544,1,0,0:0:0:0:
448,192,10690,1,0,0:0:0:0:
320,192,10738,1,0,0:0:0:0:
192,192,10787,1,0,0:0:0:0:
64,192,10836,1,0,0:0:0:0:
448,192,10884,1,0,0:0:0:0:
320,192,10933,1,0,0:0:0:0:
64,192,10981,1,0,0:0:0:0:
192,192,10981,1,0,0:0:0:0:
448,192,10981,1,0,0:0:0:0:
192,192,11127,1,0,0:0:0:0:
320,192,11272,1,0,0:0:0:0:
448,192,11272,1,0,0:0:0:0:
64,192,11418,1,0,0:0:0:0:
192,192,11564,1,0,0:0:0:0:
320,192,11564,1,0,0:0:0:0:
448,192,11709,1,0,0:0:0:0:
64,192,11855,1,0,0:0:0:0:
320,192,11855,1,0,0:0:0:0:
192,192,12001,1,0,0:0:0:0:
64,192,12146,1,0,0:0:0:0:
320,192,12146,1,0,0:0:0:0:
448,192,12146,1,0,0:0:0:0:
192,192,12292,1,0,0:0:0:0:
320,192,12438,1,0,0:0:0:0:
448,192,12438,1,0,0:0:0:0:
64,192,12583,1,0,0:0:0:0:
192,192,12729,1,0,0:0:0:0:
448,192,12729,1,0,0:0:0:0:
320,192,12874,1,0,0:0:0:0:
64,192,13020,1,0,0:0:0:0:
192,192,13020,1,0,0:0:0:0:
448,192,13166,1,0,0:0:0:0:
64,192,13311,1,0,0:0:0:0:
192,192,13311,1,0,0:0:0:0:
320,192,13311,1,0,0:0:0:0:
448,192,13457,1,0,0:0:0:0:
192,192,13603,1,0,0:0:0:0:
320,192,13603,1,0,0:0:0:0:
64,192,13748,1,0,0:0:0:0:
320,192,13894,1,0,0:0:0:0:
448,192,13894,1,0,0:0:0:0:
192,192,14039,1,0,0:0:0:0:
64,192,14185,1,0,0:0:0:0:
448,192,14185,1,0,0:0:0:0:
320,192,14331,1,0,0:0:0:0:
64,192,14476,1,0,0:0:0:0:
192,192,14476,1,0,0:0:0:0:
448,192,14476,1,0,0:0:0:0:
320,192,14622,1,0,0:0:0:0:
192,192,14768,1,0,0:0:0:0:
448,192,14768,1,0,0:0:0:0:
64,192,14913,1,0,0:0:0:0:
192,192,15059,1,0,0:0:0:0:
320,192,15059,1,0,0:0:0:0:
448,192,15205,1,0,0:0:0:0:
64,192,15350,1,0,0:0:0:0:
192,192,15350,1,0,0:0:0:0:
64,192,15496,1,0,0:0:0:0:
192,192,15496,1,0,0:0:0:0:
64,192,15641,1,0,0:0:0:0:
320,192,15641,1,0,0:0:0:0:
448,192,15641,1,0,0:0:0:0:
192,192,15787,1,0,0:0:0:0:
320,192,15933,1,0,0:0:0:0:
448,192,15933,1,0,0:0:0:0:
64,192,16078,1,0,0:0:0:0:
192,192,16224,1,0,0:0:0:0:
320,192,16224,1,0,0:0:0:0:
448,192,16224,1,0,0:0:0:0:
64,192,16370,1,0,0:0:0:0:
192,192,16515,1,0,0:0:0:0:
448,192,16515,1,0,0:0:0:0:
320,192,16661,1,0,0:0:0:0:
64,192,16806,1,0,0:0:0:0:
192,192,16806,1,0,0:0:0:0:
448,192,16806,1,0,0:0:0:0:
320,192,16952,1,0,0:0:0:0:
64,192,17098,1,0,0:0:0:0:
192,192,17098,1,0,0:0:0:0:
448,192,17243,1,0,0:0:0:0:
64,192,17389,1,0,0:0:0:0:
192,192,17389,1,0,0:0:0:0:
320,192,17389,1,0,0:0:0:0:
448,192,17535,1,0,0:0:0:0:
64,192,17680,1,0,0:0:0:0:
320,192,17680,1,0,0:0:0:0:
192,192,17826,1,0,0:0:0:0:
64,192,17971,1,0,0:0:0:0:
192,192,17971,1,0,0:0:0:0:
448,192,17971,1,0,0:0:0:0:
320,192,18117,1,0,0:0:0:0:
64,192,18263,1,0,0:0:0:0:
192,192,18263,1,0,0:0:0:0:
448,192,18408,1,0,0:0:0:0:
192,192,18554,1,0,0:0:0:0:
320,192,18554,1,0,0:0:0:0:
64,192,18700,1,0,0:0:0:0:
192,192,18845,1,0,0:0:0:0:
320,192,18845,1,0,0:0:0:0:
448,192,18845,1,0,0:0:0:0:
64,192,18991,1,0,0:0:0:0:
448,192,18991,1,0,0:0:0:0:
64,192,19137,128,0,19428:0:0:0:0:
448,192,19573,1,0,0:0:0:0:
64,192,19646,1,0,0:0:0:0:
448,192,19719,1,0,0:0:0:0:
64,192,19792,1,0,0:0:0:0:
320,192,19865,128,0,20010:0:0:0:0:
192,192,20010,1,0,0:0:0:0:
192,192,20156,1,0,0:0:0:0:
320,192,20302,1,0,0:0:0:0:
448,192,20302,1,0,0:0:0:0:
192,192,20374,1,0,0:0:0:0:
64,192,20447,1,0,0:0:0:0:
320,192,20447,1,0,0:0:0:0:
192,192,20520,1,0,0:0:0:0:
64,192,20593,1,0,0:0:0:0:
448,192,20593,1,0,0:0:0:0:
320,192,20666,1,0,0:0:0:0:
192,192,20738,1,0,0:0:0:0:
448,192,20738,1,0,0:0:0:0:
320,192,20811,1,0,0:0:0:0:
64,192,20884,1,0,0:0:0:0:
320,192,20957,1,0,0:0:0:0:
192,192,21030,1,0,0:0:0:0:
448,192,21030,1,0,0:0:0:0:
64,192,21103,1,0,0:0:0:0:
320,192,21175,1,0,0:0:0:0:
448,192,21175,1,0,0:0:0:0:
192,192,21248,1,0,0:0:0:0:
320,192,21321,1,0,0:0:0:0:
64,192,21394,1,0,0:0:0:0:
192,192,21467,1,0,0:0:0:0:
448,192,21467,1,0,0:0:0:0:
320,192,21539,1,0,0:0:0:0:
64,192,21612,1,0,0:0:0:0:
192,192,21612,1,0,0:0:0:0:
448,192,21685,1,0,0:0:0:0:
64,192,21758,1,0,0:0:0:0:
320,192,21758,1,0,0:0:0:0:
192,192,21831,1,0,0:0:0:0:
320,192,21904,1,0,0:0:0:0:
448,192,21904,1,0,0:0:0:0:
192,192,21976,1,0,0:0:0:0:
64,192,22049,1,0,0:0:0:0:
192,192,22122,1,0,0:0:0:0:
320,192,22195,1,0,0:0:0:0:
448,192,22195,1,0,0:0:0:0:
64,192,22268,1,0,0:0:0:0:
192,192,22340,1,0,0:0:0:0:
448,192,22340,1,0,0:0:0:0:
320,192,22413,1,0,0:0:0:0:
192,192,22486,1,0,0:0:0:0:
64,192,22559,1,0,0:0:0:0:
320,192,22632,1,0,0:0:0:0:
448,192,22632,1,0,0:0:0:0:
192,192,22705,1,0,0:0:0:0:
64,192,22777,1,0,0:0:0:0:
448,192,22777,1,0,0:0:0:0:
192,192,22850,1,0,0:0:0:0:
320,192,22923,1,0,0:0:0:0:
448,192,22923,1,0,0:0:0:0:
192,192,22996,1,0,0:0:0:0:
64,192,23069,1,0,0:0:0:0:
320,192,23069,1,0,0:0:0:0:
448,192,23141,1,0,0:0:0:0:
192,192,23214,1,0,0:0:0:0:
448,192,23287,1,0,0:0:0:0:
64,192,23360,1,0,0:0:0:0:
320,192,23360,1,0,0:0:0:0:
192,192,23433,1,0,0:0:0:0:
320,192,23505,1,0,0:0:0:0:
448,192,23505,1,0,0:0:0:0:
64,192,23578,1,0,0:0:0:0:
192,192,23651,1,0,0:0:0:0:
320,192,23724,1,0,0:0:0:0:
64,192,23797,1,0,0:0:0:0:
448,192,23797,1,0,0:0:0:0:
192,192,23870,1,0,0:0:0:0:
320,192,23942,1,0,0:0:0:0:
448,192,23942,1,0,0:0:0:0:
64,192,24015,1,0,0:0:0:0:
192,192,24088,1,0,0:0:0:0:
320,192,24088,1,0,0:0:0:0:
448,192,24161,1,0,0:0:0:0:
64,192,24234,1,0,0:0:0:0:
192,192,24234,1,0,0:0:0:0:
320,192,24306,1,0,0:0:0:0:
448,192,24379,1,0,0:0:0:0:
320,192,24452,1,0,0:0:0:0:
64,192,24525,1,0,0:0:0:0:
192,192,24525,1,0,0:0:0:0:
448,192,24598,1,0,0:0:0:0:
192,192,24671,1,0,0:0:0:0:
320,192,24671,1,0,0:0:0:0:
64,192,24743,1,0,0:0:0:0:
192,192,24816,1,0,0:0:0:0:
320,192,24816,1,0,0:0:0:0:
64,192,24889,1,0,0:0:0:0:
192,192,24962,1,0,0:0:0:0:
320,192,24962,1,0,0:0:0:0:
448,192,24962,1,0,0:0:0:0:
64,192,25035,1,0,0:0:0:0:
192,192,25107,1,0,0:0:0:0:
320,192,25180,1,0,0:0:0:0:
64,192,25253,1,0,0:0:0:0:
192,192,25253,1,0,0:0:0:0:
448,192,25326,1,0,0:0:0:0:
320,192,25399,1,0,0:0:0:0:
192,192,25471,1,0,0:0:0:0:
64,192,25544,1,0,0:0:0:0:
320,192,25544,1,0,0:0:0:0:
448,192,25544,1,0,0:0:0:0:
192,192,25617,1,0,0:0:0:0:
320,192,25690,1,0,0:0:0:0:
448,192,25763,1,0,0:0:0:0:
64,192,25836,1,0,0:0:0:0:
192,192,25836,1,0,0:0:0:0:
320,192,25908,1,0,0:0:0:0:
192,192,25981,1,0,0:0:0:0:
64,192,26054,1,0,0:0:0:0:
192,192,26127,1,0,0:0:0:0:
320,192,26127,1,0,0:0:0:0:
448,192,26127,1,0,0:0:0:0:
64,192,26200,1,0,0:0:0:0:
448,192,26272,1,0,0:0:0:0:
320,192,26345,1,0,0:0:0:0:
64,192,26418,1,0,0:0:0:0:
192,192,26418,1,0,0:0:0:0:
448,192,26491,1,0,0:0:0:0:
192,192,26564,1,0,0:0:0:0:
320,192,26564,1,0,0:0:0:0:
64,192,26637,1,0,0:0:0:0:
192,192,26709,1,0,0:0:0:0:
320,192,26709,1,0,0:0:0:0:
448,192,26709,1,0,0:0:0:0:
64,192,26782,1,0,0:0:0:0:
320,192,26855,1,0,0:0:0:0:
448,192,26855,1,0,0:0:0:0:
192,192,26928,1,0,0:0:0:0:
64,192,27001,1,0,0:0:0:0:
448,192,27001,1,0,0:0:0:0:
320,192,27073,1,0,0:0:0:0:
192,192,27146,1,0,0:0:0:0:
320,192,27219,1,0,0:0:0:0:
64,192,27292,1,0,0:0:0:0:
192,192,27292,1,0,0:0:0:0:
448,192,27292,1,0,0:0:0:0:
320,192,27365,1,0,0:0:0:0:
448,192,27438,1,0,0:0:0:0:
192,192,27510,1,0,0:0:0:0:
64,192,27583,1,0,0:0:0:0:
320,192,27583,1,0,0:0:0:0:
448,192,27656,1,0,0:0:0:0:
192,192,27729,1,0,0:0:0:0:
64,192,27802,1,0,0:0:0:0:
192,192,27874,1,0,0:0:0:0:
448,192,27874,1,0,0:0:0:0:
320,192,27947,1,0,0:0:0:0:
64,192,28020,1,0,0:0:0:0:
192,192,28093,1,0,0:0:0:0:
64,192,28166,1,0,0:0:0:0:
320,192,28166,1,0,0:0:0:0:
448,192,28166,1,0,0:0:0:0:
192,192,28238,1,0,0:0:0:0:
320,192,28311,1,0,0:0:0:0:
448,192,28311,1,0,0:0:0:0:
64,192,28384,1,0,0:0:0:0:
192,192,28457,1,0,0:0:0:0:
448,192,28457,1,0,0:0:0:0:
320,192,28530,1,0,0:0:0:0:
192,192,28603,1,0,0:0:0:0:
64,192,28675,1,0,0:0:0:0:
320,192,28748,1,0,0:0:0:0:
448,192,28748,1,0,0:0:0:0:
192,192,28821,1,0,0:0:0:0:
320,192,28894,128,0,28967:0:0:0:0:
320,192,29185,128,0,29258:0:0:0:0:
320,192,29476,128,0,29549:0:0:0:0:
64,192,29622,1,0,0:0:0:0:
192,192,29622,1,0,0:0:0:0:
448,192,29695,1,0,0:0:0:0:
64,192,29768,1,0,0:0:0:0:
320,192,29768,1,0,0:0:0:0:
192,192,29840,1,0,0:0:0:0:
320,192,29913,1,0,0:0:0:0:
448,192,29913,1,0,0:0:0:0:
64,192,29986,1,0,0:0:0:0:
192,192,30059,1,0,0:0:0:0:
448,192,30059,1,0,0:0:0:0:
320,192,30132,1,0,0:0:0:0:
64,192,30205,1,0,0:0:0:0:
320,192,30277,1,0,0:0:0:0:
192,192,30350,1,0,0:0:0:0:
448,192,30350,1,0,0:0:0:0:
64,192,30423,1,0,0:0:0:0:
320,192,30496,1,0,0:0:0:0:
448,192,30496,1,0,0:0:0:0:
192,192,30569,1,0,0:0:0:0:
320,192,30641,1,0,0:0:0:0:
64,192,30714,1,0,0:0:0:0:
192,192,30787,1,0,0:0:0:0:
448,192,30787,1,0,0:0:0:0:
320,192,30860,1,0,0:0:0:0:
64,192,30933,1,0,0:0:0:0:
192,192,30933,1,0,0:0:0:0:
448,192,31005,1,0,0:0:0:0:
64,192,31078,1,0,0:0:0:0:
320,192,31078,1,0,0:0:0:0:
192,192,31151,1,0,0:0:0:0:
64,192,31224,1,0,0:0:0:0:
448,192,31224,1,0,0:0:0:0:
320,192,31297,1,0,0:0:0:0:
192,192,31370,1,0,0:0:0:0:
320,192,31442,1,0,0:0:0:0:
64,192,31515,1,0,0:0:0:0:
448,192,31515,1,0,0:0:0:0:
192,192,31588,1,0,0:0:0:0:
320,192,31661,1,0,0:0:0:0:
448,192,31661,1,0,0:0:0:0:
64,192,31734,1,0,0:0:0:0:
192,192,31806,1,0,0:0:0:0:
448,192,31879,1,0,0:0:0:0:
64,192,31952,1,0,0:0:0:0:
320,192,31952,1,0,0:0:0:0:
192,192,32025,1,0,0:0:0:0:
64,192,32098,1,0,0:0:0:0:
448,192,32098,1,0,0:0:0:0:
320,192,32171,1,0,0:0:0:0:
192,192,32243,1,0,0:0:0:0:
448,192,32243,1,0,0:0:0:0:
320,192,32316,1,0,0:0:0:0:
64,192,32389,1,0,0:0:0:0:
192,192,32389,1,0,0:0:0:0:
448,192,32462,1,0,0:0:0:0:
320,192,32535,1,0,0:0:0:0:
448,192,32607,1,0,0:0:0:0:
64,192,32680,1,0,0:0:0:0:
192,192,32680,1,0,0:0:0:0:
320,192,32753,1,0,0:0:0:0:
64,192,32826,1,0,0:0:0:0:
448,192,32826,1,0,0:0:0:0:
192,192,32899,1,0,0:0:0:0:
320,192,32971,1,0,0:0:0:0:
448,192,33044,1,0,0:0:0:0:
64,192,33117,1,0,0:0:0:0:
192,192,33117,1,0,0:0:0:0:
320,192,33190,1,0,0:0:0:0:
64,192,33263,1,0,0:0:0:0:
448,192,33263,1,0,0:0:0:0:
192,192,33336,1,0,0:0:0:0:
320,192,33408,1,0,0:0:0:0:
448,192,33408,1,0,0:0:0:0:
64,192,33481,1,0,0:0:0:0:
192,192,33554,1,0,0:0:0:0:
320,192,33554,1,0,0:0:0:0:
448,192,33627,1,0,0:0:0:0:
64,192,33700,1,0,0:0:0:0:
448,192,33772,1,0,0:0:0:0:
192,192,33845,1,0,0:0:0:0:
320,192,33845,1,0,0:0:0:0:
64,192,33918,1,0,0:0:0:0:
192,192,33991,1,0,0:0:0:0:
448,192,33991,1,0,0:0:0:0:
320,192,34064,1,0,0:0:0:0:
64,192,34137,1,0,0:0:0:0:
192,192,34209,1,0,0:0:0:0:
320,192,34282,1,0,0:0:0:0:
448,192,34282,1,0,0:0:0:0:
64,192,34355,1,0,0:0:0:0:
192,192,34428,1,0,0:0:0:0:
320,192,34501,1,0,0:0:0:0:
64,192,34573,1,0,0:0:0:0:
448,192,34573,1,0,0:0:0:0:
192,192,34646,1,0,0:0:0:0:
448,192,34719,1,0,0:0:0:0:
320,192,34792,1,0,0:0:0:0:
64,192,34865,1,0,0:0:0:0:
192,192,34865,1,0,0:0:0:0:
320,192,34938,1,0,0:0:0:0:
448,192,35010,1,0,0:0:0:0:
192,192,35083,1,0,0:0:0:0:
64,192,35156,1,0,0:0:0:0:
448,192,35156,1,0,0:0:0:0:
320,192,35229,1,0,0:0:0:0:
192,192,35302,1,0,0:0:0:0:
64,192,35374,1,0,0:0:0:0:
320,192,35447,1,0,0:0:0:0:
448,192,35447,1,0,0:0:0:0:
192,192,35520,1,0,0:0:0:0:
64,192,35593,1,0,0:0:0:0:
320,192,35666,1,0,0:0:0:0:
192,192,35738,1,0,0:0:0:0:
448,192,35738,1,0,0:0:0:0:
64,192,35811,1,0,0:0:0:0:
320,192,35884,1,0,0:0:0:0:
192,192,35957,1,0,0:0:0:0:
64,192,36030,1,0,0:0:0:0:
448,192,36030,1,0,0:0:0:0:
192,192,36103,1,0,0:0:0:0:
320,192,36175,1,0,0:0:0:0:
448,192,36248,1,0,0:0:0:0:
192,192,36321,1,0,0:0:0:0:
320,192,36321,1,0,0:0:0:0:
64,192,36394,1,0,0:0:0:0:
448,192,36467,1,0,0:0:0:0:
320,192,36539,1,0,0:0:0:0:
64,192,36612,1,0,0:0:0:0:
192,192,36612,1,0,0:0:0:0:
448,192,36758,1,0,0:0:0:0:
64,192,36904,1,0,0:0:0:0:
192,192,37049,1,0,0:0:0:0:
448,192,37195,1,0,0:0:0:0:
192,192,37340,1,0,0:0:0:0:
192,192,37486,1,0,0:0:0:0:
320,192,37632,1,0,0:0:0:0:
64,192,37777,1,0,0:0:0:0:
192,192,37923,1,0,0:0:0:0:
320,192,38069,128,0,38360:0:0:0:0:
64,192,38360,1,0,0:0:0:0:
64,192,38505,1,0,0:0:0:0:
448,192,38651,128,0,38797:0:0:0:0:
64,192,38797,128,0,38942:0:0:0:0:
192,192,38942,1,0,0:0:0:0:
448,192,38942,1,0,0:0:0:0:
64,192,39088,1,0,0:0:0:0:
320,192,39088,1,0,0:0:0:0:
192,192,39161,1,0,0:0:0:0:
320,192,39234,1,0,0:0:0:0:
448,192,39234,1,0,0:0:0:0:
192,192,39379,1,0,0:0:0:0:
448,192,39379,1,0,0:0:0:0:
320,192,39452,1,0,0:0:0:0:
64,192,39525,1,0,0:0:0:0:
192,192,39525,1,0,0:0:0:0:
448,192,39671,1,0,0:0:0:0:
320,192,39743,1,0,0:0:0:0:
64,192,39816,1,0,0:0:0:0:
448,192,39816,1,0,0:0:0:0:
192,192,39962,1,0,0:0:0:0:
64,192,40035,1,0,0:0:0:0:
192,192,40107,1,0,0:0:0:0:
448,192,40107,1,0,0:0:0:0:
320,192,40253,1,0,0:0:0:0:
192,192,40326,1,0,0:0:0:0:
320,192,40399,1,0,0:0:0:0:
448,192,40399,1,0,0:0:0:0:
192,192,40544,1,0,0:0:0:0:
320,192,40617,1,0,0:0:0:0:
64,192,40690,1,0,0:0:0:0:
192,192,40690,1,0,0:0:0:0:
448,192,40836,1,0,0:0:0:0:
320,192,40908,1,0,0:0:0:0:
64,192,40981,1,0,0:0:0:0:
192,192,40981,1,0,0:0:0:0:
448,192,40981,1,0,0:0:0:0:
64,192,41127,1,0,0:0:0:0:
320,192,41127,1,0,0:0:0:0:
192,192,41200,1,0,0:0:0:0:
320,192,41272,1,0,0:0:0:0:
448,192,41272,1,0,0:0:0:0:
64,192,41418,1,0,0:0:0:0:
192,192,41418,1,0,0:0:0:0:
320,192,41491,1,0,0:0:0:0:
192,192,41564,1,0,0:0:0:0:
448,192,41564,1,0,0:0:0:0:
320,192,41709,1,0,0:0:0:0:
448,192,41709,1,0,0:0:0:0:
64,192,41782,1,0,0:0:0:0:
192,192,41855,1,0,0:0:0:0:
320,192,41855,1,0,0:0:0:0:
448,192,42001,1,0,0:0:0:0:
320,192,42073,1,0,0:0:0:0:
64,192,42146,1,0,0:0:0:0:
192,192,42146,1,0,0:0:0:0:
64,192,42292,1,0,0:0:0:0:
192,192,42365,1,0,0:0:0:0:
320,192,42438,1,0,0:0:0:0:
448,192,42438,1,0,0:0:0:0:
64,192,42583,1,0,0:0:0:0:
448,192,42656,1,0,0:0:0:0:
192,192,42729,1,0,0:0:0:0:
64,192,42729,1,0,0:0:0:0:
448,192,42874,1,0,0:0:0:0:
320,192,42947,1,0,0:0:0:0:
192,192,43020,1,0,0:0:0:0:
448,192,43020,1,0,0:0:0:0:
64,192,43166,1,0,0:0:0:0:
192,192,43238,1,0,0:0:0:0:
64,192,43311,1,0,0:0:0:0:
320,192,43311,1,0,0:0:0:0:
448,192,43311,1,0,0:0:0:0:
192,192,43457,1,0,0:0:0:0:
320,192,43457,1,0,0:0:0:0:
448,192,43530,1,0,0:0:0:0:
64,192,43603,1,0,0:0:0:0:
192,192,43603,1,0,0:0:0:0:
320,192,43748,1,0,0:0:0:0:
448,192,43748,1,0,0:0:0:0:
192,192,43821,1,0,0:0:0:0:
64,192,43894,1,0,0:0:0:0:
448,192,43894,1,0,0:0:0:0:
192,192,44039,1,0,0:0:0:0:
320,192,44039,1,0,0:0:0:0:
64,192,44112,1,0,0:0:0:0:
320,192,44185,1,0,0:0:0:0:
448,192,44185,1,0,0:0:0:0:
192,192,44331,1,0,0:0:0:0:
320,192,44404,1,0,0:0:0:0:
64,192,44476,1,0,0:0:0:0:
192,192,44476,1,0,0:0:0:0:
448,192,44622,1,0,0:0:0:0:
320,192,44695,1,0,0:0:0:0:
64,192,44768,1,0,0:0:0:0:
192,192,44768,1,0,0:0:0:0:
320,192,44913,1,0,0:0:0:0:
192,192,44986,1,0,0:0:0:0:
64,192,45059,1,0,0:0:0:0:
320,192,45059,1,0,0:0:0:0:
448,192,45059,1,0,0:0:0:0:
192,192,45205,1,0,0:0:0:0:
320,192,45277,1,0,0:0:0:0:
64,192,45350,1,0,0:0:0:0:
192,192,45350,1,0,0:0:0:0:
448,192,45350,1,0,0:0:0:0:
320,192,45496,1,0,0:0:0:0:
192,192,45569,1,0,0:0:0:0:
64,192,45641,1,0,0:0:0:0:
448,192,45641,1,0,0:0:0:0:
192,192,45787,1,0,0:0:0:0:
320,192,45860,1,0,0:0:0:0:
64,192,45933,1,0,0:0:0:0:
192,192,45933,1,0,0:0:0:0:
448,192,45933,1,0,0:0:0:0:
320,192,46078,1,0,0:0:0:0:
192,192,46151,1,0,0:0:0:0:
64,192,46224,1,0,0:0:0:0:
320,192,46224,1,0,0:0:0:0:
448,192,46370,1,0,0:0:0:0:
320,192,46442,1,0,0:0:0:0:
64,192,46515,1,0,0:0:0:0:
192,192,46515,1,0,0:0:0:0:
448,192,46515,1,0,0:0:0:0:
320,192,46661,1,0,0:0:0:0:
448,192,46734,1,0,0:0:0:0:
64,192,46806,1,0,0:0:0:0:
192,192,46806,1,0,0:0:0:0:
320,192,46952,1,0,0:0:0:0:
192,192,47025,1,0,0:0:0:0:
64,192,47098,1,0,0:0:0:0:
320,192,47098,1,0,0:0:0:0:
448,192,47098,1,0,0:0:0:0:
192,192,47243,1,0,0:0:0:0:
320,192,47316,1,0,0:0:0:0:
64,192,47389,1,0,0:0:0:0:
448,192,47389,1,0,0:0:0:0:
192,192,47535,1,0,0:0:0:0:
320,192,47607,1,0,0:0:0:0:
64,192,47680,1,0,0:0:0:0:
192,192,47680,1,0,0:0:0:0:
320,192,47826,1,0,0:0:0:0:
192,192,47899,1,0,0:0:0:0:
64,192,47971,1,0,0:0:0:0:
320,192,47971,1,0,0:0:0:0:
448,192,47971,1,0,0:0:0:0:
192,192,48117,1,0,0:0:0:0:
320,192,48117,1,0,0:0:0:0:
448,192,48190,1,0,0:0:0:0:
64,192,48263,1,0,0:0:0:0:
320,192,48263,1,0,0:0:0:0:
192,192,48408,1,0,0:0:0:0:
448,192,48408,1,0,0:0:0:0:
320,192,48481,1,0,0:0:0:0:
64,192,48554,1,0,0:0:0:0:
192,192,48554,1,0,0:0:0:0:
320,192,48700,1,0,0:0:0:0:
448,192,48700,1,0,0:0:0:0:
64,192,48772,1,0,0:0:0:0:
192,192,48845,1,0,0:0:0:0:
320,192,48845,1,0,0:0:0:0:
448,192,48991,1,0,0:0:0:0:
320,192,49064,1,0,0:0:0:0:
64,192,49137,1,0,0:0:0:0:
192,192,49137,1,0,0:0:0:0:
64,192,49282,1,0,0:0:0:0:
192,192,49355,1,0,0:0:0:0:
320,192,49428,1,0,0:0:0:0:
448,192,49428,1,0,0:0:0:0:
192,192,49573,1,0,0:0:0:0:
320,192,49646,1,0,0:0:0:0:
64,192,49719,1,0,0:0:0:0:
192,192,49719,1,0,0:0:0:0:
320,192,49865,1,0,0:0:0:0:
448,192,49865,1,0,0:0:0:0:
64,192,49938,1,0,0:0:0:0:
192,192,49938,1,0,0:0:0:0:
320,192,50156,1,0,0:0:0:0:
448,192,50156,1,0,0:0:0:0:
320,192,50302,1,0,0:0:0:0:
448,192,50302,1,0,0:0:0:0:
320,192,50447,1,0,0:0:0:0:
448,192,50447,1,0,0:0:0:0:
64,192,50520,1,0,0:0:0:0:
192,192,50520,1,0,0:0:0:0:
320,192,50593,1,0,0:0:0:0:
448,192,50593,1,0,0:0:0:0:
64,192,50738,1,0,0:0:0:0:
192,192,50738,1,0,0:0:0:0:
320,192,50811,1,0,0:0:0:0:
64,192,50884,1,0,0:0:0:0:
448,192,50884,1,0,0:0:0:0:
192,192,51030,1,0,0:0:0:0:
320,192,51030,1,0,0:0:0:0:
448,192,51103,1,0,0:0:0:0:
64,192,51175,1,0,0:0:0:0:
320,192,51175,1,0,0:0:0:0:
192,192,51321,1,0,0:0:0:0:
320,192,51394,1,0,0:0:0:0:
64,192,51467,1,0,0:0:0:0:
192,192,51467,1,0,0:0:0:0:
448,192,51612,1,0,0:0:0:0:
320,192,51685,1,0,0:0:0:0:
64,192,51758,1,0,0:0:0:0:
192,192,51758,1,0,0:0:0:0:
320,192,51904,1,0,0:0:0:0:
192,192,51976,1,0,0:0:0:0:
320,192,52049,1,0,0:0:0:0:
448,192,52049,1,0,0:0:0:0:
64,192,52195,1,0,0:0:0:0:
192,192,52268,1,0,0:0:0:0:
320,192,52340,1,0,0:0:0:0:
448,192,52340,1,0,0:0:0:0:
64,192,52486,1,0,0:0:0:0:
192,192,52559,1,0,0:0:0:0:
64,192,52632,1,0,0:0:0:0:
320,192,52632,1,0,0:0:0:0:
448,192,52632,1,0,0:0:0:0:
192,192,52777,1,0,0:0:0:0:
448,192,52777,1,0,0:0:0:0:
320,192,52850,1,0,0:0:0:0:
64,192,52923,1,0,0:0:0:0:
192,192,52923,1,0,0:0:0:0:
320,192,53069,1,0,0:0:0:0:
448,192,53069,1,0,0:0:0:0:
192,192,53141,1,0,0:0:0:0:
64,192,53214,1,0,0:0:0:0:
448,192,53214,1,0,0:0:0:0:
192,192,53360,1,0,0:0:0:0:
320,192,53360,1,0,0:0:0:0:
448,192,53433,1,0,0:0:0:0:
64,192,53505,1,0,0:0:0:0:
192,192,53505,1,0,0:0:0:0:
320,192,53651,1,0,0:0:0:0:
192,192,53797,1,0,0:0:0:0:
448,192,53797,1,0,0:0:0:0:
64,192,53942,1,0,0:0:0:0:
320,192,54088,1,0,0:0:0:0:
448,192,54088,1,0,0:0:0:0:
192,192,54234,1,0,0:0:0:0:
64,192,54379,1,0,0:0:0:0:
320,192,54379,1,0,0:0:0:0:
448,192,54525,1,0,0:0:0:0:
64,192,54671,1,0,0:0:0:0:
192,192,54671,1,0,0:0:0:0:
320,192,54816,1,0,0:0:0:0:
192,192,54962,1,0,0:0:0:0:
448,192,54962,1,0,0:0:0:0:
192,192,55107,1,0,0:0:0:0:
448,192,55107,1,0,0:0:0:0:
64,192,55253,1,0,0:0:0:0:
320,192,55253,1,0,0:0:0:0:
448,192,55253,1,0,0:0:0:0:
192,192,55399,1,0,0:0:0:0:
320,192,55399,1,0,0:0:0:0:
192,192,55544,1,0,0:0:0:0:
448,192,55544,1,0,0:0:0:0:
64,192,55690,1,0,0:0:0:0:
448,192,55690,1,0,0:0:0:0:
64,192,55836,1,0,0:0:0:0:
320,192,55836,1,0,0:0:0:0:
320,192,55981,1,0,0:0:0:0:
448,192,55981,1,0,0:0:0:0:
64,192,56127,1,0,0:0:0:0:
192,192,56127,1,0,0:0:0:0:
320,192,56200,1,0,0:0:0:0:
448,192,56200,1,0,0:0:0:0:
64,192,56272,1,0,0:0:0:0:
192,192,56272,1,0,0:0:0:0:
320,192,56345,1,0,0:0:0:0:
448,192,56345,1,0,0:0:0:0:
64,192,56418,1,0,0:0:0:0:
192,192,56418,1,0,0:0:0:0:
320,192,56491,1,0,0:0:0:0:
448,192,56491,1,0,0:0:0:0:
64,192,56564,1,0,0:0:0:0:
192,192,56564,1,0,0:0:0:0:
320,192,56637,1,0,0:0:0:0:
448,192,56709,1,0,0:0:0:0:
192,192,56782,1,0,0:0:0:0:
320,192,56855,1,0,0:0:0:0:
64,192,56928,1,0,0:0:0:0:
192,192,57001,1,0,0:0:0:0:
320,192,57001,1,0,0:0:0:0:
448,192,57001,1,0,0:0:0:0:
64,192,57292,1,0,0:0:0:0:
192,192,57438,1,0,0:0:0:0:
64,192,57583,128,0,58166:0:0:0:0:
192,192,58166,128,0,58748:0:0:0:0:
448,192,58748,128,0,59331:0:0:0:0:
320,192,59331,1,0,0:0:0:0:
192,192,59476,1,0,0:0:0:0:
64,192,59622,1,0,0:0:0:0:
320,192,59913,1,0,0:0:0:0:
320,192,60350,1,0,0:0:0:0:
320,192,60641,1,0,0:0:0:0:
64,192,60787,1,0,0:0:0:0:
448,192,61078,1,0,0:0:0:0:
320,192,61224,1,0,0:0:0:0:
64,192,61370,1,0,0:0:0:0:
448,192,61661,1,0,0:0:0:0:
192,192,61806,1,0,0:0:0:0:
320,192,62098,128,0,62535:0:0:0:0:
64,192,62243,1,0,0:0:0:0:
448,192,62535,1,0,0:0:0:0:
64,192,62826,1,0,0:0:0:0:
320,192,62971,1,0,0:0:0:0:
192,192,63263,128,0,63700:0:0:0:0:
64,192,63700,1,0,0:0:0:0:
320,192,63991,1,0,0:0:0:0:
64,192,64137,1,0,0:0:0:0:
192,192,64282,1,0,0:0:0:0:
448,192,64428,128,0,65156:0:0:0:0:
192,192,64573,1,0,0:0:0:0:
192,192,64719,1,0,0:0:0:0:
320,192,65010,1,0,0:0:0:0:
192,192,65156,128,0,65593:0:0:0:0:
64,192,65302,1,0,0:0:0:0:
448,192,65593,1,0,0:0:0:0:
320,192,65738,128,0,66321:0:0:0:0:
64,192,66321,1,0,0:0:0:0:
192,192,66612,1,0,0:0:0:0:
320,192,66758,1,0,0:0:0:0:
448,192,66904,1,0,0:0:0:0:
64,192,67013,1,0,0:0:0:0:
320,192,67140,1,0,0:0:0:0:
192,192,67249,1,0,0:0:0:0:
448,192,67365,1,0,0:0:0:0:
64,192,67486,1,0,0:0:0:0:
64,192,67826,1,0,0:0:0:0:
192,192,67923,1,0,0:0:0:0:
64,192,68014,1,0,0:0:0:0:
448,192,68069,128,0,68160:0:0:0:0:
320,192,68214,1,0,0:0:0:0:
64,192,68360,1,0,0:0:0:0:
320,192,68451,1,0,0:0:0:0:
192,192,68578,1,0,0:0:0:0:
64,192,68942,1,0,0:0:0:0:
64,192,69234,1,0,0:0:0:0:
64,192,69379,1,0,0:0:0:0:
448,192,69598,128,0,69816:0:0:0:0:
64,192,69834,1,0,0:0:0:0:
320,192,69980,1,0,0:0:0:0:
192,192,70126,1,0,0:0:0:0:
448,192,70271,1,0,0:0:0:0:
192,192,70654,1,0,0:0:0:0:
64,192,70981,1,0,0:0:0:0:
448,192,70981,1,0,0:0:0:0:
320,192,71127,1,0,0:0:0:0:
64,192,71272,1,0,0:0:0:0:
320,192,71418,128,0,71855:0:0:0:0:
64,192,71564,1,0,0:0:0:0:
64,192,71709,1,0,0:0:0:0:
448,192,71855,1,0,0:0:0:0:
192,192,72146,1,0,0:0:0:0:
448,192,72292,1,0,0:0:0:0:
320,192,72583,128,0,73020:0:0:0:0:
192,192,73020,1,0,0:0:0:0:
64,192,73311,1,0,0:0:0:0:
320,192,73457,1,0,0:0:0:0:
448,192,73603,1,0,0:0:0:0:
192,192,73748,128,0,74185:0:0:0:0:
448,192,73894,1,0,0:0:0:0:
448,192,74039,1,0,0:0:0:0:
448,192,74331,1,0,0:0:0:0:
320,192,74476,128,0,75059:0:0:0:0:
64,192,74622,1,0,0:0:0:0:
64,192,74913,1,0,0:0:0:0:
192,192,75059,128,0,75641:0:0:0:0:
64,192,75641,128,0,76224:0:0:0:0:
192,192,76224,1,0,0:0:0:0:
448,192,76224,1,0,0:0:0:0:
192,192,76515,1,0,0:0:0:0:
448,192,76515,1,0,0:0:0:0:
192,192,76806,1,0,0:0:0:0:
448,192,76806,1,0,0:0:0:0:
192,192,77098,1,0,0:0:0:0:
448,192,77098,1,0,0:0:0:0:
64,192,77389,1,0,0:0:0:0:
320,192,77389,1,0,0:0:0:0:
64,192,77680,1,0,0:0:0:0:
320,192,77680,1,0,0:0:0:0:
64,192,77971,1,0,0:0:0:0:
320,192,77971,1,0,0:0:0:0:
448,192,78117,1,0,0:0:0:0:
64,192,78263,1,0,0:0:0:0:
320,192,78263,1,0,0:0:0:0:
192,192,78408,1,0,0:0:0:0:
320,192,78554,1,0,0:0:0:0:
448,192,78554,1,0,0:0:0:0:
320,192,78700,1,0,0:0:0:0:
448,192,78700,1,0,0:0:0:0:
64,192,78845,1,0,0:0:0:0:
192,192,78845,1,0,0:0:0:0:
64,192,78991,1,0,0:0:0:0:
192,192,78991,1,0,0:0:0:0:
320,192,79137,1,0,0:0:0:0:
448,192,79137,1,0,0:0:0:0:
320,192,79282,1,0,0:0:0:0:
448,192,79282,1,0,0:0:0:0:
64,192,79428,1,0,0:0:0:0:
192,192,79428,1,0,0:0:0:0:
64,192,79573,1,0,0:0:0:0:
192,192,79573,1,0,0:0:0:0:
320,192,79719,1,0,0:0:0:0:
448,192,79719,1,0,0:0:0:0:
64,192,79792,1,0,0:0:0:0:
192,192,79792,1,0,0:0:0:0:
320,192,79865,1,0,0:0:0:0:
448,192,79865,1,0,0:0:0:0:
64,192,79938,1,0,0:0:0:0:
192,192,79938,1,0,0:0:0:0:
320,192,80010,1,0,0:0:0:0:
448,192,80010,1,0,0:0:0:0:
64,192,80083,1,0,0:0:0:0:
192,192,80083,1,0,0:0:0:0:
320,192,80156,1,0,0:0:0:0:
448,192,80156,1,0,0:0:0:0:
64,192,80229,1,0,0:0:0:0:
192,192,80229,1,0,0:0:0:0:
320,192,80302,1,0,0:0:0:0:
448,192,80302,1,0,0:0:0:0:
192,192,80374,1,0,0:0:0:0:
320,192,80447,1,0,0:0:0:0:
64,192,80520,1,0,0:0:0:0:
448,192,80593,1,0,0:0:0:0:
320,192,80641,1,0,0:0:0:0:
192,192,80690,1,0,0:0:0:0:
64,192,80738,1,0,0:0:0:0:
448,192,80787,1,0,0:0:0:0:
320,192,80836,1,0,0:0:0:0:
64,192,80884,1,0,0:0:0:0:
192,192,80884,1,0,0:0:0:0:
192,192,81030,1,0,0:0:0:0:
320,192,81175,1,0,0:0:0:0:
448,192,81175,1,0,0:0:0:0:
192,192,81248,1,0,0:0:0:0:
448,192,81321,1,0,0:0:0:0:
192,192,81394,1,0,0:0:0:0:
64,192,81467,1,0,0:0:0:0:
320,192,81539,1,0,0:0:0:0:
64,192,81612,1,0,0:0:0:0:
192,192,81612,1,0,0:0:0:0:
448,192,81758,1,0,0:0:0:0:
64,192,81904,1,0,0:0:0:0:
192,192,81904,1,0,0:0:0:0:
448,192,81976,1,0,0:0:0:0:
64,192,82049,1,0,0:0:0:0:
192,192,82049,1,0,0:0:0:0:
320,192,82122,1,0,0:0:0:0:
448,192,82195,1,0,0:0:0:0:
64,192,82340,1,0,0:0:0:0:
448,192,82340,1,0,0:0:0:0:
192,192,82486,1,0,0:0:0:0:
320,192,82486,1,0,0:0:0:0:
64,192,82632,1,0,0:0:0:0:
448,192,82632,1,0,0:0:0:0:
320,192,82705,1,0,0:0:0:0:
64,192,82777,1,0,0:0:0:0:
192,192,82777,1,0,0:0:0:0:
320,192,82850,1,0,0:0:0:0:
448,192,82850,1,0,0:0:0:0:
64,192,82923,1,0,0:0:0:0:
192,192,82923,128,0,83214:0:0:0:0:
320,192,83214,1,0,0:0:0:0:
448,192,83214,1,0,0:0:0:0:
192,192,83360,1,0,0:0:0:0:
320,192,83505,1,0,0:0:0:0:
448,192,83505,1,0,0:0:0:0:
64,192,83651,1,0,0:0:0:0:
192,192,83651,1,0,0:0:0:0:
320,192,83797,1,0,0:0:0:0:
192,192,83870,1,0,0:0:0:0:
320,192,83942,1,0,0:0:0:0:
448,192,83942,1,0,0:0:0:0:
192,192,84088,1,0,0:0:0:0:
320,192,84234,1,0,0:0:0:0:
448,192,84234,1,0,0:0:0:0:
64,192,84379,1,0,0:0:0:0:
192,192,84379,1,0,0:0:0:0:
320,192,84525,1,0,0:0:0:0:
192,192,84671,1,0,0:0:0:0:
448,192,84671,1,0,0:0:0:0:
64,192,84816,1,0,0:0:0:0:
320,192,84816,1,0,0:0:0:0:
192,192,84962,1,0,0:0:0:0:
448,192,84962,1,0,0:0:0:0:
320,192,85035,1,0,0:0:0:0:
64,192,85107,1,0,0:0:0:0:
192,192,85107,1,0,0:0:0:0:
320,192,85180,1,0,0:0:0:0:
448,192,85180,1,0,0:0:0:0:
64,192,85253,1,0,0:0:0:0:
192,192,85253,128,0,85544:0:0:0:0:
320,192,85544,1,0,0:0:0:0:
448,192,85544,1,0,0:0:0:0:
64,192,85690,1,0,0:0:0:0:
192,192,85836,1,0,0:0:0:0:
448,192,85836,1,0,0:0:0:0:
320,192,85908,1,0,0:0:0:0:
64,192,85981,1,0,0:0:0:0:
320,192,86054,1,0,0:0:0:0:
192,192,86127,1,0,0:0:0:0:
448,192,86200,1,0,0:0:0:0:
64,192,86272,1,0,0:0:0:0:
192,192,86272,1,0,0:0:0:0:
320,192,86418,1,0,0:0:0:0:
192,192,86564,1,0,0:0:0:0:
448,192,86564,1,0,0:0:0:0:
192,192,86709,1,0,0:0:0:0:
448,192,86709,1,0,0:0:0:0:
320,192,86855,1,0,0:0:0:0:
64,192,87001,1,0,0:0:0:0:
192,192,87001,1,0,0:0:0:0:
320,192,87146,1,0,0:0:0:0:
448,192,87146,1,0,0:0:0:0:
64,192,87292,1,0,0:0:0:0:
192,192,87292,1,0,0:0:0:0:
320,192,87365,1,0,0:0:0:0:
64,192,87438,1,0,0:0:0:0:
448,192,87438,1,0,0:0:0:0:
192,192,87510,1,0,0:0:0:0:
320,192,87510,1,0,0:0:0:0:
64,192,87583,1,0,0:0:0:0:
448,192,87583,128,0,87874:0:0:0:0:
64,192,87874,1,0,0:0:0:0:
320,192,87874,1,0,0:0:0:0:
192,192,88020,1,0,0:0:0:0:
64,192,88166,1,0,0:0:0:0:
320,192,88166,1,0,0:0:0:0:
192,192,88311,1,0,0:0:0:0:
448,192,88311,1,0,0:0:0:0:
320,192,88457,1,0,0:0:0:0:
192,192,88530,1,0,0:0:0:0:
320,192,88603,1,0,0:0:0:0:
448,192,88603,1,0,0:0:0:0:
64,192,88675,1,0,0:0:0:0:
192,192,88748,1,0,0:0:0:0:
320,192,88894,1,0,0:0:0:0:
448,192,88894,1,0,0:0:0:0:
64,192,89039,1,0,0:0:0:0:
192,192,89039,1,0,0:0:0:0:
320,192,89185,1,0,0:0:0:0:
192,192,89258,1,0,0:0:0:0:
320,192,89331,1,0,0:0:0:0:
448,192,89331,1,0,0:0:0:0:
64,192,89404,1,0,0:0:0:0:
192,192,89476,1,0,0:0:0:0:
448,192,89476,1,0,0:0:0:0:
64,192,89622,1,0,0:0:0:0:
320,192,89622,1,0,0:0:0:0:
192,192,89695,1,0,0:0:0:0:
320,192,89768,1,0,0:0:0:0:
448,192,89768,1,0,0:0:0:0:
64,192,89840,1,0,0:0:0:0:
192,192,89840,1,0,0:0:0:0:
320,192,89913,128,0,90205:0:0:0:0:
448,192,89913,1,0,0:0:0:0:
64,192,90205,1,0,0:0:0:0:
192,192,90205,1,0,0:0:0:0:
448,192,90350,1,0,0:0:0:0:
64,192,90496,1,0,0:0:0:0:
320,192,90496,1,0,0:0:0:0:
192,192,90569,1,0,0:0:0:0:
448,192,90641,1,0,0:0:0:0:
192,192,90714,1,0,0:0:0:0:
320,192,90787,1,0,0:0:0:0:
64,192,90860,1,0,0:0:0:0:
192,192,90933,1,0,0:0:0:0:
448,192,90933,1,0,0:0:0:0:
320,192,91078,1,0,0:0:0:0:
64,192,91224,1,0,0:0:0:0:
192,192,91224,1,0,0:0:0:0:
448,192,91297,1,0,0:0:0:0:
64,192,91370,1,0,0:0:0:0:
192,192,91370,1,0,0:0:0:0:
320,192,91442,1,0,0:0:0:0:
448,192,91515,1,0,0:0:0:0:
64,192,91661,1,0,0:0:0:0:
192,192,91661,1,0,0:0:0:0:
320,192,91806,1,0,0:0:0:0:
448,192,91806,1,0,0:0:0:0:
64,192,91952,1,0,0:0:0:0:
192,192,91952,1,0,0:0:0:0:
320,192,92025,1,0,0:0:0:0:
64,192,92098,1,0,0:0:0:0:
448,192,92098,1,0,0:0:0:0:
192,192,92171,1,0,0:0:0:0:
320,192,92171,1,0,0:0:0:0:
64,192,92243,1,0,0:0:0:0:
448,192,92243,128,0,92535:0:0:0:0:
192,192,92535,1,0,0:0:0:0:
320,192,92535,1,0,0:0:0:0:
64,192,92680,1,0,0:0:0:0:
192,192,92826,1,0,0:0:0:0:
320,192,92826,1,0,0:0:0:0:
64,192,92971,1,0,0:0:0:0:
448,192,92971,1,0,0:0:0:0:
320,192,93117,1,0,0:0:0:0:
192,192,93190,1,0,0:0:0:0:
320,192,93263,1,0,0:0:0:0:
448,192,93263,1,0,0:0:0:0:
64,192,93336,1,0,0:0:0:0:
192,192,93408,1,0,0:0:0:0:
320,192,93554,1,0,0:0:0:0:
448,192,93554,1,0,0:0:0:0:
64,192,93700,1,0,0:0:0:0:
192,192,93700,1,0,0:0:0:0:
320,192,93845,1,0,0:0:0:0:
64,192,93991,1,0,0:0:0:0:
192,192,93991,1,0,0:0:0:0:
320,192,94137,1,0,0:0:0:0:
448,192,94137,1,0,0:0:0:0:
64,192,94282,1,0,0:0:0:0:
448,192,94282,1,0,0:0:0:0:
320,192,94355,1,0,0:0:0:0:
64,192,94428,1,0,0:0:0:0:
192,192,94428,1,0,0:0:0:0:
320,192,94501,1,0,0:0:0:0:
448,192,94501,1,0,0:0:0:0:
64,192,94573,1,0,0:0:0:0:
192,192,94573,128,0,94865:0:0:0:0:
320,192,94865,1,0,0:0:0:0:
448,192,94865,1,0,0:0:0:0:
64,192,95010,1,0,0:0:0:0:
192,192,95156,1,0,0:0:0:0:
320,192,95156,1,0,0:0:0:0:
448,192,95229,1,0,0:0:0:0:
64,192,95302,1,0,0:0:0:0:
448,192,95374,1,0,0:0:0:0:
192,192,95447,1,0,0:0:0:0:
320,192,95520,1,0,0:0:0:0:
64,192,95593,1,0,0:0:0:0:
192,192,95593,1,0,0:0:0:0:
448,192,95738,1,0,0:0:0:0:
64,192,95884,1,0,0:0:0:0:
192,192,95884,1,0,0:0:0:0:
320,192,95957,1,0,0:0:0:0:
64,192,96030,1,0,0:0:0:0:
192,192,96030,1,0,0:0:0:0:
448,192,96103,1,0,0:0:0:0:
320,192,96175,1,0,0:0:0:0:
64,192,96321,1,0,0:0:0:0:
448,192,96321,1,0,0:0:0:0:
192,192,96467,1,0,0:0:0:0:
320,192,96467,1,0,0:0:0:0:
64,192,96612,1,0,0:0:0:0:
448,192,96612,1,0,0:0:0:0:
192,192,96685,1,0,0:0:0:0:
320,192,96758,1,0,0:0:0:0:
448,192,96758,1,0,0:0:0:0:
64,192,96831,1,0,0:0:0:0:
192,192,96831,1,0,0:0:0:0:
320,192,96904,128,0,97195:0:0:0:0:
448,192,96904,1,0,0:0:0:0:
64,192,97195,1,0,0:0:0:0:
192,192,97195,1,0,0:0:0:0:
448,192,97340,1,0,0:0:0:0:
64,192,97486,1,0,0:0:0:0:
320,192,97486,1,0,0:0:0:0:
192,192,97632,1,0,0:0:0:0:
448,192,97632,1,0,0:0:0:0:
320,192,97777,1,0,0:0:0:0:
192,192,97850,1,0,0:0:0:0:
64,192,97923,1,0,0:0:0:0:
448,192,97923,1,0,0:0:0:0:
320,192,97996,1,0,0:0:0:0:
192,192,98069,1,0,0:0:0:0:
64,192,98214,1,0,0:0:0:0:
448,192,98214,1,0,0:0:0:0:
192,192,98360,1,0,0:0:0:0:
320,192,98360,1,0,0:0:0:0:
448,192,98505,1,0,0:0:0:0:
320,192,98578,1,0,0:0:0:0:
64,192,98651,1,0,0:0:0:0:
192,192,98651,1,0,0:0:0:0:
448,192,98724,1,0,0:0:0:0:
64,192,98797,1,0,0:0:0:0:
320,192,98797,1,0,0:0:0:0:
192,192,98942,1,0,0:0:0:0:
448,192,98942,1,0,0:0:0:0:
320,192,99015,1,0,0:0:0:0:
64,192,99088,1,0,0:0:0:0:
192,192,99088,1,0,0:0:0:0:
320,192,99161,1,0,0:0:0:0:
448,192,99161,1,0,0:0:0:0:
64,192,99234,1,0,0:0:0:0:
192,192,99234,1,0,0:0:0:0:
320,192,99525,1,0,0:0:0:0:
64,192,99816,1,0,0:0:0:0:
192,192,99853,128,0,100107:0:0:0:0:
448,192,100107,1,0,0:0:0:0:
320,192,100253,1,0,0:0:0:0:
64,192,100399,128,0,100690:0:0:0:0:
448,192,100690,1,0,0:0:0:0:
192,192,100763,1,0,0:0:0:0:
448,192,100836,1,0,0:0:0:0:
192,192,100908,1,0,0:0:0:0:
320,192,100981,1,0,0:0:0:0:
64,192,101127,1,0,0:0:0:0:
320,192,101272,1,0,0:0:0:0:
448,192,101272,1,0,0:0:0:0:
192,192,101345,1,0,0:0:0:0:
320,192,101418,1,0,0:0:0:0:
448,192,101418,1,0,0:0:0:0:
64,192,101564,1,0,0:0:0:0:
192,192,101564,1,0,0:0:0:0:
64,192,101709,1,0,0:0:0:0:
192,192,101709,1,0,0:0:0:0:
320,192,101855,1,0,0:0:0:0:
448,192,101855,1,0,0:0:0:0:
192,192,101928,1,0,0:0:0:0:
64,192,102001,1,0,0:0:0:0:
448,192,102001,1,0,0:0:0:0:
320,192,102073,1,0,0:0:0:0:
64,192,102146,1,0,0:0:0:0:
192,192,102146,1,0,0:0:0:0:
448,192,102219,1,0,0:0:0:0:
320,192,102292,1,0,0:0:0:0:
192,192,102365,1,0,0:0:0:0:
320,192,102438,1,0,0:0:0:0:
448,192,102438,1,0,0:0:0:0:
64,192,102510,1,0,0:0:0:0:
192,192,102583,1,0,0:0:0:0:
320,192,102656,1,0,0:0:0:0:
64,192,102729,1,0,0:0:0:0:
192,192,102729,1,0,0:0:0:0:
448,192,102802,1,0,0:0:0:0:
320,192,102874,1,0,0:0:0:0:
192,192,102947,1,0,0:0:0:0:
64,192,103020,1,0,0:0:0:0:
320,192,103020,1,0,0:0:0:0:
448,192,103020,1,0,0:0:0:0:
192,192,103093,1,0,0:0:0:0:
64,192,103166,1,0,0:0:0:0:
320,192,103166,1,0,0:0:0:0:
448,192,103238,1,0,0:0:0:0:
192,192,103311,1,0,0:0:0:0:
320,192,103311,1,0,0:0:0:0:
64,192,103384,1,0,0:0:0:0:
192,192,103457,1,0,0:0:0:0:
320,192,103530,1,0,0:0:0:0:
64,192,103603,1,0,0:0:0:0:
192,192,103603,1,0,0:0:0:0:
448,192,103603,1,0,0:0:0:0:
320,192,103675,1,0,0:0:0:0:
448,192,103748,1,0,0:0:0:0:
64,192,103821,1,0,0:0:0:0:
192,192,103894,1,0,0:0:0:0:
320,192,103894,1,0,0:0:0:0:
448,192,103894,1,0,0:0:0:0:
64,192,103967,1,0,0:0:0:0:
192,192,104039,1,0,0:0:0:0:
448,192,104112,1,0,0:0:0:0:
64,192,104185,1,0,0:0:0:0:
192,192,104185,1,0,0:0:0:0:
320,192,104185,1,0,0:0:0:0:
448,192,104258,1,0,0:0:0:0:
320,192,104331,1,0,0:0:0:0:
192,192,104404,1,0,0:0:0:0:
64,192,104476,1,0,0:0:0:0:
320,192,104476,1,0,0:0:0:0:
448,192,104476,1,0,0:0:0:0:
192,192,104549,1,0,0:0:0:0:
448,192,104622,1,0,0:0:0:0:
320,192,104695,1,0,0:0:0:0:
64,192,104768,1,0,0:0:0:0:
192,192,104768,1,0,0:0:0:0:
320,192,104840,1,0,0:0:0:0:
64,192,104913,1,0,0:0:0:0:
448,192,104913,1,0,0:0:0:0:
192,192,104986,1,0,0:0:0:0:
320,192,105059,1,0,0:0:0:0:
448,192,105059,1,0,0:0:0:0:
192,192,105132,1,0,0:0:0:0:
64,192,105205,1,0,0:0:0:0:
320,192,105277,1,0,0:0:0:0:
64,192,105350,1,0,0:0:0:0:
192,192,105350,1,0,0:0:0:0:
448,192,105350,1,0,0:0:0:0:
320,192,105423,1,0,0:0:0:0:
64,192,105496,1,0,0:0:0:0:
192,192,105496,1,0,0:0:0:0:
448,192,105569,1,0,0:0:0:0:
192,192,105641,1,0,0:0:0:0:
320,192,105641,1,0,0:0:0:0:
64,192,105714,1,0,0:0:0:0:
320,192,105787,1,0,0:0:0:0:
448,192,105860,1,0,0:0:0:0:
64,192,105933,1,0,0:0:0:0:
192,192,105933,1,0,0:0:0:0:
448,192,106005,1,0,0:0:0:0:
64,192,106078,1,0,0:0:0:0:
192,192,106151,1,0,0:0:0:0:
64,192,106224,1,0,0:0:0:0:
320,192,106224,1,0,0:0:0:0:
448,192,106224,1,0,0:0:0:0:
192,192,106297,1,0,0:0:0:0:
320,192,106370,1,0,0:0:0:0:
448,192,106370,1,0,0:0:0:0:
64,192,106442,1,0,0:0:0:0:
192,192,106515,1,0,0:0:0:0:
448,192,106515,1,0,0:0:0:0:
320,192,106588,1,0,0:0:0:0:
192,192,106661,1,0,0:0:0:0:
320,192,106734,1,0,0:0:0:0:
64,192,106806,128,0,107098:0:0:0:0:
448,192,106806,1,0,0:0:0:0:
320,192,106952,1,0,0:0:0:0:
192,192,107098,1,0,0:0:0:0:
448,192,107098,1,0,0:0:0:0:
320,192,107243,1,0,0:0:0:0:
64,192,107389,128,0,107680:0:0:0:0:
192,192,107389,1,0,0:0:0:0:
448,192,107389,1,0,0:0:0:0:
320,192,107535,1,0,0:0:0:0:
192,192,107680,1,0,0:0:0:0:
448,192,107680,1,0,0:0:0:0:
320,192,107826,1,0,0:0:0:0:
64,192,107971,128,0,108263:0:0:0:0:
192,192,107971,1,0,0:0:0:0:
448,192,107971,1,0,0:0:0:0:
320,192,108117,1,0,0:0:0:0:
192,192,108263,1,0,0:0:0:0:
448,192,108263,1,0,0:0:0:0:
320,192,108408,1,0,0:0:0:0:
64,192,108554,1,0,0:0:0:0:
192,192,108554,1,0,0:0:0:0:
448,192,108554,128,0,108845:0:0:0:0:
320,192,108700,1,0,0:0:0:0:
64,192,108845,1,0,0:0:0:0:
192,192,108845,1,0,0:0:0:0:
320,192,108991,1,0,0:0:0:0:
64,192,109137,1,0,0:0:0:0:
192,192,109137,1,0,0:0:0:0:
448,192,109137,128,0,109428:0:0:0:0:
320,192,109282,1,0,0:0:0:0:
64,192,109428,1,0,0:0:0:0:
192,192,109428,1,0,0:0:0:0:
320,192,109573,1,0,0:0:0:0:
64,192,109719,1,0,0:0:0:0:
192,192,109719,1,0,0:0:0:0:
448,192,109719,128,0,109865:0:0:0:0:
320,192,109865,1,0,0:0:0:0:
64,192,110010,1,0,0:0:0:0:
192,192,110010,1,0,0:0:0:0:
64,192,110156,1,0,0:0:0:0:
192,192,110156,1,0,0:0:0:0:
64,192,110302,1,0,0:0:0:0:
192,192,110302,1,0,0:0:0:0:
64,192,110447,1,0,0:0:0:0:
192,192,110447,1,0,0:0:0:0:
320,192,110520,1,0,0:0:0:0:
448,192,110520,1,0,0:0:0:0:
192,192,110593,1,0,0:0:0:0:
320,192,110738,1,0,0:0:0:0:
448,192,110738,1,0,0:0:0:0:
320,192,110884,1,0,0:0:0:0:
448,192,110884,1,0,0:0:0:0:
64,192,111030,1,0,0:0:0:0:
192,192,111030,1,0,0:0:0:0:
320,192,111078,1,0,0:0:0:0:
448,192,111078,1,0,0:0:0:0:
64,192,111127,1,0,0:0:0:0:
192,192,111127,1,0,0:0:0:0:
192,192,111321,1,0,0:0:0:0:
448,192,111321,1,0,0:0:0:0:
320,192,111394,1,0,0:0:0:0:
64,192,111467,1,0,0:0:0:0:
192,192,111467,1,0,0:0:0:0:
448,192,111467,1,0,0:0:0:0:
320,192,111539,1,0,0:0:0:0:
64,192,111612,1,0,0:0:0:0:
192,192,111685,1,0,0:0:0:0:
320,192,111758,1,0,0:0:0:0:
448,192,111758,1,0,0:0:0:0:
192,192,111831,1,0,0:0:0:0:
64,192,111904,1,0,0:0:0:0:
320,192,111976,1,0,0:0:0:0:
192,192,112049,1,0,0:0:0:0:
448,192,112049,1,0,0:0:0:0:
320,192,112122,1,0,0:0:0:0:
64,192,112195,1,0,0:0:0:0:
192,192,112268,1,0,0:0:0:0:
64,192,112340,1,0,0:0:0:0:
320,192,112340,1,0,0:0:0:0:
448,192,112340,1,0,0:0:0:0:
192,192,112413,1,0,0:0:0:0:
320,192,112486,1,0,0:0:0:0:
448,192,112486,1,0,0:0:0:0:
64,192,112559,1,0,0:0:0:0:
192,192,112632,1,0,0:0:0:0:
448,192,112632,1,0,0:0:0:0:
320,192,112705,1,0,0:0:0:0:
64,192,112777,1,0,0:0:0:0:
192,192,112850,1,0,0:0:0:0:
64,192,112923,1,0,0:0:0:0:
320,192,112923,1,0,0:0:0:0:
448,192,112923,1,0,0:0:0:0:
192,192,112996,1,0,0:0:0:0:
320,192,113069,1,0,0:0:0:0:
448,192,113141,1,0,0:0:0:0:
64,192,113214,1,0,0:0:0:0:
192,192,113214,1,0,0:0:0:0:
320,192,113214,1,0,0:0:0:0:
448,192,113287,1,0,0:0:0:0:
192,192,113360,1,0,0:0:0:0:
64,192,113433,1,0,0:0:0:0:
192,192,113505,1,0,0:0:0:0:
320,192,113505,1,0,0:0:0:0:
448,192,113505,1,0,0:0:0:0:
64,192,113578,1,0,0:0:0:0:
320,192,113651,1,0,0:0:0:0:
448,192,113724,1,0,0:0:0:0:
64,192,113797,1,0,0:0:0:0:
192,192,113797,1,0,0:0:0:0:
320,192,113797,1,0,0:0:0:0:
448,192,113870,1,0,0:0:0:0:
192,192,113942,1,0,0:0:0:0:
320,192,114015,1,0,0:0:0:0:
64,192,114088,1,0,0:0:0:0:
448,192,114088,1,0,0:0:0:0:
192,192,114161,1,0,0:0:0:0:
320,192,114234,1,0,0:0:0:0:
448,192,114234,1,0,0:0:0:0:
64,192,114306,1,0,0:0:0:0:
192,192,114379,1,0,0:0:0:0:
320,192,114379,1,0,0:0:0:0:
64,192,114525,1,0,0:0:0:0:
64,192,114816,1,0,0:0:0:0:
448,192,114816,128,0,115544:0:0:0:0:
64,192,115107,1,0,0:0:0:0:
64,192,115399,1,0,0:0:0:0:
64,192,115690,1,0,0:0:0:0:
320,192,115836,1,0,0:0:0:0:
448,192,115836,1,0,0:0:0:0:
320,192,115981,1,0,0:0:0:0:
448,192,115981,1,0,0:0:0:0:
64,192,116127,1,0,0:0:0:0:
192,192,116127,1,0,0:0:0:0:
320,192,116272,1,0,0:0:0:0:
64,192,116418,1,0,0:0:0:0:
448,192,116418,1,0,0:0:0:0:
192,192,116491,1,0,0:0:0:0:
320,192,116564,1,0,0:0:0:0:
192,192,116637,1,0,0:0:0:0:
448,192,116709,1,0,0:0:0:0:
64,192,116782,1,0,0:0:0:0:
192,192,116855,1,0,0:0:0:0:
448,192,116855,1,0,0:0:0:0:
320,192,116928,1,0,0:0:0:0:
64,192,117001,1,0,0:0:0:0:
320,192,117146,1,0,0:0:0:0:
448,192,117146,1,0,0:0:0:0:
64,192,117219,1,0,0:0:0:0:
320,192,117292,1,0,0:0:0:0:
448,192,117292,1,0,0:0:0:0:
192,192,117365,1,0,0:0:0:0:
64,192,117438,1,0,0:0:0:0:
320,192,117583,1,0,0:0:0:0:
448,192,117583,1,0,0:0:0:0:
64,192,117729,1,0,0:0:0:0:
192,192,117729,1,0,0:0:0:0:
448,192,117802,1,0,0:0:0:0:
64,192,117874,1,0,0:0:0:0:
320,192,117874,1,0,0:0:0:0:
192,192,117947,1,0,0:0:0:0:
320,192,118020,1,0,0:0:0:0:
448,192,118020,1,0,0:0:0:0:
64,192,118093,1,0,0:0:0:0:
192,192,118093,1,0,0:0:0:0:
320,192,118166,1,0,0:0:0:0:
448,192,118166,1,0,0:0:0:0:
192,192,118311,1,0,0:0:0:0:
320,192,118457,1,0,0:0:0:0:
448,192,118457,128,0,118748:0:0:0:0:
64,192,118748,1,0,0:0:0:0:
320,192,118748,1,0,0:0:0:0:
192,192,118894,1,0,0:0:0:0:
448,192,118894,1,0,0:0:0:0:
320,192,118967,1,0,0:0:0:0:
64,192,119039,1,0,0:0:0:0:
320,192,119112,1,0,0:0:0:0:
64,192,119185,1,0,0:0:0:0:
192,192,119185,1,0,0:0:0:0:
448,192,119258,1,0,0:0:0:0:
320,192,119331,1,0,0:0:0:0:
64,192,119476,1,0,0:0:0:0:
448,192,119476,1,0,0:0:0:0:
192,192,119622,1,0,0:0:0:0:
320,192,119622,1,0,0:0:0:0:
448,192,119695,1,0,0:0:0:0:
64,192,119768,1,0,0:0:0:0:
448,192,119840,1,0,0:0:0:0:
64,192,119913,1,0,0:0:0:0:
320,192,119913,1,0,0:0:0:0:
192,192,120059,1,0,0:0:0:0:
64,192,120205,1,0,0:0:0:0:
320,192,120205,1,0,0:0:0:0:
192,192,120277,1,0,0:0:0:0:
64,192,120350,1,0,0:0:0:0:
448,192,120350,1,0,0:0:0:0:
192,192,120423,1,0,0:0:0:0:
320,192,120423,1,0,0:0:0:0:
64,192,120496,1,0,0:0:0:0:
448,192,120496,128,0,120787:0:0:0:0:
192,192,120787,1,0,0:0:0:0:
320,192,120787,1,0,0:0:0:0:
64,192,120933,1,0,0:0:0:0:
192,192,121078,1,0,0:0:0:0:
448,192,121078,1,0,0:0:0:0:
320,192,121151,1,0,0:0:0:0:
64,192,121224,1,0,0:0:0:0:
320,192,121297,1,0,0:0:0:0:
192,192,121370,1,0,0:0:0:0:
448,192,121442,1,0,0:0:0:0:
64,192,121515,1,0,0:0:0:0:
192,192,121515,1,0,0:0:0:0:
320,192,121588,1,0,0:0:0:0:
448,192,121661,1,0,0:0:0:0:
64,192,121806,1,0,0:0:0:0:
192,192,121806,1,0,0:0:0:0:
320,192,121879,1,0,0:0:0:0:
64,192,121952,1,0,0:0:0:0:
192,192,121952,1,0,0:0:0:0:
448,192,122025,1,0,0:0:0:0:
320,192,122098,1,0,0:0:0:0:
64,192,122243,1,0,0:0:0:0:
448,192,122243,1,0,0:0:0:0:
192,192,122389,1,0,0:0:0:0:
320,192,122389,1,0,0:0:0:0:
64,192,122535,1,0,0:0:0:0:
448,192,122535,1,0,0:0:0:0:
320,192,122607,1,0,0:0:0:0:
64,192,122680,1,0,0:0:0:0:
192,192,122680,1,0,0:0:0:0:
320,192,122753,1,0,0:0:0:0:
448,192,122753,1,0,0:0:0:0:
64,192,122826,1,0,0:0:0:0:
192,192,122826,128,0,123117:0:0:0:0:
320,192,123117,1,0,0:0:0:0:
448,192,123117,1,0,0:0:0:0:
64,192,123263,1,0,0:0:0:0:
448,192,123263,1,0,0:0:0:0:
64,192,123408,1,0,0:0:0:0:
192,192,123408,1,0,0:0:0:0:
320,192,123554,1,0,0:0:0:0:
448,192,123554,1,0,0:0:0:0:
192,192,123700,1,0,0:0:0:0:
320,192,123772,1,0,0:0:0:0:
64,192,123845,1,0,0:0:0:0:
192,192,123845,1,0,0:0:0:0:
448,192,123918,1,0,0:0:0:0:
64,192,123991,1,0,0:0:0:0:
320,192,123991,1,0,0:0:0:0:
192,192,124137,1,0,0:0:0:0:
448,192,124137,1,0,0:0:0:0:
320,192,124282,1,0,0:0:0:0:
448,192,124282,1,0,0:0:0:0:
64,192,124355,1,0,0:0:0:0:
320,192,124428,1,0,0:0:0:0:
64,192,124501,1,0,0:0:0:0:
448,192,124573,1,0,0:0:0:0:
320,192,124646,1,0,0:0:0:0:
64,192,124719,1,0,0:0:0:0:
192,192,124719,1,0,0:0:0:0:
448,192,124865,1,0,0:0:0:0:
320,192,124938,1,0,0:0:0:0:
64,192,125010,1,0,0:0:0:0:
192,192,125010,1,0,0:0:0:0:
320,192,125083,1,0,0:0:0:0:
192,192,125156,1,0,0:0:0:0:
320,192,125229,1,0,0:0:0:0:
192,192,125302,1,0,0:0:0:0:
320,192,125374,1,0,0:0:0:0:
64,192,125447,1,0,0:0:0:0:
192,192,125447,1,0,0:0:0:0:
448,192,125447,1,0,0:0:0:0:
320,192,125520,1,0,0:0:0:0:
64,192,125593,1,0,0:0:0:0:
192,192,125593,1,0,0:0:0:0:
448,192,125666,1,0,0:0:0:0:
64,192,125738,1,0,0:0:0:0:
192,192,125738,1,0,0:0:0:0:
320,192,125738,1,0,0:0:0:0:
448,192,125811,1,0,0:0:0:0:
64,192,125884,1,0,0:0:0:0:
320,192,125884,1,0,0:0:0:0:
192,192,125957,1,0,0:0:0:0:
64,192,126030,1,0,0:0:0:0:
320,192,126030,1,0,0:0:0:0:
448,192,126030,1,0,0:0:0:0:
192,192,126103,1,0,0:0:0:0:
320,192,126175,1,0,0:0:0:0:
448,192,126175,1,0,0:0:0:0:
64,192,126248,1,0,0:0:0:0:
192,192,126321,1,0,0:0:0:0:
320,192,126321,1,0,0:0:0:0:
448,192,126321,1,0,0:0:0:0:
64,192,126394,1,0,0:0:0:0:
192,192,126467,1,0,0:0:0:0:
448,192,126467,1,0,0:0:0:0:
320,192,126539,1,0,0:0:0:0:
64,192,126612,1,0,0:0:0:0:
192,192,126612,1,0,0:0:0:0:
448,192,126612,1,0,0:0:0:0:
320,192,126685,1,0,0:0:0:0:
64,192,126758,1,0,0:0:0:0:
192,192,126758,1,0,0:0:0:0:
320,192,126831,1,0,0:0:0:0:
64,192,126904,1,0,0:0:0:0:
192,192,126904,1,0,0:0:0:0:
448,192,126904,1,0,0:0:0:0:
320,192,126976,1,0,0:0:0:0:
64,192,127049,1,0,0:0:0:0:
448,192,127049,1,0,0:0:0:0:
192,192,127122,1,0,0:0:0:0:
64,192,127195,1,0,0:0:0:0:
320,192,127195,1,0,0:0:0:0:
448,192,127195,1,0,0:0:0:0:
192,192,127268,1,0,0:0:0:0:
320,192,127340,1,0,0:0:0:0:
448,192,127340,1,0,0:0:0:0:
192,192,127413,1,0,0:0:0:0:
64,192,127486,1,0,0:0:0:0:
320,192,127486,1,0,0:0:0:0:
448,192,127486,1,0,0:0:0:0:
192,192,127559,1,0,0:0:0:0:
64,192,127632,1,0,0:0:0:0:
448,192,127632,1,0,0:0:0:0:
320,192,127705,1,0,0:0:0:0:
64,192,127777,1,0,0:0:0:0:
192,192,127777,1,0,0:0:0:0:
448,192,127777,1,0,0:0:0:0:
320,192,127850,1,0,0:0:0:0:
192,192,127923,1,0,0:0:0:0:
448,192,127923,1,0,0:0:0:0:
64,192,127996,1,0,0:0:0:0:
192,192,128069,1,0,0:0:0:0:
320,192,128069,1,0,0:0:0:0:
448,192,128069,1,0,0:0:0:0:
64,192,128141,1,0,0:0:0:0:
192,192,128214,1,0,0:0:0:0:
320,192,128214,1,0,0:0:0:0:
448,192,128287,1,0,0:0:0:0:
64,192,128360,1,0,0:0:0:0:
192,192,128360,1,0,0:0:0:0:
320,192,128360,1,0,0:0:0:0:
448,192,128433,1,0,0:0:0:0:
192,192,128505,1,0,0:0:0:0:
320,192,128505,1,0,0:0:0:0:
64,192,128578,1,0,0:0:0:0:
192,192,128651,1,0,0:0:0:0:
320,192,128651,1,0,0:0:0:0:
448,192,128651,1,0,0:0:0:0:
64,192,128724,1,0,0:0:0:0:
192,192,128797,1,0,0:0:0:0:
448,192,128797,1,0,0:0:0:0:
320,192,128870,1,0,0:0:0:0:
64,192,128942,1,0,0:0:0:0:
192,192,128942,1,0,0:0:0:0:
448,192,128942,1,0,0:0:0:0:
320,192,129015,1,0,0:0:0:0:
64,192,129088,1,0,0:0:0:0:
192,192,129088,1,0,0:0:0:0:
320,192,129161,1,0,0:0:0:0:
64,192,129234,1,0,0:0:0:0:
192,192,129234,1,0,0:0:0:0:
448,192,129234,1,0,0:0:0:0:
320,192,129306,1,0,0:0:0:0:
64,192,129379,1,0,0:0:0:0:
448,192,129379,1,0,0:0:0:0:
192,192,129452,1,0,0:0:0:0:
64,192,129525,1,0,0:0:0:0:
320,192,129525,1,0,0:0:0:0:
448,192,129525,1,0,0:0:0:0:
192,192,129598,1,0,0:0:0:0:
320,192,129671,1,0,0:0:0:0:
448,192,129671,1,0,0:0:0:0:
192,192,129743,1,0,0:0:0:0:
64,192,129816,1,0,0:0:0:0:
320,192,129816,1,0,0:0:0:0:
448,192,129816,1,0,0:0:0:0:
192,192,129889,1,0,0:0:0:0:
64,192,129962,1,0,0:0:0:0:
448,192,129962,1,0,0:0:0:0:
320,192,130035,1,0,0:0:0:0:
64,192,130107,1,0,0:0:0:0:
192,192,130107,1,0,0:0:0:0:
448,192,130107,1,0,0:0:0:0:
320,192,130180,1,0,0:0:0:0:
64,192,130253,1,0,0:0:0:0:
192,192,130253,1,0,0:0:0:0:
448,192,130326,1,0,0:0:0:0:
64,192,130399,1,0,0:0:0:0:
192,192,130399,1,0,0:0:0:0:
320,192,130399,1,0,0:0:0:0:
448,192,130471,1,0,0:0:0:0:
64,192,130544,1,0,0:0:0:0:
320,192,130544,1,0,0:0:0:0:
192,192,130617,1,0,0:0:0:0:
64,192,130690,1,0,0:0:0:0:
320,192,130690,1,0,0:0:0:0:
448,192,130690,1,0,0:0:0:0:
192,192,130763,1,0,0:0:0:0:
320,192,130836,1,0,0:0:0:0:
448,192,130836,1,0,0:0:0:0:
64,192,130908,1,0,0:0:0:0:
192,192,130981,1,0,0:0:0:0:
320,192,130981,1,0,0:0:0:0:
448,192,130981,1,0,0:0:0:0:
64,192,131054,1,0,0:0:0:0:
192,192,131127,1,0,0:0:0:0:
448,192,131127,1,0,0:0:0:0:
320,192,131200,1,0,0:0:0:0:
64,192,131272,1,0,0:0:0:0:
192,192,131272,1,0,0:0:0:0:
448,192,131272,1,0,0:0:0:0:
320,192,131345,1,0,0:0:0:0:
64,192,131418,1,0,0:0:0:0:
192,192,131418,1,0,0:0:0:0:
320,192,131491,1,0,0:0:0:0:
64,192,131564,1,0,0:0:0:0:
192,192,131564,1,0,0:0:0:0:
448,192,131564,1,0,0:0:0:0:
320,192,131637,1,0,0:0:0:0:
64,192,131709,1,0,0:0:0:0:
448,192,131709,1,0,0:0:0:0:
192,192,131782,1,0,0:0:0:0:
64,192,131855,1,0,0:0:0:0:
320,192,131855,1,0,0:0:0:0:
448,192,131855,1,0,0:0:0:0:
192,192,131928,1,0,0:0:0:0:
320,192,132001,1,0,0:0:0:0:
448,192,132001,1,0,0:0:0:0:
192,192,132073,1,0,0:0:0:0:
64,192,132146,1,0,0:0:0:0:
320,192,132146,1,0,0:0:0:0:
448,192,132146,1,0,0:0:0:0:
192,192,132219,1,0,0:0:0:0:
64,192,132292,1,0,0:0:0:0:
320,192,132292,1,0,0:0:0:0:
448,192,132365,1,0,0:0:0:0:
64,192,132438,1,0,0:0:0:0:
192,192,132438,1,0,0:0:0:0:
320,192,132438,1,0,0:0:0:0:
448,192,132510,1,0,0:0:0:0:
64,192,132583,1,0,0:0:0:0:
320,192,132583,1,0,0:0:0:0:
192,192,132656,1,0,0:0:0:0:
64,192,132729,1,0,0:0:0:0:
320,192,132729,1,0,0:0:0:0:
448,192,132729,1,0,0:0:0:0:
192,192,132802,1,0,0:0:0:0:
320,192,132874,1,0,0:0:0:0:
448,192,132874,1,0,0:0:0:0:
64,192,132947,1,0,0:0:0:0:
192,192,133020,1,0,0:0:0:0:
320,192,133020,1,0,0:0:0:0:
448,192,133020,1,0,0:0:0:0:
64,192,133093,1,0,0:0:0:0:
192,192,133166,1,0,0:0:0:0:
448,192,133166,1,0,0:0:0:0:
320,192,133238,1,0,0:0:0:0:
64,192,133311,1,0,0:0:0:0:
192,192,133311,1,0,0:0:0:0:
448,192,133311,1,0,0:0:0:0:
320,192,133384,1,0,0:0:0:0:
64,192,133457,1,0,0:0:0:0:
192,192,133457,1,0,0:0:0:0:
448,192,133457,1,0,0:0:0:0:
320,192,133530,1,0,0:0:0:0:
64,192,133603,1,0,0:0:0:0:
192,192,133603,1,0,0:0:0:0:
448,192,133603,1,0,0:0:0:0:
320,192,133675,1,0,0:0:0:0:
64,192,133748,1,0,0:0:0:0:
448,192,133748,1,0,0:0:0:0:
192,192,133821,1,0,0:0:0:0:
64,192,133894,1,0,0:0:0:0:
320,192,133894,1,0,0:0:0:0:
448,192,133894,1,0,0:0:0:0:
192,192,133967,1,0,0:0:0:0:
320,192,134039,1,0,0:0:0:0:
448,192,134039,1,0,0:0:0:0:
64,192,134112,128,0,134331:0:0:0:0:
192,192,134112,1,0,0:0:0:0:
320,192,134331,1,0,0:0:0:0:
448,192,134331,1,0,0:0:0:0:
64,192,134476,1,0,0:0:0:0:
192,192,134476,1,0,0:0:0:0:
320,192,134622,1,0,0:0:0:0:
448,192,134622,1,0,0:0:0:0:
64,192,134695,1,0,0:0:0:0:
192,192,134695,1,0,0:0:0:0:
320,192,134768,1,0,0:0:0:0:
448,192,134768,1,0,0:0:0:0:
192,192,134840,1,0,0:0:0:0:
320,192,134913,1,0,0:0:0:0:
448,192,134913,1,0,0:0:0:0:
64,192,134986,1,0,0:0:0:0:
192,192,135059,1,0,0:0:0:0:
320,192,135059,1,0,0:0:0:0:
448,192,135059,1,0,0:0:0:0:
64,192,135132,1,0,0:0:0:0:
192,192,135205,1,0,0:0:0:0:
448,192,135205,1,0,0:0:0:0:
320,192,135277,1,0,0:0:0:0:
64,192,135350,1,0,0:0:0:0:
192,192,135350,1,0,0:0:0:0:
448,192,135350,1,0,0:0:0:0:
320,192,135423,1,0,0:0:0:0:
64,192,135496,1,0,0:0:0:0:
192,192,135496,1,0,0:0:0:0:
448,192,135569,1,0,0:0:0:0:
64,192,135641,1,0,0:0:0:0:
192,192,135641,1,0,0:0:0:0:
320,192,135641,1,0,0:0:0:0:
448,192,135714,1,0,0:0:0:0:
64,192,135787,1,0,0:0:0:0:
320,192,135787,1,0,0:0:0:0:
192,192,135860,1,0,0:0:0:0:
64,192,135933,1,0,0:0:0:0:
320,192,135933,1,0,0:0:0:0:
448,192,135933,1,0,0:0:0:0:
192,192,136005,1,0,0:0:0:0:
64,192,136078,1,0,0:0:0:0:
448,192,136078,1,0,0:0:0:0:
320,192,136151,1,0,0:0:0:0:
64,192,136224,1,0,0:0:0:0:
192,192,136224,1,0,0:0:0:0:
448,192,136224,1,0,0:0:0:0:
320,192,136297,1,0,0:0:0:0:
192,192,136370,1,0,0:0:0:0:
448,192,136370,1,0,0:0:0:0:
64,192,136442,1,0,0:0:0:0:
192,192,136515,1,0,0:0:0:0:
320,192,136515,1,0,0:0:0:0:
448,192,136515,1,0,0:0:0:0:
64,192,136588,1,0,0:0:0:0:
192,192,136661,1,0,0:0:0:0:
320,192,136661,1,0,0:0:0:0:
448,192,136734,1,0,0:0:0:0:
64,192,136806,1,0,0:0:0:0:
192,192,136806,1,0,0:0:0:0:
320,192,136806,1,0,0:0:0:0:
448,192,136879,1,0,0:0:0:0:
64,192,136952,1,0,0:0:0:0:
320,192,136952,1,0,0:0:0:0:
192,192,137025,1,0,0:0:0:0:
64,192,137098,1,0,0:0:0:0:
320,192,137098,1,0,0:0:0:0:
448,192,137098,1,0,0:0:0:0:
192,192,137171,1,0,0:0:0:0:
320,192,137243,1,0,0:0:0:0:
448,192,137243,1,0,0:0:0:0:
192,192,137316,1,0,0:0:0:0:
64,192,137389,1,0,0:0:0:0:
320,192,137389,1,0,0:0:0:0:
448,192,137389,1,0,0:0:0:0:
192,192,137462,1,0,0:0:0:0:
64,192,137535,1,0,0:0:0:0:
448,192,137535,1,0,0:0:0:0:
320,192,137607,1,0,0:0:0:0:
64,192,137680,1,0,0:0:0:0:
192,192,137680,1,0,0:0:0:0:
448,192,137680,1,0,0:0:0:0:
320,192,137753,1,0,0:0:0:0:
64,192,137826,1,0,0:0:0:0:
192,192,137826,1,0,0:0:0:0:
320,192,137899,1,0,0:0:0:0:
64,192,137971,1,0,0:0:0:0:
192,192,137971,1,0,0:0:0:0:
448,192,137971,1,0,0:0:0:0:
320,192,138044,1,0,0:0:0:0:
64,192,138117,1,0,0:0:0:0:
448,192,138117,1,0,0:0:0:0:
192,192,138190,1,0,0:0:0:0:
64,192,138263,1,0,0:0:0:0:
320,192,138263,1,0,0:0:0:0:
448,192,138263,1,0,0:0:0:0:
192,192,138336,1,0,0:0:0:0:
320,192,138408,1,0,0:0:0:0:
448,192,138408,1,0,0:0:0:0:
64,192,138481,1,0,0:0:0:0:
192,192,138554,1,0,0:0:0:0:
320,192,138554,1,0,0:0:0:0:
448,192,138554,1,0,0:0:0:0:
64,192,138627,1,0,0:0:0:0:
192,192,138700,1,0,0:0:0:0:
448,192,138700,1,0,0:0:0:0:
320,192,138772,1,0,0:0:0:0:
64,192,138845,1,0,0:0:0:0:
192,192,138845,1,0,0:0:0:0:
448,192,138845,1,0,0:0:0:0:
320,192,138918,1,0,0:0:0:0:
64,192,138991,1,0,0:0:0:0:
192,192,138991,1,0,0:0:0:0:
448,192,139064,1,0,0:0:0:0:
64,192,139137,1,0,0:0:0:0:
192,192,139137,1,0,0:0:0:0:
320,192,139137,1,0,0:0:0:0:
448,192,139209,1,0,0:0:0:0:
64,192,139282,1,0,0:0:0:0:
320,192,139282,1,0,0:0:0:0:
192,192,139355,1,0,0:0:0:0:
64,192,139428,1,0,0:0:0:0:
320,192,139428,1,0,0:0:0:0:
448,192,139428,1,0,0:0:0:0:
192,192,139501,1,0,0:0:0:0:
320,192,139573,1,0,0:0:0:0:
448,192,139573,1,0,0:0:0:0:
192,192,139646,1,0,0:0:0:0:
64,192,139719,1,0,0:0:0:0:
320,192,139719,1,0,0:0:0:0:
448,192,139719,1,0,0:0:0:0:
192,192,139792,1,0,0:0:0:0:
64,192,139865,1,0,0:0:0:0:
448,192,139865,1,0,0:0:0:0:
320,192,139938,1,0,0:0:0:0:
64,192,140010,1,0,0:0:0:0:
192,192,140010,1,0,0:0:0:0:
448,192,140010,1,0,0:0:0:0:
320,192,140083,1,0,0:0:0:0:
64,192,140156,1,0,0:0:0:0:
192,192,140156,1,0,0:0:0:0:
320,192,140229,1,0,0:0:0:0:
64,192,140302,1,0,0:0:0:0:
192,192,140302,1,0,0:0:0:0:
448,192,140302,1,0,0:0:0:0:
320,192,140374,1,0,0:0:0:0:
64,192,140447,1,0,0:0:0:0:
448,192,140447,1,0,0:0:0:0:
192,192,140520,1,0,0:0:0:0:
64,192,140593,1,0,0:0:0:0:
320,192,140593,1,0,0:0:0:0:
448,192,140593,1,0,0:0:0:0:
192,192,140666,1,0,0:0:0:0:
320,192,140738,1,0,0:0:0:0:
448,192,140738,1,0,0:0:0:0:
64,192,140811,1,0,0:0:0:0:
192,192,140884,1,0,0:0:0:0:
320,192,140884,1,0,0:0:0:0:
448,192,140884,1,0,0:0:0:0:
64,192,140957,1,0,0:0:0:0:
192,192,141030,1,0,0:0:0:0:
320,192,141030,1,0,0:0:0:0:
448,192,141103,1,0,0:0:0:0:
64,192,141175,1,0,0:0:0:0:
192,192,141175,1,0,0:0:0:0:
320,192,141175,1,0,0:0:0:0:
448,192,141248,1,0,0:0:0:0:
64,192,141321,1,0,0:0:0:0:
192,192,141321,1,0,0:0:0:0:
320,192,141394,1,0,0:0:0:0:
64,192,141467,1,0,0:0:0:0:
192,192,141467,1,0,0:0:0:0:
448,192,141467,1,0,0:0:0:0:
320,192,141539,1,0,0:0:0:0:
64,192,141612,1,0,0:0:0:0:
448,192,141612,1,0,0:0:0:0:
192,192,141685,1,0,0:0:0:0:
64,192,141758,1,0,0:0:0:0:
320,192,141758,1,0,0:0:0:0:
448,192,141758,1,0,0:0:0:0:
192,192,141831,1,0,0:0:0:0:
64,192,141904,1,0,0:0:0:0:
448,192,141904,1,0,0:0:0:0:
320,192,141976,1,0,0:0:0:0:
64,192,142049,1,0,0:0:0:0:
192,192,142049,1,0,0:0:0:0:
448,192,142049,1,0,0:0:0:0:
320,192,142122,1,0,0:0:0:0:
64,192,142195,1,0,0:0:0:0:
192,192,142195,1,0,0:0:0:0:
448,192,142268,1,0,0:0:0:0:
64,192,142340,1,0,0:0:0:0:
192,192,142340,1,0,0:0:0:0:
320,192,142340,1,0,0:0:0:0:
448,192,142413,1,0,0:0:0:0:
192,192,142486,1,0,0:0:0:0:
320,192,142486,1,0,0:0:0:0:
64,192,142559,1,0,0:0:0:0:
192,192,142632,1,0,0:0:0:0:
320,192,142632,1,0,0:0:0:0:
448,192,142632,1,0,0:0:0:0:
64,192,142705,1,0,0:0:0:0:
320,192,142777,1,0,0:0:0:0:
448,192,142777,1,0,0:0:0:0:
192,192,142923,1,0,0:0:0:0:
320,192,143069,1,0,0:0:0:0:
448,192,143214,1,0,0:0:0:0:
320,192,143360,1,0,0:0:0:0:
64,192,143505,1,0,0:0:0:0:
192,192,143505,1,0,0:0:0:0:
320,192,143651,1,0,0:0:0:0:
448,192,143651,1,0,0:0:0:0:
192,192,143797,1,0,0:0:0:0:
320,192,143942,1,0,0:0:0:0:
64,192,144088,1,0,0:0:0:0:
448,192,144088,1,0,0:0:0:0:
192,192,144234,1,0,0:0:0:0:
64,192,144379,1,0,0:0:0:0:
320,192,144379,1,0,0:0:0:0:
448,192,144379,1,0,0:0:0:0:
192,192,144452,1,0,0:0:0:0:
320,192,144525,1,0,0:0:0:0:
192,192,144598,1,0,0:0:0:0:
320,192,144671,1,0,0:0:0:0:
448,192,144671,1,0,0:0:0:0:
64,192,144743,1,0,0:0:0:0:
192,192,144816,1,0,0:0:0:0:
448,192,144889,1,0,0:0:0:0:
64,192,144962,1,0,0:0:0:0:
320,192,144962,1,0,0:0:0:0:
192,192,145035,1,0,0:0:0:0:
320,192,145107,1,0,0:0:0:0:
448,192,145180,1,0,0:0:0:0:
64,192,145253,1,0,0:0:0:0:
192,192,145253,1,0,0:0:0:0:
320,192,145326,1,0,0:0:0:0:
192,192,145399,1,0,0:0:0:0:
320,192,145471,1,0,0:0:0:0:
64,192,145544,1,0,0:0:0:0:
448,192,145544,1,0,0:0:0:0:
192,192,145617,1,0,0:0:0:0:
320,192,145690,1,0,0:0:0:0:
448,192,145690,1,0,0:0:0:0:
192,192,145763,1,0,0:0:0:0:
64,192,145836,1,0,0:0:0:0:
448,192,145836,1,0,0:0:0:0:
320,192,145908,1,0,0:0:0:0:
192,192,145981,1,0,0:0:0:0:
320,192,146054,1,0,0:0:0:0:
64,192,146127,1,0,0:0:0:0:
192,192,146127,1,0,0:0:0:0:
448,192,146200,1,0,0:0:0:0:
320,192,146272,1,0,0:0:0:0:
192,192,146345,1,0,0:0:0:0:
64,192,146418,1,0,0:0:0:0:
320,192,146418,1,0,0:0:0:0:
192,192,146491,1,0,0:0:0:0:
320,192,146564,1,0,0:0:0:0:
448,192,146564,1,0,0:0:0:0:
64,192,146637,1,0,0:0:0:0:
192,192,146637,1,0,0:0:0:0:
320,192,146709,1,0,0:0:0:0:
448,192,146709,1,0,0:0:0:0:
64,192,146782,1,0,0:0:0:0:
192,192,146855,1,0,0:0:0:0:
448,192,146928,1,0,0:0:0:0:
64,192,147001,1,0,0:0:0:0:
320,192,147001,1,0,0:0:0:0:
192,192,147073,1,0,0:0:0:0:
320,192,147146,1,0,0:0:0:0:
64,192,147219,1,0,0:0:0:0:
192,192,147292,1,0,0:0:0:0:
448,192,147292,1,0,0:0:0:0:
320,192,147365,1,0,0:0:0:0:
64,192,147438,1,0,0:0:0:0:
192,192,147510,1,0,0:0:0:0:
64,192,147583,1,0,0:0:0:0:
320,192,147583,1,0,0:0:0:0:
448,192,147583,1,0,0:0:0:0:
192,192,147656,1,0,0:0:0:0:
448,192,147729,1,0,0:0:0:0:
192,192,147802,1,0,0:0:0:0:
64,192,147874,1,0,0:0:0:0:
320,192,147874,1,0,0:0:0:0:
192,192,147947,1,0,0:0:0:0:
320,192,148020,1,0,0:0:0:0:
448,192,148020,1,0,0:0:0:0:
64,192,148093,1,0,0:0:0:0:
192,192,148166,1,0,0:0:0:0:
448,192,148166,1,0,0:0:0:0:
320,192,148238,1,0,0:0:0:0:
64,192,148311,1,0,0:0:0:0:
320,192,148384,1,0,0:0:0:0:
64,192,148457,1,0,0:0:0:0:
192,192,148457,1,0,0:0:0:0:
448,192,148530,1,0,0:0:0:0:
320,192,148603,1,0,0:0:0:0:
64,192,148675,1,0,0:0:0:0:
192,192,148748,1,0,0:0:0:0:
448,192,148748,1,0,0:0:0:0:
320,192,148821,1,0,0:0:0:0:
192,192,148894,1,0,0:0:0:0:
320,192,148967,1,0,0:0:0:0:
64,192,149039,1,0,0:0:0:0:
192,192,149039,1,0,0:0:0:0:
448,192,149039,1,0,0:0:0:0:
320,192,149112,1,0,0:0:0:0:
448,192,149185,1,0,0:0:0:0:
64,192,149258,1,0,0:0:0:0:
192,192,149331,1,0,0:0:0:0:
448,192,149331,1,0,0:0:0:0:
320,192,149379,1,0,0:0:0:0:
64,192,149428,1,0,0:0:0:0:
192,192,149476,1,0,0:0:0:0:
448,192,149549,1,0,0:0:0:0:
64,192,149622,1,0,0:0:0:0:
320,192,149622,1,0,0:0:0:0:
192,192,149695,1,0,0:0:0:0:
320,192,149768,1,0,0:0:0:0:
448,192,149768,1,0,0:0:0:0:
64,192,149840,1,0,0:0:0:0:
192,192,149840,1,0,0:0:0:0:
320,192,149913,1,0,0:0:0:0:
448,192,149913,1,0,0:0:0:0:
192,192,149986,1,0,0:0:0:0:
64,192,150059,1,0,0:0:0:0:
320,192,150132,1,0,0:0:0:0:
192,192,150205,1,0,0:0:0:0:
448,192,150205,1,0,0:0:0:0:
320,192,150277,1,0,0:0:0:0:
64,192,150350,1,0,0:0:0:0:
192,192,150350,1,0,0:0:0:0:
448,192,150423,1,0,0:0:0:0:
64,192,150496,1,0,0:0:0:0:
320,192,150496,1,0,0:0:0:0:
192,192,150569,1,0,0:0:0:0:
448,192,150641,1,0,0:0:0:0:
192,192,150714,1,0,0:0:0:0:
64,192,150787,1,0,0:0:0:0:
448,192,150787,1,0,0:0:0:0:
320,192,150860,1,0,0:0:0:0:
64,192,150933,1,0,0:0:0:0:
192,192,151005,1,0,0:0:0:0:
320,192,151078,1,0,0:0:0:0:
448,192,151078,1,0,0:0:0:0:
64,192,151151,1,0,0:0:0:0:
192,192,151151,1,0,0:0:0:0:
320,192,151224,1,0,0:0:0:0:
448,192,151224,1,0,0:0:0:0:
64,192,151297,1,0,0:0:0:0:
192,192,151297,1,0,0:0:0:0:
320,192,151370,1,0,0:0:0:0:
448,192,151370,1,0,0:0:0:0:
64,192,151442,1,0,0:0:0:0:
192,192,151515,1,0,0:0:0:0:
448,192,151515,1,0,0:0:0:0:
320,192,151588,1,0,0:0:0:0:
64,192,151661,1,0,0:0:0:0:
448,192,151661,1,0,0:0:0:0:
192,192,151734,1,0,0:0:0:0:
320,192,151806,1,0,0:0:0:0:
192,192,151879,1,0,0:0:0:0:
320,192,151952,1,0,0:0:0:0:
448,192,151952,1,0,0:0:0:0:
192,192,152025,1,0,0:0:0:0:
320,192,152098,1,0,0:0:0:0:
448,192,152098,1,0,0:0:0:0:
64,192,152171,1,0,0:0:0:0:
192,192,152243,1,0,0:0:0:0:
320,192,152243,1,0,0:0:0:0:
448,192,152243,1,0,0:0:0:0:
64,192,152316,1,0,0:0:0:0:
192,192,152389,1,0,0:0:0:0:
320,192,152462,1,0,0:0:0:0:
64,192,152535,1,0,0:0:0:0:
192,192,152535,1,0,0:0:0:0:
448,192,152535,1,0,0:0:0:0:
320,192,152607,1,0,0:0:0:0:
64,192,152680,1,0,0:0:0:0:
192,192,152680,1,0,0:0:0:0:
448,192,152680,1,0,0:0:0:0:
320,192,152753,1,0,0:0:0:0:
64,192,152826,1,0,0:0:0:0:
192,192,152826,1,0,0:0:0:0:
448,192,152826,1,0,0:0:0:0:
320,192,152899,1,0,0:0:0:0:
192,192,152971,1,0,0:0:0:0:
64,192,153044,1,0,0:0:0:0:
448,192,153044,1,0,0:0:0:0:
192,192,153117,1,0,0:0:0:0:
320,192,153117,1,0,0:0:0:0:
448,192,153190,1,0,0:0:0:0:
64,192,153263,1,0,0:0:0:0:
192,192,153263,1,0,0:0:0:0:
320,192,153336,1,0,0:0:0:0:
448,192,153336,1,0,0:0:0:0:
64,192,153408,1,0,0:0:0:0:
192,192,153408,1,0,0:0:0:0:
320,192,153481,1,0,0:0:0:0:
64,192,153554,1,0,0:0:0:0:
448,192,153554,1,0,0:0:0:0:
320,192,153627,1,0,0:0:0:0:
64,192,153700,1,0,0:0:0:0:
192,192,153700,1,0,0:0:0:0:
448,192,153772,1,0,0:0:0:0:
320,192,153845,1,0,0:0:0:0:
192,192,153918,1,0,0:0:0:0:
64,192,153991,1,0,0:0:0:0:
448,192,153991,1,0,0:0:0:0:
320,192,154064,1,0,0:0:0:0:
192,192,154137,1,0,0:0:0:0:
320,192,154209,1,0,0:0:0:0:
64,192,154282,1,0,0:0:0:0:
192,192,154282,1,0,0:0:0:0:
320,192,154355,1,0,0:0:0:0:
448,192,154428,1,0,0:0:0:0:
320,192,154501,1,0,0:0:0:0:
64,192,154573,1,0,0:0:0:0:
192,192,154573,1,0,0:0:0:0:
320,192,154646,1,0,0:0:0:0:
448,192,154646,1,0,0:0:0:0:
64,192,154719,1,0,0:0:0:0:
192,192,154719,1,0,0:0:0:0:
320,192,154792,1,0,0:0:0:0:
448,192,154792,1,0,0:0:0:0:
64,192,154865,1,0,0:0:0:0:
192,192,154865,1,0,0:0:0:0:
320,192,154938,1,0,0:0:0:0:
64,192,155010,1,0,0:0:0:0:
192,192,155010,1,0,0:0:0:0:
448,192,155010,1,0,0:0:0:0:
320,192,155083,1,0,0:0:0:0:
192,192,155156,1,0,0:0:0:0:
448,192,155156,1,0,0:0:0:0:
64,192,155229,1,0,0:0:0:0:
320,192,155302,1,0,0:0:0:0:
64,192,155374,1,0,0:0:0:0:
192,192,155447,1,0,0:0:0:0:
448,192,155447,1,0,0:0:0:0:
320,192,155520,1,0,0:0:0:0:
192,192,155593,1,0,0:0:0:0:
448,192,155593,1,0,0:0:0:0:
320,192,155666,1,0,0:0:0:0:
64,192,155738,1,0,0:0:0:0:
192,192,155738,1,0,0:0:0:0:
448,192,155811,1,0,0:0:0:0:
320,192,155884,1,0,0:0:0:0:
64,192,155957,1,0,0:0:0:0:
192,192,156030,1,0,0:0:0:0:
448,192,156030,1,0,0:0:0:0:
320,192,156103,1,0,0:0:0:0:
64,192,156175,1,0,0:0:0:0:
192,192,156175,1,0,0:0:0:0:
448,192,156248,1,0,0:0:0:0:
64,192,156321,1,0,0:0:0:0:
320,192,156321,1,0,0:0:0:0:
192,192,156394,1,0,0:0:0:0:
448,192,156467,1,0,0:0:0:0:
192,192,156539,1,0,0:0:0:0:
320,192,156612,1,0,0:0:0:0:
448,192,156612,1,0,0:0:0:0:
192,192,156685,1,0,0:0:0:0:
64,192,156758,1,0,0:0:0:0:
320,192,156831,1,0,0:0:0:0:
64,192,156904,1,0,0:0:0:0:
192,192,156904,1,0,0:0:0:0:
448,192,156904,1,0,0:0:0:0:
320,192,156976,1,0,0:0:0:0:
64,192,157049,1,0,0:0:0:0:
192,192,157049,1,0,0:0:0:0:
320,192,157122,1,0,0:0:0:0:
448,192,157122,1,0,0:0:0:0:
64,192,157195,1,0,0:0:0:0:
192,192,157195,1,0,0:0:0:0:
320,192,157268,1,0,0:0:0:0:
448,192,157268,1,0,0:0:0:0:
64,192,157340,1,0,0:0:0:0:
192,192,157340,1,0,0:0:0:0:
320,192,157413,1,0,0:0:0:0:
64,192,157486,1,0,0:0:0:0:
448,192,157486,1,0,0:0:0:0:
192,192,157559,1,0,0:0:0:0:
320,192,157559,1,0,0:0:0:0:
64,192,157632,1,0,0:0:0:0:
448,192,157632,1,0,0:0:0:0:
192,192,157705,1,0,0:0:0:0:
64,192,157777,1,0,0:0:0:0:
320,192,157777,1,0,0:0:0:0:
448,192,157777,1,0,0:0:0:0:
192,192,157850,1,0,0:0:0:0:
320,192,157923,1,0,0:0:0:0:
448,192,157996,1,0,0:0:0:0:
64,192,158069,1,0,0:0:0:0:
192,192,158069,1,0,0:0:0:0:
320,192,158141,1,0,0:0:0:0:
64,192,158214,1,0,0:0:0:0:
448,192,158287,1,0,0:0:0:0:
192,192,158360,1,0,0:0:0:0:
320,192,158360,1,0,0:0:0:0:
64,192,158433,1,0,0:0:0:0:
448,192,158505,1,0,0:0:0:0:
192,192,158578,1,0,0:0:0:0:
320,192,158651,1,0,0:0:0:0:
448,192,158651,1,0,0:0:0:0:
64,192,158724,1,0,0:0:0:0:
192,192,158797,1,0,0:0:0:0:
448,192,158797,1,0,0:0:0:0:
320,192,158870,1,0,0:0:0:0:
64,192,158942,1,0,0:0:0:0:
192,192,158942,1,0,0:0:0:0:
448,192,159015,1,0,0:0:0:0:
320,192,159088,1,0,0:0:0:0:
192,192,159161,1,0,0:0:0:0:
320,192,159234,1,0,0:0:0:0:
448,192,159234,1,0,0:0:0:0:
64,192,159282,1,0,0:0:0:0:
192,192,159331,1,0,0:0:0:0:
320,192,159379,1,0,0:0:0:0:
64,192,159428,1,0,0:0:0:0:
192,192,159476,1,0,0:0:0:0:
320,192,159525,1,0,0:0:0:0:
448,192,159525,1,0,0:0:0:0:
64,192,159598,1,0,0:0:0:0:
192,192,159671,1,0,0:0:0:0:
320,192,159671,1,0,0:0:0:0:
448,192,159671,1,0,0:0:0:0:
64,192,159743,1,0,0:0:0:0:
192,192,159816,1,0,0:0:0:0:
448,192,159816,1,0,0:0:0:0:
320,192,159889,1,0,0:0:0:0:
64,192,159962,1,0,0:0:0:0:
192,192,160035,1,0,0:0:0:0:
320,192,160107,1,0,0:0:0:0:
448,192,160107,1,0,0:0:0:0:
64,192,160156,1,0,0:0:0:0:
192,192,160205,1,0,0:0:0:0:
448,192,160253,1,0,0:0:0:0:
320,192,160302,1,0,0:0:0:0:
64,192,160350,1,0,0:0:0:0:
192,192,160399,1,0,0:0:0:0:
448,192,160399,1,0,0:0:0:0:
320,192,160447,1,0,0:0:0:0:
64,192,160496,1,0,0:0:0:0:
192,192,160544,1,0,0:0:0:0:
448,192,160593,1,0,0:0:0:0:
320,192,160641,1,0,0:0:0:0:
64,192,160690,1,0,0:0:0:0:
192,192,160690,1,0,0:0:0:0:
448,192,160763,1,0,0:0:0:0:
320,192,160836,1,0,0:0:0:0:
192,192,160908,1,0,0:0:0:0:
320,192,160981,1,0,0:0:0:0:
448,192,160981,1,0,0:0:0:0:
64,192,161054,1,0,0:0:0:0:
192,192,161127,1,0,0:0:0:0:
448,192,161127,1,0,0:0:0:0:
64,192,161200,1,0,0:0:0:0:
320,192,161272,1,0,0:0:0:0:
448,192,161272,1,0,0:0:0:0:
192,192,161345,1,0,0:0:0:0:
320,192,161418,1,0,0:0:0:0:
192,192,161491,1,0,0:0:0:0:
64,192,161564,1,0,0:0:0:0:
320,192,161564,1,0,0:0:0:0:
448,192,161564,1,0,0:0:0:0:
192,192,161637,1,0,0:0:0:0:
448,192,161709,1,0,0:0:0:0:
320,192,161782,1,0,0:0:0:0:
64,192,161855,1,0,0:0:0:0:
192,192,161855,1,0,0:0:0:0:
448,192,161928,1,0,0:0:0:0:
64,192,162001,1,0,0:0:0:0:
320,192,162001,1,0,0:0:0:0:
192,192,162073,1,0,0:0:0:0:
320,192,162146,1,0,0:0:0:0:
448,192,162146,1,0,0:0:0:0:
64,192,162219,1,0,0:0:0:0:
192,192,162219,1,0,0:0:0:0:
320,192,162292,1,0,0:0:0:0:
448,192,162292,1,0,0:0:0:0:
64,192,162365,1,0,0:0:0:0:
192,192,162365,1,0,0:0:0:0:
320,192,162438,1,0,0:0:0:0:
448,192,162438,1,0,0:0:0:0:
192,192,162583,1,0,0:0:0:0:
448,192,162802,1,0,0:0:0:0:
320,192,163020,1,0,0:0:0:0:
64,192,163166,1,0,0:0:0:0:
448,192,163238,1,0,0:0:0:0:
64,192,163311,1,0,0:0:0:0:
320,192,163384,128,0,163530:0:0:0:0:
192,192,163530,1,0,0:0:0:0:
64,192,163675,1,0,0:0:0:0:
448,192,163748,1,0,0:0:0:0:
64,192,163821,1,0,0:0:0:0:
448,192,163894,1,0,0:0:0:0:
64,192,163967,1,0,0:0:0:0:
192,192,164039,1,0,0:0:0:0:
320,192,164039,1,0,0:0:0:0:
448,192,164185,1,0,0:0:0:0:
64,192,164331,1,0,0:0:0:0:
320,192,164331,1,0,0:0:0:0:
192,192,164476,1,0,0:0:0:0:
320,192,164549,1,0,0:0:0:0:
64,192,164622,1,0,0:0:0:0:
192,192,164622,1,0,0:0:0:0:
320,192,164695,1,0,0:0:0:0:
448,192,164695,1,0,0:0:0:0:
64,192,164768,1,0,0:0:0:0:
192,192,164768,1,0,0:0:0:0:
320,192,164816,1,0,0:0:0:0:
448,192,164865,1,0,0:0:0:0:
192,192,164913,1,0,0:0:0:0:
320,192,164962,1,0,0:0:0:0:
64,192,165010,1,0,0:0:0:0:
192,192,165059,1,0,0:0:0:0:
448,192,165059,1,0,0:0:0:0:
64,192,165205,1,0,0:0:0:0:
320,192,165205,1,0,0:0:0:0:
192,192,165350,1,0,0:0:0:0:
320,192,165496,1,0,0:0:0:0:
448,192,165496,1,0,0:0:0:0:
448,192,165641,1,0,0:0:0:0:
192,192,165787,1,0,0:0:0:0:
64,192,165933,1,0,0:0:0:0:
320,192,165933,1,0,0:0:0:0:
192,192,166078,1,0,0:0:0:0:
320,192,166224,1,0,0:0:0:0:
448,192,166224,1,0,0:0:0:0:
192,192,166297,1,0,0:0:0:0:
64,192,166370,1,0,0:0:0:0:
192,192,166442,1,0,0:0:0:0:
64,192,166515,1,0,0:0:0:0:
448,192,166515,1,0,0:0:0:0:
192,192,166588,1,0,0:0:0:0:
320,192,166588,1,0,0:0:0:0:
64,192,166661,1,0,0:0:0:0:
448,192,166661,128,0,166952:0:0:0:0:
320,192,166952,1,0,0:0:0:0:
64,192,167098,1,0,0:0:0:0:
192,192,167098,1,0,0:0:0:0:
64,192,167243,1,0,0:0:0:0:
192,192,167243,1,0,0:0:0:0:
64,192,167389,1,0,0:0:0:0:
192,192,167389,1,0,0:0:0:0:
320,192,167462,1,0,0:0:0:0:
64,192,167535,1,0,0:0:0:0:
448,192,167535,1,0,0:0:0:0:
192,192,167607,1,0,0:0:0:0:
320,192,167680,1,0,0:0:0:0:
448,192,167680,1,0,0:0:0:0:
64,192,167753,1,0,0:0:0:0:
192,192,167826,1,0,0:0:0:0:
320,192,167826,1,0,0:0:0:0:
448,192,167899,1,0,0:0:0:0:
64,192,167971,1,0,0:0:0:0:
192,192,167971,1,0,0:0:0:0:
320,192,168044,1,0,0:0:0:0:
64,192,168117,1,0,0:0:0:0:
448,192,168117,1,0,0:0:0:0:
192,192,168190,1,0,0:0:0:0:
64,192,168263,1,0,0:0:0:0:
320,192,168263,1,0,0:0:0:0:
448,192,168263,1,0,0:0:0:0:
192,192,168336,1,0,0:0:0:0:
64,192,168408,1,0,0:0:0:0:
320,192,168408,1,0,0:0:0:0:
448,192,168408,1,0,0:0:0:0:
192,192,168481,1,0,0:0:0:0:
320,192,168554,1,0,0:0:0:0:
448,192,168554,1,0,0:0:0:0:
192,192,168627,1,0,0:0:0:0:
64,192,168700,1,0,0:0:0:0:
320,192,168700,1,0,0:0:0:0:
448,192,168772,1,0,0:0:0:0:
64,192,168845,1,0,0:0:0:0:
192,192,168845,1,0,0:0:0:0:
320,192,168845,1,0,0:0:0:0:
448,192,168918,1,0,0:0:0:0:
64,192,168991,1,0,0:0:0:0:
192,192,168991,1,0,0:0:0:0:
320,192,169064,1,0,0:0:0:0:
64,192,169137,1,0,0:0:0:0:
192,192,169137,1,0,0:0:0:0:
448,192,169137,1,0,0:0:0:0:
320,192,169209,1,0,0:0:0:0:
64,192,169282,1,0,0:0:0:0:
448,192,169282,1,0,0:0:0:0:
192,192,169355,1,0,0:0:0:0:
64,192,169428,1,0,0:0:0:0:
320,192,169428,1,0,0:0:0:0:
448,192,169428,1,0,0:0:0:0:
192,192,169501,1,0,0:0:0:0:
320,192,169573,1,0,0:0:0:0:
448,192,169573,1,0,0:0:0:0:
64,192,169646,1,0,0:0:0:0:
192,192,169719,1,0,0:0:0:0:
320,192,169719,1,0,0:0:0:0:
448,192,169719,1,0,0:0:0:0:
64,192,169792,1,0,0:0:0:0:
192,192,169865,1,0,0:0:0:0:
320,192,169865,1,0,0:0:0:0:
448,192,169938,1,0,0:0:0:0:
64,192,170010,1,0,0:0:0:0:
320,192,170010,1,0,0:0:0:0:
192,192,170083,1,0,0:0:0:0:
64,192,170156,1,0,0:0:0:0:
320,192,170156,1,0,0:0:0:0:
448,192,170156,1,0,0:0:0:0:
192,192,170229,1,0,0:0:0:0:
320,192,170302,1,0,0:0:0:0:
448,192,170302,1,0,0:0:0:0:
64,192,170374,1,0,0:0:0:0:
192,192,170447,1,0,0:0:0:0:
448,192,170447,1,0,0:0:0:0:
320,192,170520,1,0,0:0:0:0:
64,192,170593,1,0,0:0:0:0:
192,192,170593,1,0,0:0:0:0:
448,192,170593,1,0,0:0:0:0:
320,192,170666,1,0,0:0:0:0:
64,192,170738,1,0,0:0:0:0:
192,192,170738,1,0,0:0:0:0:
448,192,170738,1,0,0:0:0:0:
320,192,170811,1,0,0:0:0:0:
64,192,170884,1,0,0:0:0:0:
192,192,170884,1,0,0:0:0:0:
448,192,170957,1,0,0:0:0:0:
64,192,171030,1,0,0:0:0:0:
320,192,171030,1,0,0:0:0:0:
192,192,171103,1,0,0:0:0:0:
320,192,171175,1,0,0:0:0:0:
448,192,171175,1,0,0:0:0:0:
64,192,171248,1,0,0:0:0:0:
192,192,171321,1,0,0:0:0:0:
320,192,171321,1,0,0:0:0:0:
448,192,171394,1,0,0:0:0:0:
64,192,171467,1,0,0:0:0:0:
192,192,171467,1,0,0:0:0:0:
320,192,171467,1,0,0:0:0:0:
448,192,171539,1,0,0:0:0:0:
64,192,171612,1,0,0:0:0:0:
192,192,171612,1,0,0:0:0:0:
320,192,171612,1,0,0:0:0:0:
448,192,171685,1,0,0:0:0:0:
64,192,171758,1,0,0:0:0:0:
320,192,171758,1,0,0:0:0:0:
192,192,171831,1,0,0:0:0:0:
64,192,171904,1,0,0:0:0:0:
320,192,171904,1,0,0:0:0:0:
448,192,171904,1,0,0:0:0:0:
192,192,171976,1,0,0:0:0:0:
320,192,172049,1,0,0:0:0:0:
448,192,172049,1,0,0:0:0:0:
64,192,172122,1,0,0:0:0:0:
192,192,172195,1,0,0:0:0:0:
448,192,172195,1,0,0:0:0:0:
320,192,172268,1,0,0:0:0:0:
64,192,172340,1,0,0:0:0:0:
192,192,172340,1,0,0:0:0:0:
320,192,172413,1,0,0:0:0:0:
64,192,172486,1,0,0:0:0:0:
448,192,172486,1,0,0:0:0:0:
192,192,172559,1,0,0:0:0:0:
64,192,172632,1,0,0:0:0:0:
320,192,172632,1,0,0:0:0:0:
448,192,172632,1,0,0:0:0:0:
192,192,172705,1,0,0:0:0:0:
320,192,172777,1,0,0:0:0:0:
448,192,172777,1,0,0:0:0:0:
64,192,172850,1,0,0:0:0:0:
192,192,172923,1,0,0:0:0:0:
320,192,172923,1,0,0:0:0:0:
448,192,172996,1,0,0:0:0:0:
64,192,173069,1,0,0:0:0:0:
320,192,173069,1,0,0:0:0:0:
192,192,173141,1,0,0:0:0:0:
64,192,173214,1,0,0:0:0:0:
320,192,173214,1,0,0:0:0:0:
448,192,173214,1,0,0:0:0:0:
192,192,173287,1,0,0:0:0:0:
64,192,173360,1,0,0:0:0:0:
448,192,173360,1,0,0:0:0:0:
320,192,173433,1,0,0:0:0:0:
64,192,173505,1,0,0:0:0:0:
192,192,173505,1,0,0:0:0:0:
448,192,173578,1,0,0:0:0:0:
192,192,173651,1,0,0:0:0:0:
320,192,173651,1,0,0:0:0:0:
64,192,173724,1,0,0:0:0:0:
192,192,173797,1,0,0:0:0:0:
320,192,173797,1,0,0:0:0:0:
448,192,173797,1,0,0:0:0:0:
64,192,173870,1,0,0:0:0:0:
320,192,173942,1,0,0:0:0:0:
448,192,173942,1,0,0:0:0:0:
192,192,174015,1,0,0:0:0:0:
64,192,174088,1,0,0:0:0:0:
448,192,174088,1,0,0:0:0:0:
192,192,174161,1,0,0:0:0:0:
64,192,174234,1,0,0:0:0:0:
320,192,174234,1,0,0:0:0:0:
448,192,174306,1,0,0:0:0:0:
64,192,174379,1,0,0:0:0:0:
192,192,174379,1,0,0:0:0:0:
320,192,174379,1,0,0:0:0:0:
448,192,174452,1,0,0:0:0:0:
192,192,174525,1,0,0:0:0:0:
320,192,174525,1,0,0:0:0:0:
64,192,174598,1,0,0:0:0:0:
192,192,174671,1,0,0:0:0:0:
448,192,174671,1,0,0:0:0:0:
320,192,174743,1,0,0:0:0:0:
64,192,174816,1,0,0:0:0:0:
448,192,174816,1,0,0:0:0:0:
192,192,174889,1,0,0:0:0:0:
64,192,174962,1,0,0:0:0:0:
320,192,174962,1,0,0:0:0:0:
448,192,174962,1,0,0:0:0:0:
192,192,175035,1,0,0:0:0:0:
320,192,175107,1,0,0:0:0:0:
448,192,175107,1,0,0:0:0:0:
192,192,175180,1,0,0:0:0:0:
64,192,175253,1,0,0:0:0:0:
320,192,175253,1,0,0:0:0:0:
448,192,175253,1,0,0:0:0:0:
192,192,175326,1,0,0:0:0:0:
64,192,175399,1,0,0:0:0:0:
320,192,175399,1,0,0:0:0:0:
448,192,175399,1,0,0:0:0:0:
192,192,175471,1,0,0:0:0:0:
64,192,175544,1,0,0:0:0:0:
320,192,175544,1,0,0:0:0:0:
448,192,175544,1,0,0:0:0:0:
192,192,175617,1,0,0:0:0:0:
320,192,175690,1,0,0:0:0:0:
448,192,175690,1,0,0:0:0:0:
64,192,175763,1,0,0:0:0:0:
192,192,175836,1,0,0:0:0:0:
448,192,175836,1,0,0:0:0:0:
320,192,175908,1,0,0:0:0:0:
64,192,175981,1,0,0:0:0:0:
192,192,175981,1,0,0:0:0:0:
320,192,176054,1,0,0:0:0:0:
448,192,176054,1,0,0:0:0:0:
64,192,176127,1,0,0:0:0:0:
192,192,176200,1,0,0:0:0:0:
320,192,176272,1,0,0:0:0:0:
448,192,176272,1,0,0:0:0:0:
192,192,176345,1,0,0:0:0:0:
320,192,176418,1,0,0:0:0:0:
448,192,176418,1,0,0:0:0:0:
192,192,176491,1,0,0:0:0:0:
320,192,176564,1,0,0:0:0:0:
448,192,176564,1,0,0:0:0:0:
64,192,176637,1,0,0:0:0:0:
192,192,176637,1,0,0:0:0:0:
320,192,176709,1,0,0:0:0:0:
448,192,176709,1,0,0:0:0:0:
192,192,176782,1,0,0:0:0:0:
64,192,176855,1,0,0:0:0:0:
448,192,176855,1,0,0:0:0:0:
320,192,176928,1,0,0:0:0:0:
64,192,177001,1,0,0:0:0:0:
192,192,177001,1,0,0:0:0:0:
448,192,177073,1,0,0:0:0:0:
64,192,177146,1,0,0:0:0:0:
320,192,177146,1,0,0:0:0:0:
192,192,177219,1,0,0:0:0:0:
320,192,177292,1,0,0:0:0:0:
448,192,177292,1,0,0:0:0:0:
64,192,177365,1,0,0:0:0:0:
192,192,177438,1,0,0:0:0:0:
448,192,177438,1,0,0:0:0:0:
320,192,177510,1,0,0:0:0:0:
64,192,177583,1,0,0:0:0:0:
192,192,177583,1,0,0:0:0:0:
448,192,177583,1,0,0:0:0:0:
320,192,177656,1,0,0:0:0:0:
64,192,177729,1,0,0:0:0:0:
192,192,177729,1,0,0:0:0:0:
448,192,177729,1,0,0:0:0:0:
320,192,177802,1,0,0:0:0:0:
64,192,177874,1,0,0:0:0:0:
192,192,177874,1,0,0:0:0:0:
448,192,177947,1,0,0:0:0:0:
64,192,178020,1,0,0:0:0:0:
320,192,178020,1,0,0:0:0:0:
192,192,178093,1,0,0:0:0:0:
64,192,178166,1,0,0:0:0:0:
320,192,178166,1,0,0:0:0:0:
448,192,178166,1,0,0:0:0:0:
192,192,178238,1,0,0:0:0:0:
320,192,178311,1,0,0:0:0:0:
448,192,178311,1,0,0:0:0:0:
64,192,178384,1,0,0:0:0:0:
192,192,178457,1,0,0:0:0:0:
320,192,178457,1,0,0:0:0:0:
448,192,178457,1,0,0:0:0:0:
64,192,178530,1,0,0:0:0:0:
192,192,178603,1,0,0:0:0:0:
448,192,178603,1,0,0:0:0:0:
320,192,178675,1,0,0:0:0:0:
64,192,178748,1,0,0:0:0:0:
192,192,178748,1,0,0:0:0:0:
448,192,178748,1,0,0:0:0:0:
320,192,178821,1,0,0:0:0:0:
64,192,178894,1,0,0:0:0:0:
192,192,178894,1,0,0:0:0:0:
448,192,178967,1,0,0:0:0:0:
64,192,179039,1,0,0:0:0:0:
192,192,179039,1,0,0:0:0:0:
320,192,179039,1,0,0:0:0:0:
448,192,179112,1,0,0:0:0:0:
64,192,179185,1,0,0:0:0:0:
320,192,179185,1,0,0:0:0:0:
192,192,179258,1,0,0:0:0:0:
320,192,179331,1,0,0:0:0:0:
448,192,179331,1,0,0:0:0:0:
64,192,179404,1,0,0:0:0:0:
192,192,179476,1,0,0:0:0:0:
320,192,179476,1,0,0:0:0:0:
448,192,179476,1,0,0:0:0:0:
64,192,179549,1,0,0:0:0:0:
192,192,179622,1,0,0:0:0:0:
448,192,179622,1,0,0:0:0:0:
320,192,179695,1,0,0:0:0:0:
64,192,179768,1,0,0:0:0:0:
192,192,179768,1,0,0:0:0:0:
448,192,179840,1,0,0:0:0:0:
64,192,179913,1,0,0:0:0:0:
320,192,179913,1,0,0:0:0:0:
192,192,179986,1,0,0:0:0:0:
64,192,180059,1,0,0:0:0:0:
320,192,180059,1,0,0:0:0:0:
448,192,180059,1,0,0:0:0:0:
192,192,180132,1,0,0:0:0:0:
320,192,180205,1,0,0:0:0:0:
448,192,180205,1,0,0:0:0:0:
192,192,180277,1,0,0:0:0:0:
320,192,180350,1,0,0:0:0:0:
448,192,180350,1,0,0:0:0:0:
192,192,180423,1,0,0:0:0:0:
320,192,180496,1,0,0:0:0:0:
448,192,180496,1,0,0:0:0:0:
192,192,180569,1,0,0:0:0:0:
320,192,180641,1,0,0:0:0:0:
448,192,180641,1,0,0:0:0:0:
192,192,180714,1,0,0:0:0:0:
320,192,180787,1,0,0:0:0:0:
448,192,180787,1,0,0:0:0:0:
192,192,180860,1,0,0:0:0:0:
64,192,180933,1,0,0:0:0:0:
448,192,180933,1,0,0:0:0:0:
320,192,181005,1,0,0:0:0:0:
64,192,181078,1,0,0:0:0:0:
192,192,181078,1,0,0:0:0:0:
448,192,181078,1,0,0:0:0:0:
320,192,181151,1,0,0:0:0:0:
64,192,181224,1,0,0:0:0:0:
192,192,181224,1,0,0:0:0:0:
448,192,181224,1,0,0:0:0:0:
320,192,181297,1,0,0:0:0:0:
64,192,181370,1,0,0:0:0:0:
192,192,181370,1,0,0:0:0:0:
448,192,181370,1,0,0:0:0:0:
320,192,181442,1,0,0:0:0:0:
64,192,181515,1,0,0:0:0:0:
192,192,181515,1,0,0:0:0:0:
448,192,181588,1,0,0:0:0:0:
192,192,181661,1,0,0:0:0:0:
320,192,181661,1,0,0:0:0:0:
64,192,181734,1,0,0:0:0:0:
192,192,181806,1,0,0:0:0:0:
320,192,181806,1,0,0:0:0:0:
448,192,181806,1,0,0:0:0:0:
64,192,181879,1,0,0:0:0:0:
320,192,181952,1,0,0:0:0:0:
448,192,181952,1,0,0:0:0:0:
192,192,182025,1,0,0:0:0:0:
64,192,182098,1,0,0:0:0:0:
448,192,182098,1,0,0:0:0:0:
320,192,182171,1,0,0:0:0:0:
64,192,182243,1,0,0:0:0:0:
192,192,182243,1,0,0:0:0:0:
448,192,182243,1,0,0:0:0:0:
320,192,182316,1,0,0:0:0:0:
64,192,182389,1,0,0:0:0:0:
192,192,182389,1,0,0:0:0:0:
448,192,182462,1,0,0:0:0:0:
192,192,182535,1,0,0:0:0:0:
320,192,182535,1,0,0:0:0:0:
64,192,182607,1,0,0:0:0:0:
192,192,182680,1,0,0:0:0:0:
320,192,182680,1,0,0:0:0:0:
448,192,182680,1,0,0:0:0:0:
64,192,182753,1,0,0:0:0:0:
320,192,182826,1,0,0:0:0:0:
448,192,182826,1,0,0:0:0:0:
192,192,182899,1,0,0:0:0:0:
64,192,182971,1,0,0:0:0:0:
448,192,182971,1,0,0:0:0:0:
320,192,183044,1,0,0:0:0:0:
64,192,183117,1,0,0:0:0:0:
192,192,183117,1,0,0:0:0:0:
448,192,183117,1,0,0:0:0:0:
320,192,183190,1,0,0:0:0:0:
64,192,183263,1,0,0:0:0:0:
192,192,183263,1,0,0:0:0:0:
320,192,183336,1,0,0:0:0:0:
64,192,183408,1,0,0:0:0:0:
192,192,183408,1,0,0:0:0:0:
448,192,183408,1,0,0:0:0:0:
320,192,183481,1,0,0:0:0:0:
192,192,183554,1,0,0:0:0:0:
448,192,183554,1,0,0:0:0:0:
64,192,183627,1,0,0:0:0:0:
192,192,183700,1,0,0:0:0:0:
320,192,183700,1,0,0:0:0:0:
448,192,183700,1,0,0:0:0:0:
64,192,183772,1,0,0:0:0:0:
192,192,183845,1,0,0:0:0:0:
320,192,183918,1,0,0:0:0:0:
192,192,183991,1,0,0:0:0:0:
320,192,184064,1,0,0:0:0:0:
448,192,184137,1,0,0:0:0:0:
320,192,184209,1,0,0:0:0:0:
448,192,184282,1,0,0:0:0:0:
64,192,184355,1,0,0:0:0:0:
192,192,184428,1,0,0:0:0:0:
64,192,184501,1,0,0:0:0:0:
192,192,184573,1,0,0:0:0:0:
448,192,184573,1,0,0:0:0:0:
320,192,184646,1,0,0:0:0:0:
192,192,184719,1,0,0:0:0:0:
320,192,184792,1,0,0:0:0:0:
448,192,184865,1,0,0:0:0:0:
320,192,184938,1,0,0:0:0:0:
64,192,185010,1,0,0:0:0:0:
448,192,185010,1,0,0:0:0:0:
320,192,185083,1,0,0:0:0:0:
192,192,185156,1,0,0:0:0:0:
64,192,185229,1,0,0:0:0:0:
192,192,185302,1,0,0:0:0:0:
64,192,185374,1,0,0:0:0:0:
320,192,185447,1,0,0:0:0:0:
448,192,185447,1,0,0:0:0:0:
192,192,185520,1,0,0:0:0:0:
320,192,185593,1,0,0:0:0:0:
192,192,185666,1,0,0:0:0:0:
64,192,185738,1,0,0:0:0:0:
448,192,185738,1,0,0:0:0:0:
320,192,185811,1,0,0:0:0:0:
448,192,185884,1,0,0:0:0:0:
320,192,185957,1,0,0:0:0:0:
192,192,186030,128,0,186612:0:0:0:0:
64,192,188069,1,0,0:0:0:0:
320,192,188360,1,0,0:0:0:0:
192,192,188554,1,0,0:0:0:0:
320,192,188748,128,0,189282:0:0:0:0:
448,192,189282,128,0,189616:0:0:0:0:
64,192,189288,1,0,0:0:0:0:
64,192,189616,1,0,0:0:0:0:
64,192,189762,1,0,0:0:0:0:
448,192,189853,128,0,190362:0:0:0:0:
192,192,190471,128,0,191127:0:0:0:0:
320,192,191345,128,0,191855:0:0:0:0:
192,192,192183,128,0,192947:0:0:0:0:
448,192,193093,128,0,193639:0:0:0:0:
192,192,193639,128,0,194513:0:0:0:0:
320,192,194513,128,0,195059:0:0:0:0:
64,192,195132,128,0,195860:0:0:0:0:
448,192,195969,128,0,196734:0:0:0:0:
320,192,196806,128,0,197280:0:0:0:0:
64,192,197389,1,0,0:0:0:0:
448,192,197389,1,0,0:0:0:0:
192,192,197535,1,0,0:0:0:0:
320,192,197680,1,0,0:0:0:0:
64,192,197826,1,0,0:0:0:0:
64,192,198117,1,0,0:0:0:0:
64,192,198263,1,0,0:0:0:0:
192,192,198554,1,0,0:0:0:0:
192,192,198991,1,0,0:0:0:0:
192,192,199282,1,0,0:0:0:0:
192,192,199428,1,0,0:0:0:0:
320,192,199719,1,0,0:0:0:0:
320,192,200156,1,0,0:0:0:0:
320,192,200447,1,0,0:0:0:0:
448,192,200593,1,0,0:0:0:0:
192,192,200884,1,0,0:0:0:0:
192,192,201321,1,0,0:0:0:0:
192,192,201612,1,0,0:0:0:0:
192,192,201758,1,0,0:0:0:0:
320,192,202049,1,0,0:0:0:0:
192,192,202195,1,0,0:0:0:0:
64,192,202340,1,0,0:0:0:0:
320,192,202486,1,0,0:0:0:0:
320,192,202777,1,0,0:0:0:0:
320,192,202923,1,0,0:0:0:0:
192,192,203214,1,0,0:0:0:0:
320,192,203360,1,0,0:0:0:0:
64,192,203505,1,0,0:0:0:0:
448,192,203505,1,0,0:0:0:0:
192,192,203651,1,0,0:0:0:0:
64,192,203797,1,0,0:0:0:0:
192,192,203942,1,0,0:0:0:0:
192,192,204088,1,0,0:0:0:0:
448,192,204088,1,0,0:0:0:0:
64,192,204379,1,0,0:0:0:0:
448,192,204525,1,0,0:0:0:0:
64,192,204671,1,0,0:0:0:0:
448,192,204816,1,0,0:0:0:0:
64,192,204962,1,0,0:0:0:0:
448,192,205107,1,0,0:0:0:0:
64,192,205253,1,0,0:0:0:0:
448,192,205399,1,0,0:0:0:0:
64,192,205544,1,0,0:0:0:0:
192,192,205617,1,0,0:0:0:0:
320,192,205690,1,0,0:0:0:0:
192,192,205763,1,0,0:0:0:0:
448,192,205836,1,0,0:0:0:0:
320,192,205908,1,0,0:0:0:0:
192,192,205981,1,0,0:0:0:0:
320,192,206054,1,0,0:0:0:0:
64,192,206127,1,0,0:0:0:0:
192,192,206200,1,0,0:0:0:0:
320,192,206272,1,0,0:0:0:0:
192,192,206345,1,0,0:0:0:0:
448,192,206418,1,0,0:0:0:0:
320,192,206491,1,0,0:0:0:0:
192,192,206564,1,0,0:0:0:0:
320,192,206637,1,0,0:0:0:0:
64,192,206709,1,0,0:0:0:0:
448,192,206709,1,0,0:0:0:0:
192,192,206855,1,0,0:0:0:0:
64,192,207146,1,0,0:0:0:0:
64,192,207438,1,0,0:0:0:0:
64,192,207583,1,0,0:0:0:0:
320,192,207874,1,0,0:0:0:0:
