osu file format v14

[General]
AudioFilename: audio.mp3
AudioLeadIn: 0
PreviewTime: -1
Countdown: 0
SampleSet: Normal
StackLeniency: 0.7
Mode: 0
LetterboxInBreaks: 0
WidescreenStoryboard: 0

[Editor]
Bookmarks: 30250,59489,69540,89032,118271,128017,147509
DistanceSpacing: 2.5
BeatDivisor: 4
GridSize: 16
TimelineZoom: 1

[Metadata]
Title:And July
TitleUnicode:And July
Artist:Heize, DEAN
ArtistUnicode:헤이즈, 딘
Creator:Aker
Version:Insane
Source:헤이즈
Tags:Heize, DEAN, 헤이즈, 딘, kpop, korea
BeatmapID:1466882
BeatmapSetID:693221

[Difficulty]
HPDrainRate:5
CircleSize:4
OverallDifficulty:5
ApproachRate:8
SliderMultiplier:1.4
SliderTickRate:1

[Events]
//Background and Video events
//Break Periods
//Storyboard Layer 0 (Background)
//Storyboard Layer 1 (Fail)
//Storyboard Layer 2 (Pass)
//Storyboard Layer 3 (Foreground)
//Storyboard Sound Samples

[TimingPoints]
30555.6484501502,609.137055837563,4,1,0,100,1,0
69540,-100,4,1,0,100,0,1
89032,-100,4,1,0,100,0,0
128017,-100,4,1,0,100,0,1
147509,-100,4,1,0,100,0,0

[HitObjects]
216,128,30250,6,0,L|312:96,2,70,0|2|0,0:0|0:0|0:0,0:0:0:0:
88,232,31164,1,0,0:0:0:0:
240,320,31469,1,0,0:0:0:0:
336,280,31621,1,0,0:0:0:0:
368,192,31773,2,0,L|464:224,1,70,0|0,2:2|0:0,0:0:0:0:
288,312,32383,5,8,0:0:0:0:
112,296,32687,1,0,0:0:0:0:
96,120,32992,2,2,L|288:24,1,210,2|0,0:0|0:0,0:0:0:0:
320,104,34058,1,0,0:0:0:0:
248,80,34210,2,0,L|168:64,1,70,0|0,2:2|0:0,3:3:0:0:
64,200,34819,1,8,0:0:0:0:
64,320,35124,5,0,0:0:0:0:
256,320,35428,2,2,L|288:240,1,70,2|0,0:0|0:0,0:0:0:0:
320,64,36037,1,0,0:0:0:0:
192,192,36342,1,0,0:0:0:0:
208,80,36494,1,0,0:0:0:0:
96,128,36647,1,0,2:2:0:0:
384,160,36951,2,0,L|320:80,1,70,0|8,0:0|0:0,0:0:0:0:
96,32,37560,5,0,0:0:0:0:
224,96,37865,2,2,P|272:144|256:208,1,140,2|0,0:0|0:0,0:0:0:0:
255,208,38778,1,0,0:0:0:0:
176,176,38931,1,0,0:0:0:0:
104,232,39083,1,0,2:2:0:0:
136,328,39388,2,0,P|168:360|200:376,1,70,0|8,0:0|0:0,0:0:0:0:
96,176,39997,5,0,0:0:0:0:
320,64,40301,2,2,P|368:112|368:128,2,70,2|0|0,0:0|0:0|0:0,0:0:0:0:
112,112,41215,1,0,0:0:0:0:
80,208,41367,1,0,0:0:0:0:
160,288,41520,1,0,2:2:0:0:
368,224,41824,2,0,P|384:176|352:160,1,70,0|8,0:0|0:0,0:0:0:0:
192,192,42433,6,0,L|272:176,2,70,0|2|0,0:0|0:0|0:0,0:0:0:0:
384,96,43347,2,0,P|416:128|416:160,1,70
384,256,43804,1,0,0:0:0:0:
288,320,43956,1,0,2:2:0:0:
224,80,44261,5,0,0:0:0:0:
192,224,44413,1,0,0:0:0:0:
272,144,44565,1,8,0:0:0:0:
128,176,44718,1,0,0:0:0:0:
272,224,44870,1,0,0:0:0:0:
160,96,45022,1,0,0:0:0:0:
320,128,45174,2,2,L|384:96,2,70,2|0|0,0:0|0:0|0:0,0:0:0:0:
64,256,46088,5,0,0:0:0:0:
160,224,46240,1,0,0:0:0:0:
256,192,46393,1,0,2:2:0:0:
112,336,46697,2,0,L|176:304,1,70,0|8,0:0|0:0,0:0:0:0:
368,224,47306,1,0,0:0:0:0:
320,128,47611,2,2,L|160:192,2,140,2|0|0,0:0|0:0|0:0,0:0:0:0:
416,128,49134,5,0,0:0:0:0:
288,64,49438,2,0,P|256:96|256:128,1,70,8|0,0:0|0:0,0:0:0:0:
112,128,50048,1,2,0:0:0:0:
192,288,50352,1,0,0:0:0:0:
336,160,50504,1,0,0:0:0:0:
272,224,50657,1,0,2:2:0:0:
176,96,50961,6,0,L|224:96,2,35,0|0|0,0:0|0:0|1:1,0:0:0:0:
128,160,51570,2,0,P|96:192|96:224,1,70,0|10,0:0|0:0,0:0:0:0:
192,240,52180,1,0,0:0:0:0:
352,96,52484,2,2,P|400:144|400:160,1,70,2|0,0:0|0:0,0:0:0:0:
336,160,52941,1,0,0:0:0:0:
320,272,53093,1,0,2:2:0:0:
224,96,53398,5,0,0:0:0:0:
336,96,53550,1,0,0:0:0:0:
160,160,53702,2,0,L|96:224,1,70
320,256,54311,1,8,0:0:0:0:
160,160,54616,1,0,0:0:0:0:
192,32,54921,2,2,L|272:32,1,70,2|0,0:0|0:0,0:0:0:0:
320,128,55377,1,0,0:0:0:0:
224,224,55530,1,0,2:2:0:0:
160,128,55834,6,0,L|208:128,2,35
304,240,56443,1,0,0:0:0:0:
320,64,56748,2,0,L|384:128,1,70,8|0,0:0|0:0,0:0:0:0:
176,208,57357,2,0,P|128:192|128:176,2,70,2|0|0,0:0|0:0|0:0,0:0:0:0:
320,176,58271,1,0,0:0:0:0:
192,128,58423,1,0,0:0:0:0:
320,64,58575,1,0,2:2:0:0:
432,112,58880,2,0,P|464:160|448:176,1,70,0|8,0:0|0:0,0:0:0:0:
272,256,59489,5,0,0:0:0:0:
160,208,59641,1,0,0:0:0:0:
64,272,59794,2,0,P|112:320|144:320,1,70,2|0,0:0|0:0,0:0:0:0:
208,336,60251,1,0,0:0:0:0:
256,256,60403,1,8,0:0:0:0:
128,224,60555,2,0,L|160:192,1,35,2|0,0:0|0:0,0:0:0:0:
160,96,60860,1,0,0:0:0:0:
256,128,61012,6,0,P|304:96|336:112,1,70,2|0,0:0|0:0,0:0:0:0:
448,144,61469,1,0,0:0:0:0:
384,64,61621,1,8,0:0:0:0:
272,32,61773,1,0,0:0:0:0:
192,128,61926,6,0,L|224:208,1,70,0|2,0:0|0:0,0:0:0:0:
384,160,62535,1,0,0:0:0:0:
304,224,62687,1,0,0:0:0:0:
288,128,62839,2,2,L|320:96,1,35,10|0,0:0|0:0,0:0:0:0:
480,160,63144,1,0,0:0:0:0:
416,256,63296,1,0,0:0:0:0:
272,208,63449,6,0,L|368:176,1,70,2|0,0:0|0:0,0:0:0:0:
256,128,63905,1,0,0:0:0:0:
112,288,64058,2,2,L|192:288,1,70,10|0,0:0|0:0,0:0:0:0:
224,192,64515,1,0,0:0:0:0:
96,192,64667,2,0,B|96:128|128:96|192:64,1,140,2|0,0:0|0:0,0:0:0:0:
320,208,65581,5,0,0:0:0:0:
240,128,65733,1,0,0:0:0:0:
432,128,65885,2,0,L|464:192,2,70,0|0|8,2:2|0:0|0:0,0:0:0:0:
256,224,66799,1,0,0:0:0:0:
320,128,67103,2,0,L|160:160,2,140,2|0|0,0:0|0:0|0:0,0:0:0:0:
416,160,68626,5,0,0:0:0:0:
320,240,68778,1,0,0:0:0:0:
400,336,68931,1,8,0:0:0:0:
176,320,69236,1,0,0:0:0:0:
80,304,69540,2,0,P|144:240|208:240,1,140,2|0,0:0|0:0,0:0:0:0:
256,336,70454,5,0,0:0:0:0:
352,272,70606,1,0,0:0:0:0:
288,176,70758,1,0,2:2:0:0:
160,64,71063,1,0,0:0:0:0:
64,192,71367,1,8,0:0:0:0:
160,304,71672,1,0,0:0:0:0:
384,96,71976,6,0,P|288:64|224:64,1,140,2|0,0:0|0:0,0:0:0:0:
192,64,72890,1,0,0:0:0:0:
96,96,73043,1,0,0:0:0:0:
96,192,73195,1,0,2:2:0:0:
288,224,73499,5,0,0:0:0:0:
320,128,73652,1,0,0:0:0:0:
416,160,73804,1,8,0:0:0:0:
432,320,74109,1,0,0:0:0:0:
272,304,74413,2,0,P|336:304|368:240,1,140,2|0,0:0|0:0,0:0:0:0:
256,192,75327,5,0,0:0:0:0:
336,256,75479,1,0,0:0:0:0:
176,144,75631,1,0,2:2:0:0:
176,224,75936,1,0,0:0:0:0:
256,112,76240,1,8,0:0:0:0:
400,96,76545,1,0,0:0:0:0:
176,320,76850,2,0,P|208:256|240:256,1,105,2|0,0:0|0:0,0:0:0:0:
256,256,77459,1,0,2:2:0:0:
160,192,77763,5,0,0:0:0:0:
160,192,77916,2,0,L|224:160,1,70
240,320,78525,1,0,0:0:0:0:
320,192,78677,1,8,0:0:0:0:
80,288,78982,5,0,0:0:0:0:
176,96,79286,5,2,0:0:0:0:
256,288,79591,5,0,0:0:0:0:
368,112,79895,5,0,0:0:0:0:
384,320,80200,5,0,0:0:0:0:
304,256,80352,1,0,0:0:0:0:
208,208,80504,1,0,2:2:0:0:
64,64,80809,5,0,0:0:0:0:
272,112,81114,5,8,0:0:0:0:
112,240,81418,5,0,0:0:0:0:
320,288,81723,5,2,0:0:0:0:
368,80,82027,5,0,0:0:0:0:
160,96,82332,5,0,0:0:0:0:
320,224,82636,5,0,0:0:0:0:
224,272,82789,1,0,0:0:0:0:
112,272,82941,1,0,2:2:0:0:
112,64,83246,5,0,0:0:0:0:
208,112,83398,1,0,0:0:0:0:
288,176,83550,1,8,0:0:0:0:
464,64,83855,1,0,0:0:0:0:
352,224,84159,2,0,L|224:160,2,140,2|0|0,0:0|0:0|0:0,0:0:0:0:
400,128,85987,5,8,0:0:0:0:
288,80,86139,1,0,0:0:0:0:
224,272,86291,1,0,0:0:0:0:
256,176,86443,1,0,0:0:0:0:
144,208,86596,2,0,L|272:112,1,140,2|0,0:0|0:0,0:0:0:0:
96,128,87509,2,0,L|128:96,2,35,0|0|0,0:0|0:0|2:2,0:0:0:0:
320,288,88119,2,0,P|288:320|256:320,1,70,0|8,0:0|0:0,0:0:0:0:
288,128,88728,6,0,P|256:96|224:96,1,70,0|2,0:0|0:0,0:0:0:0:
240,192,89337,1,0,0:0:0:0:
176,288,89489,1,0,0:0:0:0:
352,224,89641,1,0,2:2:0:0:
320,96,89946,2,0,P|256:32|224:64,1,140
256,192,90860,5,8,0:0:0:0:
160,256,91164,2,0,P|192:320|256:320,1,140
368,272,92078,1,0,0:0:0:0:
176,128,92383,1,0,0:0:0:0:
304,224,92535,1,0,0:0:0:0:
240,176,92687,1,0,2:2:0:0:
96,96,92992,2,0,P|112:64|160:48,1,70,0|8,0:0|0:0,0:0:0:0:
256,176,93601,5,0,0:0:0:0:
192,320,93905,2,0,P|224:352|256:352,2,70,2|0|0,0:0|0:0|0:0,0:0:0:0:
384,144,94819,2,0,L|400:176,2,35
304,256,95428,1,0,0:0:0:0:
208,144,95733,1,8,0:0:0:0:
144,272,96037,5,2,0:0:0:0:
272,160,96342,1,2,0:0:0:0:
128,160,96647,1,2,0:0:0:0:
224,304,96951,1,2,0:0:0:0:
384,240,97256,1,0,0:0:0:0:
448,112,97408,1,0,0:0:0:0:
416,176,97560,1,0,2:2:0:0:
352,96,97865,2,0,L|288:64,2,70,0|8|0,0:0|0:0|0:0,0:0:0:0:
128,128,98778,6,0,P|96:160|128:224,1,105,2|0,0:0|0:0,0:0:0:0:
256,256,99388,2,0,P|320:256|320:224,1,105,2|0,0:0|0:0,0:0:0:0:
288,64,99997,2,0,P|320:64|352:96,1,70,2|0,0:0|0:0,0:0:0:0:
256,192,100454,1,0,0:0:0:0:
128,160,100606,2,0,P|128:96|160:64,1,105,10|0,0:0|0:0,0:0:0:0:
416,96,101215,6,0,P|448:128|448:160,1,70,2|0,0:0|0:0,0:0:0:0:
416,256,101672,1,0,0:0:0:0:
224,256,101824,1,0,0:0:0:0:
320,192,101976,1,0,0:0:0:0:
288,320,102129,1,0,0:0:0:0:
384,128,102433,1,0,0:0:0:0:
128,192,102890,6,0,L|160:224,1,35,0|8,0:0|0:0,0:0:0:0:
224,64,103195,2,0,L|224:128,1,35
256,192,103499,1,0,0:0:0:0:
288,192,103652,2,0,L|416:96,2,140,2|0|0,0:0|0:0|0:0,0:0:0:0:
416,80,105174,5,0,0:0:0:0:
384,192,105327,1,0,0:0:0:0:
288,224,105479,1,8,0:0:0:0:
192,224,105631,1,0,0:0:0:0:
96,192,105784,1,0,0:0:0:0:
320,128,106088,2,0,L|176:144,2,140,2|0|0,0:0|0:0|0:0,0:0:0:0:
416,192,107611,5,0,0:0:0:0:
256,320,107916,1,8,0:0:0:0:
448,320,108220,1,0,0:0:0:0:
144,128,108525,2,0,P|224:96|240:96,2,70,2|0|0,0:0|0:0|0:0,0:0:0:0:
192,320,109438,5,0,0:0:0:0:
288,288,109591,1,0,0:0:0:0:
352,224,109743,1,0,2:2:0:0:
224,64,110048,1,0,0:0:0:0:
128,128,110352,2,0,P|112:176|96:224,1,70,8|0,0:0|0:0,0:0:0:0:
208,112,110961,1,2,3:3:0:0:
320,96,111266,2,0,P|352:144|336:176,1,70
128,96,111875,2,0,B|160:64|192:64|224:96|256:32,1,140
448,64,112789,5,8,0:0:0:0:
416,256,113093,1,0,0:0:0:0:
240,320,113398,2,0,P|160:288|160:272,1,105,2|0,0:0|0:0,0:0:0:0:
112,128,114007,2,0,L|224:112,1,105
96,224,114616,2,0,L|176:288,1,70,0|0,3:3|3:3,3:3:0:0:
368,208,115225,1,8,0:0:0:0:
160,192,115530,5,0,0:0:0:0:
160,112,115834,2,0,B|192:80|208:96|224:80|288:48,1,140,2|0,0:0|0:0,0:0:0:0:
368,112,116900,1,0,3:3:0:0:
368,112,117053,1,0,3:3:0:0:
368,176,117357,1,0,0:0:0:0:
368,176,117662,1,8,0:0:0:0:
64,112,117966,5,0,0:0:0:0:
256,192,118271,1,10,0:0:0:0:
256,192,118575,1,0,0:0:0:0:
288,96,118880,1,8,0:0:0:0:
416,160,119032,1,0,0:0:0:0:
384,320,119185,1,0,0:0:0:0:
288,256,119337,1,0,0:0:0:0:
256,192,119489,5,8,0:0:0:0:
256,192,119794,1,0,0:0:0:0:
192,64,120098,1,8,0:0:0:0:
96,160,120251,1,0,0:0:0:0:
192,160,120403,1,0,0:0:0:0:
128,288,120555,1,0,0:0:0:0:
256,192,120707,5,10,0:0:0:0:
256,192,121012,1,0,0:0:0:0:
64,336,121317,1,8,0:0:0:0:
160,176,121469,1,0,0:0:0:0:
176,272,121621,1,0,0:0:0:0:
64,128,121773,1,0,0:0:0:0:
224,112,121926,6,0,P|256:96|304:96,1,70,10|0,0:0|0:0,0:0:0:0:
432,128,122383,1,0,0:0:0:0:
368,272,122535,2,0,L|448:320,1,70,10|0,0:0|0:0,0:0:0:0:
320,336,122992,1,0,0:0:0:0:
224,288,123144,6,0,B|160:256|192:192|224:160|128:128|64:96,1,245,10|0,0:0|0:0,0:0:0:0:
208,96,124362,2,0,L|368:96,4,140,0|8|2|0|0,0:0|0:0|0:0|0:0|0:0,0:0:0:0:
255,192,127408,5,0,0:0:0:0:
256,192,127713,1,0,0:0:0:0:
384,256,128017,2,0,P|384:320|320:320,1,140,2|0,0:0|0:0,0:0:0:0:
32,224,129083,1,0,0:0:0:0:
64,128,129235,1,0,2:2:0:0:
256,64,129540,1,0,0:0:0:0:
448,160,129844,1,8,0:0:0:0:
320,320,130149,5,0,0:0:0:0:
320,96,130454,2,0,L|224:96,2,70,2|0|0,0:0|0:0|0:0,0:0:0:0:
32,160,131520,1,0,0:0:0:0:
128,256,131672,1,0,2:2:0:0:
384,288,131976,1,0,0:0:0:0:
224,192,132281,5,8,0:0:0:0:
224,192,132586,1,0,0:0:0:0:
128,64,132890,2,0,P|160:32|256:32,1,140,2|0,0:0|0:0,0:0:0:0:
256,192,133956,1,0,0:0:0:0:
256,192,134108,1,0,2:2:0:0:
256,320,134413,1,0,0:0:0:0:
416,224,134718,5,8,0:0:0:0:
224,160,135022,1,0,0:0:0:0:
320,96,135327,2,0,P|352:64|416:32,1,105,2|0,0:0|0:0,0:0:0:0:
416,128,135936,1,0,0:0:0:0:
224,224,136240,5,0,0:0:0:0:
224,256,136393,2,0,L|288:224,1,70
160,64,137002,1,0,0:0:0:0:
160,160,137154,1,8,0:0:0:0:
224,112,137459,1,0,0:0:0:0:
352,144,137763,5,2,0:0:0:0:
160,64,138068,2,0,L|224:32,1,70
272,112,138677,1,0,0:0:0:0:
192,208,138829,1,0,0:0:0:0:
64,272,138982,1,0,2:2:0:0:
176,96,139286,5,0,0:0:0:0:
256,288,139591,1,8,0:0:0:0:
368,112,139895,1,0,0:0:0:0:
416,160,140200,2,0,P|448:192|448:224,1,70,2|0,0:0|0:0,0:0:0:0:
64,64,140809,5,0,0:0:0:0:
272,112,141114,1,0,0:0:0:0:
176,160,141266,1,0,0:0:0:0:
112,240,141418,1,0,2:2:0:0:
320,288,141723,1,0,0:0:0:0:
224,176,141875,1,0,0:0:0:0:
96,64,142027,2,0,P|64:96|64:128,1,70,8|0,0:0|0:0,0:0:0:0:
320,224,142636,5,0,0:0:0:0:
112,272,142941,1,0,0:0:0:0:
112,64,143246,1,0,0:0:0:0:
320,176,143550,1,0,0:0:0:0:
160,224,143702,1,0,0:0:0:0:
464,64,143855,1,0,2:2:0:0:
400,256,144159,1,0,0:0:0:0:
320,160,144464,6,0,L|224:192,2,70,8|0|0,0:0|0:0|0:0,0:0:0:0:
256,96,145682,1,0,0:0:0:0:
256,192,145987,12,6,147509,2:2:0:0:
