osu file format v14

[General]
AudioFilename: audio.mp3
AudioLeadIn: 0
PreviewTime: 201
Countdown: 0
SampleSet: Normal
StackLeniency: 0.7
Mode: 1
LetterboxInBreaks: 0
EpilepsyWarning: 1
WidescreenStoryboard: 1

[Editor]
DistanceSpacing: 1.1
BeatDivisor: 4
GridSize: 32
TimelineZoom: 1.8

[Metadata]
Title:o i i a i o o o o o i a i
TitleUnicode:๏ เ เ ค เ ๏ ๏ ๏ ๏ ๏ เ ค เ
Artist:Hei Shou De Yu Tou
ArtistUnicode:黑瘦的鱼头
Creator:Yasuho
Version:law's futsuu
Source:
Tags:the law the_law pet the liku froskya gigachad dako cat meow electronic instrumental novelty psytrance oiiaioooooiai
BeatmapID:4233767
BeatmapSetID:2026688

[Difficulty]
HPDrainRate:8.5
CircleSize:2
OverallDifficulty:4
ApproachRate:6
SliderMultiplier:1.4
SliderTickRate:1

[Events]
//Background and Video events
0,0,"d36a14d04416075f24f1ea7c4841f2cb131f016c.jpg",0,30
Video,0,"output.mp4"
//Break Periods
//Storyboard Layer 0 (Background)
//Storyboard Layer 1 (Fail)
//Storyboard Layer 2 (Pass)
//Storyboard Layer 3 (Foreground)
//Storyboard Layer 4 (Overlay)
//Storyboard Sound Samples

[TimingPoints]
273,413.793103448276,4,1,0,30,1,0
1928,413.793103448276,4,1,0,30,1,8
3104,550.45871559633,4,1,0,30,1,0
5305,550.45871559633,4,1,0,30,1,8
6097,400,4,1,0,75,1,0
31697,-90.9090909090909,4,1,0,80,0,1
42797,-90.9090909090909,4,1,0,100,0,1
42897,-90.9090909090909,4,1,0,100,0,0
43297,-100,4,1,0,50,0,0
44297,-100,4,1,0,75,0,0
59197,-100,4,1,0,100,0,0

[HitObjects]
256,192,6097,5,4,0:0:0:0:
256,192,6497,1,8,0:0:0:0:
256,192,6797,1,0,0:0:0:0:
256,192,7097,1,0,0:0:0:0:
256,192,7297,1,8,0:0:0:0:
256,192,7697,1,0,0:0:0:0:
256,192,8097,1,8,0:0:0:0:
256,192,8397,1,0,0:0:0:0:
256,192,8697,1,0,0:0:0:0:
256,192,8897,1,8,0:0:0:0:
256,192,9097,1,8,0:0:0:0:
256,192,9297,1,0,0:0:0:0:
256,192,9697,1,8,0:0:0:0:
256,192,9997,1,0,0:0:0:0:
256,192,10297,1,0,0:0:0:0:
256,192,10497,1,8,0:0:0:0:
256,192,10897,1,0,0:0:0:0:
256,192,11297,1,8,0:0:0:0:
256,192,11697,1,0,0:0:0:0:
256,192,12497,1,4,0:0:0:0:
256,192,12897,1,8,0:0:0:0:
256,192,13197,1,0,0:0:0:0:
256,192,13497,1,0,0:0:0:0:
256,192,13697,1,8,0:0:0:0:
256,192,13897,1,8,0:0:0:0:
256,192,14097,1,0,0:0:0:0:
256,192,14497,1,8,0:0:0:0:
256,192,14797,1,0,0:0:0:0:
256,192,15097,1,8,0:0:0:0:
256,192,15297,1,8,0:0:0:0:
256,192,15697,1,4,0:0:0:0:
256,192,16097,1,8,0:0:0:0:
256,192,16397,1,0,0:0:0:0:
256,192,16697,1,8,0:0:0:0:
256,192,16897,1,0,0:0:0:0:
256,192,17097,1,8,0:0:0:0:
256,192,17297,1,0,0:0:0:0:
256,192,17697,1,0,0:0:0:0:
256,192,18097,1,8,0:0:0:0:
256,192,18297,1,8,0:0:0:0:
256,192,18497,1,8,0:0:0:0:
256,192,18897,1,4,0:0:0:0:
256,192,19697,1,0,0:0:0:0:
256,192,20097,1,8,0:0:0:0:
256,192,20297,1,0,0:0:0:0:
256,192,20497,1,8,0:0:0:0:
256,192,20697,1,0,0:0:0:0:
256,192,20897,1,8,0:0:0:0:
256,192,21297,1,0,0:0:0:0:
256,192,21497,1,0,0:0:0:0:
256,192,21697,1,8,0:0:0:0:
256,192,22097,1,0,0:0:0:0:
256,192,22497,1,8,0:0:0:0:
256,192,22897,1,0,0:0:0:0:
256,192,23097,1,0,0:0:0:0:
256,192,23297,1,8,0:0:0:0:
256,192,23497,1,0,0:0:0:0:
256,192,23697,1,8,0:0:0:0:
256,192,24097,1,8,0:0:0:0:
256,192,24497,1,0,0:0:0:0:
256,192,25297,1,4,0:0:0:0:
256,192,25697,1,8,0:0:0:0:
256,192,25897,1,8,0:0:0:0:
256,192,26097,1,0,0:0:0:0:
256,192,26297,1,0,0:0:0:0:
256,192,26497,1,8,0:0:0:0:
256,192,26897,1,8,0:0:0:0:
256,192,27097,1,0,0:0:0:0:
256,192,27297,1,8,0:0:0:0:
256,192,27697,1,0,0:0:0:0:
256,192,27897,1,0,0:0:0:0:
256,192,28097,1,8,0:0:0:0:
256,192,28497,1,0,0:0:0:0:
256,192,28897,1,8,0:0:0:0:
256,192,29097,1,8,0:0:0:0:
256,192,29297,1,0,0:0:0:0:
256,192,29497,1,0,0:0:0:0:
256,192,29697,1,8,0:0:0:0:
256,192,30097,1,4,0:0:0:0:
256,192,31697,1,4,0:0:0:0:
256,192,32097,1,8,0:0:0:0:
256,192,32297,1,8,0:0:0:0:
256,192,32497,1,0,0:0:0:0:
256,192,32697,1,0,0:0:0:0:
256,192,32897,1,8,0:0:0:0:
256,192,33297,1,8,0:0:0:0:
256,192,33497,1,8,0:0:0:0:
256,192,33697,1,0,0:0:0:0:
256,192,33897,1,8,0:0:0:0:
256,192,34097,1,0,0:0:0:0:
256,192,34297,1,0,0:0:0:0:
256,192,34497,1,8,0:0:0:0:
256,192,34897,1,0,0:0:0:0:
256,192,35297,1,8,0:0:0:0:
256,192,35497,1,0,0:0:0:0:
256,192,35697,1,8,0:0:0:0:
256,192,35897,1,8,0:0:0:0:
256,192,36097,1,8,0:0:0:0:
256,192,36497,1,0,0:0:0:0:
256,192,36697,1,0,0:0:0:0:
256,192,36897,1,8,0:0:0:0:
256,192,37097,1,8,0:0:0:0:
256,192,37297,1,0,0:0:0:0:
256,192,38097,1,8,0:0:0:0:
256,192,38397,1,0,0:0:0:0:
256,192,38697,1,8,0:0:0:0:
256,192,38997,1,0,0:0:0:0:
256,192,39297,1,8,0:0:0:0:
256,192,39497,1,0,0:0:0:0:
256,192,39697,1,8,0:0:0:0:
256,192,39997,1,8,0:0:0:0:
256,192,40297,1,0,0:0:0:0:
256,192,40597,1,0,0:0:0:0:
256,192,40897,1,8,0:0:0:0:
256,192,41297,1,0,0:0:0:0:
256,192,41497,1,0,0:0:0:0:
256,192,41697,1,8,0:0:0:0:
256,192,41897,1,0,0:0:0:0:
256,192,42297,1,0,0:0:0:0:
256,192,42497,1,8,0:0:0:0:
256,192,42897,1,4,0:0:0:0:
256,160,44497,1,0,0:0:0:0:
256,160,44897,1,8,0:0:0:0:
256,160,45297,1,0,0:0:0:0:
256,160,45563,1,8,0:0:0:0:
256,160,45697,1,8,0:0:0:0:
256,160,46097,1,0,0:0:0:0:
256,160,46363,1,8,0:0:0:0:
256,160,46497,1,0,0:0:0:0:
256,160,46897,1,8,0:0:0:0:
256,160,47697,1,0,0:0:0:0:
256,160,48097,1,8,0:0:0:0:
256,160,48497,1,0,0:0:0:0:
256,160,48763,1,8,0:0:0:0:
256,160,48897,1,8,0:0:0:0:
256,160,49297,1,0,0:0:0:0:
256,160,49563,1,0,0:0:0:0:
256,160,49697,1,0,0:0:0:0:
256,160,50097,1,8,0:0:0:0:
256,160,50897,1,0,0:0:0:0:
256,160,51297,1,8,0:0:0:0:
256,160,51697,1,8,0:0:0:0:
256,160,51963,1,0,0:0:0:0:
256,160,52097,1,0,0:0:0:0:
256,160,52497,1,0,0:0:0:0:
256,160,52763,1,8,0:0:0:0:
256,160,52897,1,0,0:0:0:0:
256,160,53297,1,8,0:0:0:0:
256,160,54097,1,0,0:0:0:0:
256,160,54497,1,8,0:0:0:0:
256,160,54897,1,0,0:0:0:0:
256,160,55163,1,8,0:0:0:0:
256,160,55297,1,8,0:0:0:0:
256,160,55697,1,0,0:0:0:0:
256,160,55963,1,0,0:0:0:0:
256,160,56097,1,8,0:0:0:0:
256,160,56497,1,8,0:0:0:0:
256,192,57297,5,0,0:0:0:0:
256,192,57697,1,0,0:0:0:0:
256,192,58097,1,0,0:0:0:0:
256,192,58497,1,0,0:0:0:0:
256,192,58897,1,0,0:0:0:0:
256,192,59297,12,0,60097,0:0:0:0:
