osu file format v14

[General]
AudioFilename: audio.mp3
AudioLeadIn: 0
PreviewTime: 201
Countdown: 0
SampleSet: Normal
StackLeniency: 0.7
Mode: 1
LetterboxInBreaks: 0
EpilepsyWarning: 1
WidescreenStoryboard: 1

[Editor]
DistanceSpacing: 1.1
BeatDivisor: 4
GridSize: 32
TimelineZoom: 1

[Metadata]
Title:o i i a i o o o o o i a i
TitleUnicode:๏ เ เ ค เ ๏ ๏ ๏ ๏ ๏ เ ค เ
Artist:Hei Shou De Yu Tou
ArtistUnicode:黑瘦的鱼头
Creator:Yasuho
Version:kantan
Source:
Tags:the law the_law pet the liku froskya gigachad dako cat meow electronic instrumental novelty psytrance oiiaioooooiai
BeatmapID:4241857
BeatmapSetID:2026688

[Difficulty]
HPDrainRate:9
CircleSize:7
OverallDifficulty:3
ApproachRate:10
SliderMultiplier:1.4
SliderTickRate:1

[Events]
//Background and Video events
0,0,"d36a14d04416075f24f1ea7c4841f2cb131f016c.jpg",0,30
Video,0,"output.mp4"
//Break Periods
//Storyboard Layer 0 (Background)
//Storyboard Layer 1 (Fail)
//Storyboard Layer 2 (Pass)
//Storyboard Layer 3 (Foreground)
//Storyboard Layer 4 (Overlay)
//Storyboard Sound Samples

[TimingPoints]
273,413.793103448276,4,1,0,30,1,0
273,-97.0873786407767,4,1,0,30,0,0
1928,413.793103448276,4,1,0,30,1,8
3104,550.45871559633,4,1,0,30,1,0
3104,-72.463768115942,4,1,0,30,0,0
5305,550.45871559633,4,1,0,30,1,8
6097,400,4,1,0,65,1,0
31697,-100,4,1,0,90,0,1
34697,-100,4,1,0,90,0,1
37897,-100,4,1,0,90,0,1
38697,-100,4,1,0,90,0,1
39897,-100,4,1,0,90,0,1
41097,-100,4,1,0,90,0,1
42897,-100,4,1,0,90,0,0
43897,-100,4,1,0,60,0,0
43997,-100,4,1,0,60,0,0
44097,-100,4,1,0,60,0,0
44197,-100,4,1,0,60,0,0
44297,-100,4,1,0,60,0,0
44397,-100,4,1,0,60,0,0
44497,-100,4,1,0,60,0,0
59292,-100,4,1,0,89,0,0

[HitObjects]
190,186,273,5,0,0:0:0:0:
190,186,686,1,8,0:0:0:0:
190,186,1100,1,0,0:0:0:0:
190,186,1514,1,8,0:0:0:0:
191,187,3104,1,0,0:0:0:0:
191,187,3654,1,8,0:0:0:0:
191,187,4204,1,8,0:0:0:0:
187,189,4755,1,0,0:0:0:0:
206,167,6097,1,0,0:0:0:0:
206,167,6497,1,8,0:0:0:0:
206,167,7297,1,8,0:0:0:0:
212,154,7697,1,0,0:0:0:0:
206,167,8097,1,8,0:0:0:0:
201,169,8897,1,0,0:0:0:0:
201,169,9297,1,0,0:0:0:0:
217,126,9697,1,8,0:0:0:0:
217,126,10497,1,8,0:0:0:0:
217,130,10897,1,0,0:0:0:0:
174,176,11297,1,8,0:0:0:0:
212,129,12497,1,8,0:0:0:0:
212,129,13297,1,0,0:0:0:0:
212,129,13697,1,8,0:0:0:0:
212,129,14097,1,8,0:0:0:0:
227,196,14897,1,0,0:0:0:0:
227,196,15297,1,8,0:0:0:0:
227,196,15697,1,0,0:0:0:0:
233,196,16497,1,0,0:0:0:0:
233,196,16897,1,8,0:0:0:0:
233,196,17297,1,8,0:0:0:0:
233,195,18897,1,0,0:0:0:0:
233,195,20097,1,8,0:0:0:0:
229,197,20497,1,8,0:0:0:0:
231,225,21297,1,0,0:0:0:0:
231,219,21697,1,8,0:0:0:0:
231,219,22097,1,0,0:0:0:0:
231,217,23297,1,8,0:0:0:0:
231,217,23697,1,8,0:0:0:0:
231,217,24497,1,0,0:0:0:0:
231,217,24897,1,0,0:0:0:0:
231,217,25297,1,8,0:0:0:0:
227,217,26497,1,8,0:0:0:0:
227,217,26897,1,8,0:0:0:0:
227,217,27697,1,0,0:0:0:0:
227,217,28097,1,8,0:0:0:0:
227,217,28497,1,0,0:0:0:0:
228,217,29697,1,8,0:0:0:0:
172,118,30097,2,0,B|603:113|180:118,1,420
226,232,31697,1,0,0:0:0:0:
257,194,32497,1,0,0:0:0:0:
261,192,32897,1,8,0:0:0:0:
257,194,33297,1,0,0:0:0:0:
179,160,34097,1,8,0:0:0:0:
255,191,34497,1,8,0:0:0:0:
260,192,34897,1,0,0:0:0:0:
255,191,35697,1,8,0:0:0:0:
191,210,36097,1,0,0:0:0:0:
255,191,36497,1,0,0:0:0:0:
255,191,37297,1,0,0:0:0:0:
255,191,37697,1,8,0:0:0:0:
255,191,38097,1,0,0:0:0:0:
235,161,38497,1,8,0:0:0:0:
235,161,39297,1,8,0:0:0:0:
235,161,39697,1,0,0:0:0:0:
173,164,40097,1,8,0:0:0:0:
239,160,40897,1,8,0:0:0:0:
239,160,41297,1,0,0:0:0:0:
239,160,41697,1,8,0:0:0:0:
191,95,42097,1,0,0:0:0:0:
239,160,42497,1,8,0:0:0:0:
239,160,42897,1,4,0:0:0:0:
240,159,44497,1,4,0:0:0:0:
219,226,44897,1,8,0:0:0:0:
203,116,45297,1,8,0:0:0:0:
222,226,45697,1,0,0:0:0:0:
226,226,46097,1,8,0:0:0:0:
178,120,46497,1,0,0:0:0:0:
226,226,47697,1,0,0:0:0:0:
185,122,48097,1,8,0:0:0:0:
160,80,48497,1,0,0:0:0:0:
185,122,48897,1,8,0:0:0:0:
226,225,49297,1,0,0:0:0:0:
207,60,49697,1,0,0:0:0:0:
226,225,50897,1,0,0:0:0:0:
155,108,51297,1,8,0:0:0:0:
226,225,51697,1,8,0:0:0:0:
226,225,52097,1,8,0:0:0:0:
226,225,52497,1,0,0:0:0:0:
226,225,52897,1,0,0:0:0:0:
226,225,53297,1,8,0:0:0:0:
226,225,54097,1,0,0:0:0:0:
216,88,54497,1,8,0:0:0:0:
175,177,54897,1,0,0:0:0:0:
226,225,55297,1,8,0:0:0:0:
154,157,55697,1,0,0:0:0:0:
226,225,56497,1,8,0:0:0:0:
163,144,56897,1,8,0:0:0:0:
226,225,57297,1,0,0:0:0:0:
219,203,58097,1,0,0:0:0:0:
219,203,58897,1,0,0:0:0:0:
219,203,59297,1,12,0:0:0:0:
