osu file format v14

[General]
AudioFilename: audio.ogg
AudioLeadIn: 0
PreviewTime: 31663
Countdown: 0
SampleSet: Normal
StackLeniency: 0.7
Mode: 3
LetterboxInBreaks: 0
EpilepsyWarning: 1
SpecialStyle: 0
WidescreenStoryboard: 1

[Editor]
Bookmarks: 12463,18863,31663,44463,57263
DistanceSpacing: 1.2
BeatDivisor: 4
GridSize: 8
TimelineZoom: 1.8

[Metadata]
Title:o i i a i o o o o o i a i
TitleUnicode:๏ เ เ ค เ ๏ ๏ ๏ ๏ ๏ เ ค เ
Artist:Hei Shou De Yu Tou
ArtistUnicode:黑瘦的鱼头
Creator:AelSan
Version:51121
Source:
Tags:Milthm oiiaioooooiai other video game Electronic psytrance Ghost Scout Project 鬼畜星探企划 鬼畜 鬼畜调教 喵星人 旋转猫 meme ThiccCat69 tiktok bilibili kichiku 鬼畜 旋转猫 thai seiran- lovely_hyahya AndreyChomik Revv- ERA Bengeut
BeatmapID:4104254
BeatmapSetID:1977087

[Difficulty]
HPDrainRate:8.5
CircleSize:4
OverallDifficulty:8.5
ApproachRate:5
SliderMultiplier:1.4
SliderTickRate:1

[Events]
//Background and Video events
0,0,"bg.jpg",0,0
Video,-27,"bga.mp4"
//Break Periods
//Storyboard Layer 0 (Background)
//Storyboard Layer 1 (Fail)
//Storyboard Layer 2 (Pass)
//Storyboard Layer 3 (Foreground)
//Storyboard Layer 4 (Overlay)
//Storyboard Sound Samples

[TimingPoints]
250,405.405405405405,4,1,1,5,1,0
250,-98.66666667,4,1,1,5,0,0
3087,545.454545454545,4,1,1,5,1,0
3087,-73.33333333,4,1,1,5,0,0
6063,400,4,1,1,30,1,0
6063,-100,4,1,1,30,0,0

[HitObjects]
320,192,250,5,0,0:0:0:0:
192,192,452,1,0,0:0:0:0:
192,192,554,1,0,0:0:0:0:
448,192,655,128,0,858:0:0:0:0:
320,192,858,1,0,0:0:0:0:
192,192,959,1,0,0:0:0:0:
64,192,1060,1,0,0:0:0:0:
192,192,1162,1,0,0:0:0:0:
192,192,1263,1,0,0:0:0:0:
192,192,1364,1,0,0:0:0:0:
448,192,1466,128,0,1668:0:0:0:0:
320,192,1668,1,0,0:0:0:0:
320,192,3087,1,0,0:0:0:0:
192,192,3359,1,0,0:0:0:0:
192,192,3496,1,0,0:0:0:0:
448,192,3632,128,0,3905:0:0:0:0:
320,192,3905,1,0,0:0:0:0:
192,192,4041,1,0,0:0:0:0:
64,192,4177,1,0,0:0:0:0:
192,192,4314,1,0,0:0:0:0:
192,192,4450,1,0,0:0:0:0:
192,192,4586,1,0,0:0:0:0:
448,192,4723,128,0,4996:0:0:0:0:
320,192,4996,1,0,0:0:0:0:
320,192,6063,1,0,0:0:0:0:
64,192,6063,1,0,0:0:0:0:
192,192,6263,1,0,0:0:0:0:
192,192,6363,1,0,0:0:0:0:
448,192,6463,1,0,0:0:0:0:
320,192,6463,1,0,0:0:0:0:
64,192,6663,1,0,0:0:0:0:
192,192,6763,1,0,0:0:0:0:
64,192,6863,1,0,0:0:0:0:
320,192,6863,1,0,0:0:0:0:
192,192,6963,1,0,0:0:0:0:
192,192,7063,1,0,0:0:0:0:
448,192,7163,1,0,0:0:0:0:
192,192,7263,1,0,0:0:0:0:
320,192,7263,1,0,0:0:0:0:
448,192,7363,1,0,0:0:0:0:
64,192,7463,1,0,0:0:0:0:
64,192,7563,1,0,0:0:0:0:
192,192,7663,1,0,0:0:0:0:
448,192,7663,1,0,0:0:0:0:
320,192,7863,1,0,0:0:0:0:
320,192,7963,1,0,0:0:0:0:
64,192,8063,1,0,0:0:0:0:
192,192,8063,1,0,0:0:0:0:
448,192,8263,1,0,0:0:0:0:
320,192,8363,1,0,0:0:0:0:
448,192,8463,1,0,0:0:0:0:
192,192,8463,1,0,0:0:0:0:
320,192,8563,1,0,0:0:0:0:
320,192,8663,1,0,0:0:0:0:
64,192,8763,1,0,0:0:0:0:
320,192,8863,1,0,0:0:0:0:
192,192,8863,1,0,0:0:0:0:
448,192,8963,1,0,0:0:0:0:
64,192,9013,1,0,0:0:0:0:
448,192,9063,1,0,0:0:0:0:
192,192,9163,1,0,0:0:0:0:
448,192,9263,1,0,0:0:0:0:
64,192,9263,1,0,0:0:0:0:
192,192,9463,1,0,0:0:0:0:
192,192,9563,1,0,0:0:0:0:
448,192,9663,1,0,0:0:0:0:
320,192,9663,1,0,0:0:0:0:
64,192,9863,1,0,0:0:0:0:
192,192,9963,1,0,0:0:0:0:
64,192,10063,1,0,0:0:0:0:
320,192,10063,1,0,0:0:0:0:
192,192,10163,1,0,0:0:0:0:
192,192,10263,1,0,0:0:0:0:
448,192,10363,1,0,0:0:0:0:
192,192,10463,1,0,0:0:0:0:
320,192,10463,1,0,0:0:0:0:
448,192,10563,1,0,0:0:0:0:
64,192,10663,1,0,0:0:0:0:
64,192,10763,1,0,0:0:0:0:
192,192,10863,1,0,0:0:0:0:
448,192,10863,1,0,0:0:0:0:
64,192,10963,1,0,0:0:0:0:
320,192,11063,1,0,0:0:0:0:
320,192,11163,1,0,0:0:0:0:
192,192,11163,1,0,0:0:0:0:
64,192,11263,1,0,0:0:0:0:
192,192,11263,1,0,0:0:0:0:
320,192,11363,1,0,0:0:0:0:
64,192,11463,1,0,0:0:0:0:
320,192,11563,1,0,0:0:0:0:
192,192,11563,1,0,0:0:0:0:
448,192,11663,1,0,0:0:0:0:
192,192,11663,1,0,0:0:0:0:
64,192,11663,1,0,0:0:0:0:
320,192,11763,1,0,0:0:0:0:
320,192,11863,1,0,0:0:0:0:
64,192,11963,1,0,0:0:0:0:
192,192,11963,1,0,0:0:0:0:
448,192,11963,1,0,0:0:0:0:
320,192,12063,1,0,0:0:0:0:
64,192,12063,1,0,0:0:0:0:
192,192,12163,1,0,0:0:0:0:
320,192,12263,1,0,0:0:0:0:
448,192,12263,1,0,0:0:0:0:
192,192,12363,1,0,0:0:0:0:
64,192,12363,1,0,0:0:0:0:
448,192,12463,1,0,0:0:0:0:
64,192,12463,1,0,0:0:0:0:
320,192,12463,1,0,0:0:0:0:
192,192,12663,1,0,0:0:0:0:
192,192,12763,1,0,0:0:0:0:
448,192,12863,1,0,0:0:0:0:
320,192,12863,1,0,0:0:0:0:
64,192,13063,1,0,0:0:0:0:
192,192,13163,1,0,0:0:0:0:
64,192,13263,1,0,0:0:0:0:
320,192,13263,1,0,0:0:0:0:
192,192,13363,1,0,0:0:0:0:
192,192,13463,1,0,0:0:0:0:
448,192,13563,1,0,0:0:0:0:
192,192,13663,1,0,0:0:0:0:
320,192,13663,1,0,0:0:0:0:
448,192,13763,1,0,0:0:0:0:
64,192,13863,1,0,0:0:0:0:
320,192,13863,1,0,0:0:0:0:
64,192,13963,1,0,0:0:0:0:
192,192,14063,1,0,0:0:0:0:
448,192,14063,1,0,0:0:0:0:
320,192,14063,1,0,0:0:0:0:
320,192,14263,1,0,0:0:0:0:
320,192,14363,1,0,0:0:0:0:
64,192,14463,1,0,0:0:0:0:
192,192,14463,1,0,0:0:0:0:
448,192,14663,1,0,0:0:0:0:
320,192,14763,1,0,0:0:0:0:
448,192,14863,1,0,0:0:0:0:
192,192,14863,1,0,0:0:0:0:
320,192,14963,1,0,0:0:0:0:
320,192,15063,1,0,0:0:0:0:
448,192,15063,1,0,0:0:0:0:
64,192,15163,1,0,0:0:0:0:
192,192,15163,1,0,0:0:0:0:
320,192,15263,1,0,0:0:0:0:
192,192,15263,1,0,0:0:0:0:
448,192,15363,1,0,0:0:0:0:
64,192,15413,1,0,0:0:0:0:
448,192,15463,1,0,0:0:0:0:
192,192,15563,1,0,0:0:0:0:
448,192,15663,1,0,0:0:0:0:
64,192,15663,1,0,0:0:0:0:
320,192,15663,1,0,0:0:0:0:
192,192,15863,1,0,0:0:0:0:
192,192,15963,1,0,0:0:0:0:
448,192,16063,1,0,0:0:0:0:
320,192,16063,1,0,0:0:0:0:
64,192,16263,1,0,0:0:0:0:
192,192,16363,1,0,0:0:0:0:
64,192,16463,1,0,0:0:0:0:
320,192,16463,1,0,0:0:0:0:
192,192,16563,1,0,0:0:0:0:
192,192,16663,1,0,0:0:0:0:
448,192,16663,1,0,0:0:0:0:
448,192,16763,1,0,0:0:0:0:
192,192,16863,1,0,0:0:0:0:
320,192,16863,1,0,0:0:0:0:
448,192,16963,1,0,0:0:0:0:
64,192,17063,1,0,0:0:0:0:
320,192,17063,1,0,0:0:0:0:
64,192,17163,1,0,0:0:0:0:
448,192,17263,1,0,0:0:0:0:
192,192,17263,1,0,0:0:0:0:
320,192,17263,1,0,0:0:0:0:
320,192,17463,1,0,0:0:0:0:
320,192,17563,1,0,0:0:0:0:
192,192,17663,1,0,0:0:0:0:
64,192,17663,1,0,0:0:0:0:
448,192,17863,1,0,0:0:0:0:
320,192,17963,1,0,0:0:0:0:
192,192,18063,1,0,0:0:0:0:
448,192,18063,1,0,0:0:0:0:
320,192,18163,1,0,0:0:0:0:
320,192,18263,1,0,0:0:0:0:
64,192,18263,1,0,0:0:0:0:
192,192,18363,1,0,0:0:0:0:
448,192,18363,1,0,0:0:0:0:
192,192,18463,1,0,0:0:0:0:
64,192,18463,1,0,0:0:0:0:
448,192,18563,1,0,0:0:0:0:
448,192,18663,1,0,0:0:0:0:
192,192,18663,1,0,0:0:0:0:
448,192,18763,1,0,0:0:0:0:
320,192,18763,1,0,0:0:0:0:
448,192,18863,1,0,0:0:0:0:
192,192,18863,1,0,0:0:0:0:
64,192,18863,1,0,0:0:0:0:
192,192,19063,1,0,0:0:0:0:
192,192,19163,1,0,0:0:0:0:
448,192,19263,1,0,0:0:0:0:
64,192,19263,1,0,0:0:0:0:
320,192,19263,1,0,0:0:0:0:
192,192,19363,1,0,0:0:0:0:
192,192,19463,1,0,0:0:0:0:
320,192,19463,1,0,0:0:0:0:
64,192,19563,1,0,0:0:0:0:
448,192,19563,1,0,0:0:0:0:
448,192,19663,1,0,0:0:0:0:
320,192,19663,1,0,0:0:0:0:
192,192,19763,1,0,0:0:0:0:
448,192,19863,1,0,0:0:0:0:
192,192,19863,1,0,0:0:0:0:
320,192,19963,1,0,0:0:0:0:
64,192,19963,1,0,0:0:0:0:
192,192,20063,1,0,0:0:0:0:
64,192,20063,1,0,0:0:0:0:
448,192,20063,1,0,0:0:0:0:
448,192,20263,1,0,0:0:0:0:
192,192,20263,1,0,0:0:0:0:
448,192,20363,1,0,0:0:0:0:
320,192,20363,1,0,0:0:0:0:
192,192,20463,1,0,0:0:0:0:
64,192,20463,1,0,0:0:0:0:
448,192,20563,1,0,0:0:0:0:
64,192,20663,1,0,0:0:0:0:
320,192,20663,1,0,0:0:0:0:
64,192,20763,1,0,0:0:0:0:
192,192,20763,1,0,0:0:0:0:
192,192,20863,1,0,0:0:0:0:
320,192,20863,1,0,0:0:0:0:
448,192,20863,1,0,0:0:0:0:
448,192,20963,1,0,0:0:0:0:
320,192,21063,1,0,0:0:0:0:
64,192,21063,1,0,0:0:0:0:
320,192,21163,1,0,0:0:0:0:
192,192,21163,1,0,0:0:0:0:
192,192,21263,1,0,0:0:0:0:
64,192,21263,1,0,0:0:0:0:
448,192,21463,1,0,0:0:0:0:
192,192,21463,1,0,0:0:0:0:
320,192,21563,1,0,0:0:0:0:
448,192,21563,1,0,0:0:0:0:
320,192,21663,1,0,0:0:0:0:
192,192,21663,1,0,0:0:0:0:
64,192,21663,1,0,0:0:0:0:
192,192,21763,1,0,0:0:0:0:
320,192,21863,1,0,0:0:0:0:
448,192,21863,1,0,0:0:0:0:
64,192,21913,1,0,0:0:0:0:
320,192,21963,1,0,0:0:0:0:
192,192,21963,1,0,0:0:0:0:
448,192,22063,1,0,0:0:0:0:
192,192,22063,1,0,0:0:0:0:
320,192,22263,1,0,0:0:0:0:
320,192,22363,1,0,0:0:0:0:
64,192,22363,1,0,0:0:0:0:
448,192,22463,1,0,0:0:0:0:
64,192,22463,1,0,0:0:0:0:
192,192,22463,1,0,0:0:0:0:
320,192,22563,1,0,0:0:0:0:
192,192,22663,1,0,0:0:0:0:
320,192,22663,1,0,0:0:0:0:
64,192,22763,1,0,0:0:0:0:
448,192,22763,1,0,0:0:0:0:
192,192,22863,1,0,0:0:0:0:
64,192,22863,1,0,0:0:0:0:
320,192,22963,1,0,0:0:0:0:
320,192,23063,1,0,0:0:0:0:
64,192,23063,1,0,0:0:0:0:
448,192,23163,1,0,0:0:0:0:
192,192,23163,1,0,0:0:0:0:
64,192,23263,1,0,0:0:0:0:
448,192,23263,1,0,0:0:0:0:
320,192,23263,1,0,0:0:0:0:
320,192,23363,1,0,0:0:0:0:
448,192,23463,1,0,0:0:0:0:
64,192,23463,1,0,0:0:0:0:
192,192,23563,1,0,0:0:0:0:
64,192,23563,1,0,0:0:0:0:
448,192,23663,1,0,0:0:0:0:
320,192,23663,1,0,0:0:0:0:
64,192,23863,1,0,0:0:0:0:
448,192,23863,1,0,0:0:0:0:
192,192,23963,1,0,0:0:0:0:
448,192,23963,1,0,0:0:0:0:
64,192,24063,1,0,0:0:0:0:
192,192,24063,1,0,0:0:0:0:
320,192,24063,1,0,0:0:0:0:
448,192,24163,1,0,0:0:0:0:
64,192,24263,1,0,0:0:0:0:
192,192,24263,1,0,0:0:0:0:
320,192,24363,1,0,0:0:0:0:
64,192,24363,1,0,0:0:0:0:
448,192,24463,1,0,0:0:0:0:
192,192,24463,1,0,0:0:0:0:
448,192,24563,1,0,0:0:0:0:
448,192,24663,1,0,0:0:0:0:
320,192,24663,1,0,0:0:0:0:
192,192,24763,1,0,0:0:0:0:
448,192,24863,1,0,0:0:0:0:
64,192,24863,1,0,0:0:0:0:
320,192,24863,1,0,0:0:0:0:
64,192,24963,1,0,0:0:0:0:
64,192,25063,1,0,0:0:0:0:
192,192,25063,1,0,0:0:0:0:
448,192,25163,1,0,0:0:0:0:
320,192,25163,1,0,0:0:0:0:
64,192,25263,1,0,0:0:0:0:
448,192,25263,1,0,0:0:0:0:
320,192,25263,1,0,0:0:0:0:
192,192,25463,1,0,0:0:0:0:
192,192,25563,1,0,0:0:0:0:
64,192,25663,1,0,0:0:0:0:
448,192,25663,1,0,0:0:0:0:
320,192,25663,1,0,0:0:0:0:
192,192,25763,1,0,0:0:0:0:
320,192,25863,1,0,0:0:0:0:
192,192,25863,1,0,0:0:0:0:
448,192,25963,1,0,0:0:0:0:
64,192,25963,1,0,0:0:0:0:
320,192,26063,1,0,0:0:0:0:
448,192,26063,1,0,0:0:0:0:
192,192,26163,1,0,0:0:0:0:
192,192,26263,1,0,0:0:0:0:
448,192,26263,1,0,0:0:0:0:
64,192,26363,1,0,0:0:0:0:
320,192,26363,1,0,0:0:0:0:
448,192,26463,1,0,0:0:0:0:
64,192,26463,1,0,0:0:0:0:
192,192,26463,1,0,0:0:0:0:
192,192,26663,1,0,0:0:0:0:
448,192,26663,1,0,0:0:0:0:
320,192,26763,1,0,0:0:0:0:
448,192,26763,1,0,0:0:0:0:
64,192,26863,1,0,0:0:0:0:
192,192,26863,1,0,0:0:0:0:
320,192,26963,1,0,0:0:0:0:
448,192,27063,1,0,0:0:0:0:
64,192,27063,1,0,0:0:0:0:
320,192,27163,1,0,0:0:0:0:
64,192,27163,1,0,0:0:0:0:
448,192,27263,1,0,0:0:0:0:
320,192,27263,1,0,0:0:0:0:
192,192,27263,1,0,0:0:0:0:
448,192,27363,1,0,0:0:0:0:
64,192,27463,1,0,0:0:0:0:
320,192,27463,1,0,0:0:0:0:
192,192,27563,1,0,0:0:0:0:
320,192,27563,1,0,0:0:0:0:
64,192,27663,1,0,0:0:0:0:
192,192,27663,1,0,0:0:0:0:
320,192,27763,1,0,0:0:0:0:
192,192,27863,1,0,0:0:0:0:
448,192,27863,1,0,0:0:0:0:
448,192,27963,1,0,0:0:0:0:
320,192,27963,1,0,0:0:0:0:
64,192,28063,1,0,0:0:0:0:
192,192,28063,1,0,0:0:0:0:
320,192,28063,1,0,0:0:0:0:
192,192,28163,1,0,0:0:0:0:
448,192,28263,1,0,0:0:0:0:
320,192,28263,1,0,0:0:0:0:
64,192,28313,1,0,0:0:0:0:
192,192,28363,1,0,0:0:0:0:
320,192,28363,1,0,0:0:0:0:
192,192,28463,1,0,0:0:0:0:
448,192,28463,1,0,0:0:0:0:
64,192,28463,1,0,0:0:0:0:
320,192,28663,1,0,0:0:0:0:
64,192,28763,1,0,0:0:0:0:
320,192,28763,1,0,0:0:0:0:
64,192,28863,1,0,0:0:0:0:
448,192,28863,1,0,0:0:0:0:
192,192,28863,1,0,0:0:0:0:
320,192,28963,1,0,0:0:0:0:
320,192,29063,1,0,0:0:0:0:
192,192,29063,1,0,0:0:0:0:
448,192,29163,1,0,0:0:0:0:
64,192,29163,1,0,0:0:0:0:
64,192,29263,1,0,0:0:0:0:
192,192,29263,1,0,0:0:0:0:
320,192,29363,1,0,0:0:0:0:
64,192,29463,1,0,0:0:0:0:
320,192,29463,1,0,0:0:0:0:
192,192,29563,1,0,0:0:0:0:
448,192,29563,1,0,0:0:0:0:
320,192,29663,1,0,0:0:0:0:
448,192,29663,1,0,0:0:0:0:
64,192,29663,1,0,0:0:0:0:
320,192,29763,1,0,0:0:0:0:
64,192,29863,1,0,0:0:0:0:
448,192,29863,1,0,0:0:0:0:
64,192,29963,1,0,0:0:0:0:
192,192,29963,1,0,0:0:0:0:
448,192,30063,1,0,0:0:0:0:
320,192,30063,1,0,0:0:0:0:
64,192,30163,1,0,0:0:0:0:
320,192,30263,1,0,0:0:0:0:
192,192,30363,1,0,0:0:0:0:
64,192,30363,1,0,0:0:0:0:
448,192,30463,1,0,0:0:0:0:
192,192,30563,1,0,0:0:0:0:
448,192,30663,1,0,0:0:0:0:
320,192,30663,1,0,0:0:0:0:
64,192,30763,1,0,0:0:0:0:
192,192,30763,1,0,0:0:0:0:
320,192,30863,1,0,0:0:0:0:
448,192,30863,1,0,0:0:0:0:
192,192,30963,1,0,0:0:0:0:
64,192,30963,1,0,0:0:0:0:
448,192,31063,1,0,0:0:0:0:
320,192,31063,1,0,0:0:0:0:
64,192,31163,1,0,0:0:0:0:
192,192,31163,1,0,0:0:0:0:
448,192,31263,1,0,0:0:0:0:
320,192,31263,1,0,0:0:0:0:
64,192,31263,1,0,0:0:0:0:
448,192,31663,1,0,0:0:0:0:
320,192,31663,1,0,0:0:0:0:
64,192,31663,1,0,0:0:0:0:
320,192,31763,1,0,0:0:0:0:
64,192,31863,1,0,0:0:0:0:
192,192,31863,1,0,0:0:0:0:
192,192,31963,1,0,0:0:0:0:
448,192,32063,1,0,0:0:0:0:
320,192,32063,1,0,0:0:0:0:
64,192,32063,1,0,0:0:0:0:
320,192,32163,1,0,0:0:0:0:
192,192,32263,1,0,0:0:0:0:
448,192,32263,1,0,0:0:0:0:
192,192,32363,1,0,0:0:0:0:
64,192,32363,1,0,0:0:0:0:
320,192,32463,1,0,0:0:0:0:
64,192,32463,1,0,0:0:0:0:
320,192,32563,1,0,0:0:0:0:
448,192,32563,1,0,0:0:0:0:
192,192,32663,1,0,0:0:0:0:
448,192,32663,1,0,0:0:0:0:
192,192,32763,1,0,0:0:0:0:
64,192,32763,1,0,0:0:0:0:
320,192,32863,1,0,0:0:0:0:
64,192,32863,1,0,0:0:0:0:
448,192,32863,1,0,0:0:0:0:
320,192,32963,1,0,0:0:0:0:
192,192,32963,1,0,0:0:0:0:
64,192,33063,1,0,0:0:0:0:
448,192,33063,1,0,0:0:0:0:
192,192,33163,1,0,0:0:0:0:
64,192,33163,1,0,0:0:0:0:
320,192,33263,1,0,0:0:0:0:
448,192,33263,1,0,0:0:0:0:
320,192,33363,1,0,0:0:0:0:
64,192,33363,1,0,0:0:0:0:
192,192,33463,1,0,0:0:0:0:
64,192,33463,1,0,0:0:0:0:
192,192,33563,1,0,0:0:0:0:
448,192,33563,1,0,0:0:0:0:
320,192,33663,1,0,0:0:0:0:
448,192,33663,1,0,0:0:0:0:
64,192,33663,1,0,0:0:0:0:
320,192,33763,1,0,0:0:0:0:
192,192,33763,1,0,0:0:0:0:
192,192,33863,1,0,0:0:0:0:
64,192,33863,1,0,0:0:0:0:
64,192,33963,1,0,0:0:0:0:
448,192,33963,1,0,0:0:0:0:
320,192,34063,1,0,0:0:0:0:
448,192,34063,1,0,0:0:0:0:
320,192,34163,1,0,0:0:0:0:
64,192,34163,1,0,0:0:0:0:
192,192,34263,1,0,0:0:0:0:
64,192,34263,1,0,0:0:0:0:
192,192,34363,1,0,0:0:0:0:
448,192,34363,1,0,0:0:0:0:
320,192,34463,1,0,0:0:0:0:
448,192,34463,1,0,0:0:0:0:
64,192,34463,1,0,0:0:0:0:
448,192,34663,1,0,0:0:0:0:
320,192,34663,1,0,0:0:0:0:
192,192,34763,1,0,0:0:0:0:
64,192,34763,1,0,0:0:0:0:
192,192,34863,1,0,0:0:0:0:
320,192,34863,1,0,0:0:0:0:
448,192,34863,1,0,0:0:0:0:
448,192,34963,1,0,0:0:0:0:
192,192,35063,1,0,0:0:0:0:
64,192,35063,1,0,0:0:0:0:
64,192,35163,1,0,0:0:0:0:
192,192,35263,1,0,0:0:0:0:
320,192,35263,1,0,0:0:0:0:
448,192,35263,1,0,0:0:0:0:
448,192,35363,1,0,0:0:0:0:
320,192,35463,1,0,0:0:0:0:
64,192,35463,1,0,0:0:0:0:
192,192,35563,1,0,0:0:0:0:
64,192,35563,1,0,0:0:0:0:
192,192,35663,1,0,0:0:0:0:
448,192,35663,1,0,0:0:0:0:
320,192,35763,1,0,0:0:0:0:
448,192,35763,1,0,0:0:0:0:
320,192,35863,1,0,0:0:0:0:
64,192,35863,1,0,0:0:0:0:
192,192,35963,1,0,0:0:0:0:
64,192,35963,1,0,0:0:0:0:
320,192,36063,1,0,0:0:0:0:
192,192,36063,1,0,0:0:0:0:
448,192,36063,1,0,0:0:0:0:
64,192,36163,1,0,0:0:0:0:
448,192,36163,1,0,0:0:0:0:
320,192,36263,1,0,0:0:0:0:
192,192,36263,1,0,0:0:0:0:
192,192,36363,1,0,0:0:0:0:
64,192,36363,1,0,0:0:0:0:
320,192,36463,1,0,0:0:0:0:
448,192,36463,1,0,0:0:0:0:
192,192,36563,1,0,0:0:0:0:
448,192,36563,1,0,0:0:0:0:
192,192,36663,1,0,0:0:0:0:
64,192,36663,1,0,0:0:0:0:
320,192,36763,1,0,0:0:0:0:
64,192,36763,1,0,0:0:0:0:
192,192,36863,1,0,0:0:0:0:
320,192,36863,1,0,0:0:0:0:
448,192,36863,1,0,0:0:0:0:
64,192,36963,1,0,0:0:0:0:
448,192,36963,1,0,0:0:0:0:
320,192,37063,1,0,0:0:0:0:
64,192,37063,1,0,0:0:0:0:
320,192,37163,1,0,0:0:0:0:
192,192,37163,1,0,0:0:0:0:
192,192,37263,1,0,0:0:0:0:
448,192,37263,1,0,0:0:0:0:
320,192,37363,1,0,0:0:0:0:
448,192,37363,1,0,0:0:0:0:
192,192,37463,1,0,0:0:0:0:
64,192,37463,1,0,0:0:0:0:
320,192,37563,1,0,0:0:0:0:
64,192,37563,1,0,0:0:0:0:
192,192,37663,1,0,0:0:0:0:
320,192,37663,1,0,0:0:0:0:
448,192,37663,1,0,0:0:0:0:
320,192,37863,1,0,0:0:0:0:
448,192,37863,1,0,0:0:0:0:
192,192,37963,1,0,0:0:0:0:
64,192,37963,1,0,0:0:0:0:
448,192,38063,1,0,0:0:0:0:
320,192,38063,1,0,0:0:0:0:
448,192,38163,1,0,0:0:0:0:
320,192,38163,1,0,0:0:0:0:
192,192,38263,1,0,0:0:0:0:
64,192,38263,1,0,0:0:0:0:
448,192,38363,1,0,0:0:0:0:
192,192,38363,1,0,0:0:0:0:
320,192,38363,1,0,0:0:0:0:
448,192,38463,1,0,0:0:0:0:
320,192,38463,1,0,0:0:0:0:
64,192,38463,1,0,0:0:0:0:
192,192,38563,1,0,0:0:0:0:
448,192,38663,1,0,0:0:0:0:
320,192,38663,1,0,0:0:0:0:
448,192,38763,1,0,0:0:0:0:
64,192,38763,1,0,0:0:0:0:
320,192,38763,1,0,0:0:0:0:
64,192,38863,1,0,0:0:0:0:
192,192,38863,1,0,0:0:0:0:
448,192,38963,1,0,0:0:0:0:
320,192,38963,1,0,0:0:0:0:
448,192,39063,1,0,0:0:0:0:
320,192,39063,1,0,0:0:0:0:
192,192,39163,1,0,0:0:0:0:
448,192,39263,1,0,0:0:0:0:
64,192,39263,1,0,0:0:0:0:
320,192,39263,1,0,0:0:0:0:
448,192,39363,1,0,0:0:0:0:
320,192,39363,1,0,0:0:0:0:
192,192,39463,1,0,0:0:0:0:
64,192,39463,1,0,0:0:0:0:
448,192,39563,1,0,0:0:0:0:
320,192,39563,1,0,0:0:0:0:
64,192,39663,1,0,0:0:0:0:
192,192,39663,1,0,0:0:0:0:
448,192,39663,1,0,0:0:0:0:
64,192,39763,1,0,0:0:0:0:
320,192,39863,1,0,0:0:0:0:
448,192,39863,1,0,0:0:0:0:
320,192,39963,1,0,0:0:0:0:
448,192,39963,1,0,0:0:0:0:
64,192,40063,1,0,0:0:0:0:
192,192,40063,1,0,0:0:0:0:
448,192,40063,1,0,0:0:0:0:
192,192,40163,1,0,0:0:0:0:
64,192,40163,1,0,0:0:0:0:
320,192,40263,1,0,0:0:0:0:
448,192,40263,1,0,0:0:0:0:
64,192,40363,1,0,0:0:0:0:
192,192,40363,1,0,0:0:0:0:
64,192,40463,1,0,0:0:0:0:
192,192,40463,1,0,0:0:0:0:
448,192,40563,1,0,0:0:0:0:
320,192,40563,1,0,0:0:0:0:
448,192,40663,1,0,0:0:0:0:
320,192,40663,1,0,0:0:0:0:
64,192,40763,1,0,0:0:0:0:
320,192,40763,1,0,0:0:0:0:
64,192,40863,1,0,0:0:0:0:
448,192,40863,1,0,0:0:0:0:
192,192,40863,1,0,0:0:0:0:
192,192,40963,1,0,0:0:0:0:
64,192,41063,1,0,0:0:0:0:
448,192,41063,1,0,0:0:0:0:
192,192,41163,1,0,0:0:0:0:
320,192,41163,1,0,0:0:0:0:
448,192,41263,1,0,0:0:0:0:
320,192,41263,1,0,0:0:0:0:
448,192,41363,1,0,0:0:0:0:
320,192,41363,1,0,0:0:0:0:
64,192,41463,1,0,0:0:0:0:
448,192,41463,1,0,0:0:0:0:
192,192,41563,1,0,0:0:0:0:
64,192,41563,1,0,0:0:0:0:
192,192,41663,1,0,0:0:0:0:
64,192,41663,1,0,0:0:0:0:
448,192,41663,1,0,0:0:0:0:
448,192,41763,1,0,0:0:0:0:
320,192,41763,1,0,0:0:0:0:
64,192,41863,1,0,0:0:0:0:
320,192,41863,1,0,0:0:0:0:
192,192,41963,1,0,0:0:0:0:
64,192,41963,1,0,0:0:0:0:
448,192,42063,1,0,0:0:0:0:
320,192,42063,1,0,0:0:0:0:
448,192,42163,1,0,0:0:0:0:
320,192,42163,1,0,0:0:0:0:
64,192,42263,1,0,0:0:0:0:
320,192,42263,1,0,0:0:0:0:
192,192,42363,1,0,0:0:0:0:
448,192,42363,1,0,0:0:0:0:
320,192,42463,1,0,0:0:0:0:
64,192,42463,1,0,0:0:0:0:
192,192,42463,1,0,0:0:0:0:
64,192,42563,1,0,0:0:0:0:
192,192,42563,1,0,0:0:0:0:
448,192,42663,1,0,0:0:0:0:
320,192,42663,1,0,0:0:0:0:
192,192,42763,1,0,0:0:0:0:
448,192,42763,1,0,0:0:0:0:
64,192,42863,128,0,43163:0:0:0:0:
320,192,42863,128,0,43163:0:0:0:0:
448,192,42863,128,0,43163:0:0:0:0:
448,192,43863,1,0,0:0:0:0:
448,192,43963,1,0,0:0:0:0:
64,192,44063,1,0,0:0:0:0:
320,192,44163,1,0,0:0:0:0:
192,192,44263,1,0,0:0:0:0:
64,192,44263,1,0,0:0:0:0:
448,192,44363,1,0,0:0:0:0:
192,192,44363,1,0,0:0:0:0:
448,192,44463,1,0,0:0:0:0:
320,192,44463,1,0,0:0:0:0:
64,192,44463,1,0,0:0:0:0:
320,192,44729,1,0,0:0:0:0:
448,192,44729,1,0,0:0:0:0:
448,192,44863,1,0,0:0:0:0:
64,192,44863,1,0,0:0:0:0:
320,192,44863,1,0,0:0:0:0:
320,192,44996,1,0,0:0:0:0:
192,192,44996,1,0,0:0:0:0:
192,192,45129,1,0,0:0:0:0:
64,192,45129,1,0,0:0:0:0:
448,192,45263,1,0,0:0:0:0:
64,192,45263,1,0,0:0:0:0:
192,192,45263,1,0,0:0:0:0:
448,192,45396,1,0,0:0:0:0:
320,192,45396,1,0,0:0:0:0:
192,192,45529,1,0,0:0:0:0:
64,192,45529,1,0,0:0:0:0:
192,192,45663,1,0,0:0:0:0:
64,192,45663,1,0,0:0:0:0:
448,192,45663,1,0,0:0:0:0:
448,192,45796,1,0,0:0:0:0:
320,192,45796,1,0,0:0:0:0:
192,192,45929,1,0,0:0:0:0:
320,192,45929,1,0,0:0:0:0:
448,192,46063,1,0,0:0:0:0:
192,192,46063,1,0,0:0:0:0:
64,192,46063,1,0,0:0:0:0:
192,192,46196,1,0,0:0:0:0:
64,192,46196,1,0,0:0:0:0:
448,192,46329,1,0,0:0:0:0:
320,192,46329,1,0,0:0:0:0:
448,192,46463,1,0,0:0:0:0:
320,192,46463,1,0,0:0:0:0:
64,192,46463,1,0,0:0:0:0:
192,192,46596,1,0,0:0:0:0:
64,192,46596,1,0,0:0:0:0:
320,192,46729,1,0,0:0:0:0:
448,192,46729,1,0,0:0:0:0:
192,192,46863,1,0,0:0:0:0:
448,192,46863,1,0,0:0:0:0:
64,192,46863,1,0,0:0:0:0:
192,192,46996,1,0,0:0:0:0:
64,192,46996,1,0,0:0:0:0:
192,192,47129,1,0,0:0:0:0:
448,192,47129,1,0,0:0:0:0:
448,192,47263,1,0,0:0:0:0:
64,192,47263,1,0,0:0:0:0:
320,192,47263,1,0,0:0:0:0:
192,192,47396,1,0,0:0:0:0:
64,192,47463,1,0,0:0:0:0:
320,192,47529,1,0,0:0:0:0:
448,192,47529,1,0,0:0:0:0:
192,192,47663,1,0,0:0:0:0:
64,192,47663,1,0,0:0:0:0:
448,192,47663,1,0,0:0:0:0:
192,192,47929,1,0,0:0:0:0:
64,192,47929,1,0,0:0:0:0:
448,192,48063,1,0,0:0:0:0:
192,192,48063,1,0,0:0:0:0:
64,192,48063,1,0,0:0:0:0:
320,192,48196,1,0,0:0:0:0:
448,192,48196,1,0,0:0:0:0:
64,192,48329,1,0,0:0:0:0:
192,192,48329,1,0,0:0:0:0:
448,192,48463,1,0,0:0:0:0:
192,192,48463,1,0,0:0:0:0:
64,192,48463,1,0,0:0:0:0:
320,192,48596,1,0,0:0:0:0:
192,192,48596,1,0,0:0:0:0:
320,192,48729,1,0,0:0:0:0:
448,192,48729,1,0,0:0:0:0:
448,192,48863,1,0,0:0:0:0:
64,192,48863,1,0,0:0:0:0:
192,192,48863,1,0,0:0:0:0:
64,192,48996,1,0,0:0:0:0:
192,192,48996,1,0,0:0:0:0:
320,192,49129,1,0,0:0:0:0:
448,192,49129,1,0,0:0:0:0:
448,192,49263,1,0,0:0:0:0:
64,192,49263,1,0,0:0:0:0:
320,192,49263,1,0,0:0:0:0:
64,192,49396,1,0,0:0:0:0:
192,192,49396,1,0,0:0:0:0:
320,192,49529,1,0,0:0:0:0:
448,192,49529,1,0,0:0:0:0:
192,192,49663,1,0,0:0:0:0:
448,192,49663,1,0,0:0:0:0:
64,192,49663,1,0,0:0:0:0:
192,192,49796,1,0,0:0:0:0:
64,192,49796,1,0,0:0:0:0:
320,192,49929,1,0,0:0:0:0:
448,192,49929,1,0,0:0:0:0:
448,192,50063,1,0,0:0:0:0:
320,192,50063,1,0,0:0:0:0:
64,192,50063,1,0,0:0:0:0:
320,192,50196,1,0,0:0:0:0:
192,192,50196,1,0,0:0:0:0:
64,192,50329,1,0,0:0:0:0:
192,192,50329,1,0,0:0:0:0:
448,192,50463,1,0,0:0:0:0:
320,192,50463,1,0,0:0:0:0:
64,192,50463,1,0,0:0:0:0:
192,192,50596,1,0,0:0:0:0:
64,192,50640,1,0,0:0:0:0:
320,192,50685,1,0,0:0:0:0:
448,192,50729,1,0,0:0:0:0:
192,192,50774,1,0,0:0:0:0:
448,192,50863,1,0,0:0:0:0:
320,192,50863,1,0,0:0:0:0:
64,192,50863,1,0,0:0:0:0:
320,192,50996,1,0,0:0:0:0:
448,192,50996,1,0,0:0:0:0:
192,192,51129,1,0,0:0:0:0:
64,192,51129,1,0,0:0:0:0:
448,192,51263,1,0,0:0:0:0:
64,192,51263,1,0,0:0:0:0:
192,192,51263,1,0,0:0:0:0:
192,192,51396,1,0,0:0:0:0:
320,192,51396,1,0,0:0:0:0:
320,192,51529,1,0,0:0:0:0:
448,192,51529,1,0,0:0:0:0:
64,192,51663,1,0,0:0:0:0:
448,192,51663,1,0,0:0:0:0:
320,192,51663,1,0,0:0:0:0:
64,192,51796,1,0,0:0:0:0:
192,192,51796,1,0,0:0:0:0:
320,192,51929,1,0,0:0:0:0:
448,192,51929,1,0,0:0:0:0:
320,192,52063,1,0,0:0:0:0:
448,192,52063,1,0,0:0:0:0:
64,192,52063,1,0,0:0:0:0:
64,192,52196,1,0,0:0:0:0:
192,192,52196,1,0,0:0:0:0:
320,192,52329,1,0,0:0:0:0:
192,192,52329,1,0,0:0:0:0:
64,192,52463,1,0,0:0:0:0:
320,192,52463,1,0,0:0:0:0:
448,192,52463,1,0,0:0:0:0:
320,192,52596,1,0,0:0:0:0:
448,192,52596,1,0,0:0:0:0:
64,192,52729,1,0,0:0:0:0:
192,192,52729,1,0,0:0:0:0:
64,192,52863,1,0,0:0:0:0:
192,192,52863,1,0,0:0:0:0:
448,192,52863,1,0,0:0:0:0:
320,192,52996,1,0,0:0:0:0:
448,192,52996,1,0,0:0:0:0:
192,192,53129,1,0,0:0:0:0:
64,192,53129,1,0,0:0:0:0:
320,192,53263,1,0,0:0:0:0:
64,192,53263,1,0,0:0:0:0:
448,192,53263,1,0,0:0:0:0:
320,192,53396,1,0,0:0:0:0:
448,192,53396,1,0,0:0:0:0:
320,192,53529,1,0,0:0:0:0:
64,192,53529,1,0,0:0:0:0:
64,192,53663,1,0,0:0:0:0:
448,192,53663,1,0,0:0:0:0:
192,192,53663,1,0,0:0:0:0:
320,192,53796,1,0,0:0:0:0:
448,192,53863,1,0,0:0:0:0:
192,192,53929,1,0,0:0:0:0:
64,192,53929,1,0,0:0:0:0:
320,192,54063,1,0,0:0:0:0:
448,192,54063,1,0,0:0:0:0:
64,192,54063,1,0,0:0:0:0:
320,192,54329,1,0,0:0:0:0:
448,192,54329,1,0,0:0:0:0:
64,192,54463,1,0,0:0:0:0:
320,192,54463,1,0,0:0:0:0:
448,192,54463,1,0,0:0:0:0:
192,192,54596,1,0,0:0:0:0:
64,192,54596,1,0,0:0:0:0:
448,192,54729,1,0,0:0:0:0:
320,192,54729,1,0,0:0:0:0:
64,192,54863,1,0,0:0:0:0:
320,192,54863,1,0,0:0:0:0:
448,192,54863,1,0,0:0:0:0:
192,192,54996,1,0,0:0:0:0:
320,192,54996,1,0,0:0:0:0:
192,192,55129,1,0,0:0:0:0:
64,192,55129,1,0,0:0:0:0:
64,192,55263,1,0,0:0:0:0:
448,192,55263,1,0,0:0:0:0:
320,192,55263,1,0,0:0:0:0:
448,192,55396,1,0,0:0:0:0:
320,192,55396,1,0,0:0:0:0:
192,192,55529,1,0,0:0:0:0:
64,192,55529,1,0,0:0:0:0:
64,192,55663,1,0,0:0:0:0:
448,192,55663,1,0,0:0:0:0:
192,192,55663,1,0,0:0:0:0:
448,192,55796,1,0,0:0:0:0:
320,192,55796,1,0,0:0:0:0:
192,192,55929,1,0,0:0:0:0:
64,192,55929,1,0,0:0:0:0:
320,192,56063,1,0,0:0:0:0:
64,192,56063,1,0,0:0:0:0:
448,192,56063,1,0,0:0:0:0:
320,192,56196,1,0,0:0:0:0:
448,192,56196,1,0,0:0:0:0:
192,192,56329,1,0,0:0:0:0:
64,192,56329,1,0,0:0:0:0:
64,192,56463,1,0,0:0:0:0:
192,192,56463,1,0,0:0:0:0:
448,192,56463,1,0,0:0:0:0:
192,192,56596,1,0,0:0:0:0:
320,192,56596,1,0,0:0:0:0:
448,192,56729,1,0,0:0:0:0:
320,192,56729,1,0,0:0:0:0:
64,192,56863,1,0,0:0:0:0:
192,192,56863,1,0,0:0:0:0:
448,192,56863,1,0,0:0:0:0:
192,192,56996,1,0,0:0:0:0:
64,192,57040,1,0,0:0:0:0:
320,192,57085,1,0,0:0:0:0:
448,192,57129,1,0,0:0:0:0:
192,192,57174,1,0,0:0:0:0:
448,192,57263,1,0,0:0:0:0:
320,192,57263,1,0,0:0:0:0:
64,192,57363,1,0,0:0:0:0:
64,192,57463,1,0,0:0:0:0:
64,192,57563,1,0,0:0:0:0:
192,192,57663,1,0,0:0:0:0:
448,192,57663,1,0,0:0:0:0:
320,192,57763,1,0,0:0:0:0:
320,192,57863,1,0,0:0:0:0:
320,192,57963,1,0,0:0:0:0:
192,192,58063,1,0,0:0:0:0:
64,192,58063,1,0,0:0:0:0:
448,192,58163,1,0,0:0:0:0:
448,192,58263,1,0,0:0:0:0:
448,192,58363,1,0,0:0:0:0:
320,192,58463,1,0,0:0:0:0:
64,192,58463,1,0,0:0:0:0:
192,192,58563,1,0,0:0:0:0:
192,192,58663,1,0,0:0:0:0:
192,192,58763,1,0,0:0:0:0:
448,192,58863,1,0,0:0:0:0:
320,192,58863,1,0,0:0:0:0:
64,192,58963,1,0,0:0:0:0:
64,192,59063,1,0,0:0:0:0:
64,192,59163,1,0,0:0:0:0:
320,192,59263,128,0,60063:0:0:0:0:
448,192,59263,128,0,60063:0:0:0:0:
192,192,59263,1,0,0:0:0:0:
