osu file format v14

[General]
AudioFilename: audio.mp3
AudioLeadIn: 0
PreviewTime: 44116
Countdown: 0
SampleSet: Soft
StackLeniency: 0.4
Mode: 0
LetterboxInBreaks: 0
WidescreenStoryboard: 1

[Editor]
Bookmarks: 1029,11187,21346,31505,44203,54362,64521,74679,84838,89917,101822
DistanceSpacing: 0.8
BeatDivisor: 4
GridSize: 32
TimelineZoom: 2.1

[Metadata]
Title:Shinobi Renka
TitleUnicode:忍恋花
Artist:Hei Jing
ArtistUnicode:黒脛
Creator:Realazy
Version:Crimson Blossom
Source:beatmania IIDX 24 SINOBUZ
Tags:Kalibe InternalLight Naotoshi Nao Tomori eiri- Ayyri LowAccuracySS Alheak Uberzolik 2dx iidx24 忍歌 NINKA Qrispy Joybox Tatsuma Iyama 伊山達也 Miyu Hoshitani BEMANI KONAMI
BeatmapID:1633541
BeatmapSetID:762307

[Difficulty]
HPDrainRate:6
CircleSize:4.5
OverallDifficulty:9
ApproachRate:9.3
SliderMultiplier:1.96
SliderTickRate:1

[Events]
//Background and Video events
0,0,"lunar.jpg",0,0
//Break Periods
//Storyboard Layer 0 (Background)
//Storyboard Layer 1 (Fail)
//Storyboard Layer 2 (Pass)
//Storyboard Layer 3 (Foreground)
//Storyboard Sound Samples

[TimingPoints]
1021,317.460317460317,4,2,1,60,1,0
1021,-133.333333333333,4,2,1,60,0,0
4830,-117.647058823529,4,2,1,60,0,0
5306,-86.9565217391302,4,2,1,60,0,0
6100,-117.647058823529,4,2,1,70,0,0
6179,-117.647058823529,4,2,1,60,0,0
6259,-117.647058823529,4,2,1,65,0,0
6338,-117.647058823529,4,2,1,60,0,0
6417,-117.647058823529,4,2,1,70,0,0
6497,-117.647058823529,4,2,1,60,0,0
6576,-117.647058823529,4,2,1,65,0,0
6655,-117.647058823529,4,2,1,60,0,0
6735,-117.647058823529,4,2,1,70,0,0
6814,-117.647058823529,4,2,1,60,0,0
6894,-117.647058823529,4,2,1,65,0,0
6973,-117.647058823529,4,2,1,60,0,0
7052,-117.647058823529,4,2,1,70,0,0
7132,-117.647058823529,4,2,1,60,0,0
7211,-117.647058823529,4,2,1,65,0,0
7290,-117.647058823529,4,2,1,60,0,0
7370,-117.647058823529,4,2,1,73,0,0
7449,-117.647058823529,4,2,1,63,0,0
7528,-117.647058823529,4,2,1,68,0,0
7608,-117.647058823529,4,2,1,63,0,0
7687,-117.647058823529,4,2,1,73,0,0
7767,-117.647058823529,4,2,1,63,0,0
7846,-117.647058823529,4,2,1,68,0,0
7925,-117.647058823529,4,2,1,63,0,0
8005,-117.647058823529,4,2,1,73,0,0
8084,-117.647058823529,4,2,1,63,0,0
8163,-117.647058823529,4,2,1,68,0,0
8243,-117.647058823529,4,2,1,63,0,0
8322,-117.647058823529,4,2,1,73,0,0
8401,-117.647058823529,4,2,1,63,0,0
8481,-117.647058823529,4,2,1,68,0,0
8560,-117.647058823529,4,2,1,63,0,0
8640,-117.647058823529,4,2,1,76,0,0
8719,-117.647058823529,4,2,1,66,0,0
8798,-117.647058823529,4,2,1,71,0,0
8878,-117.647058823529,4,2,1,66,0,0
8957,-117.647058823529,4,2,1,76,0,0
9036,-117.647058823529,4,2,1,66,0,0
9116,-117.647058823529,4,2,1,61,0,0
9195,-117.647058823529,4,2,1,66,0,0
9274,-117.647058823529,4,2,1,76,0,0
9354,-117.647058823529,4,2,1,66,0,0
9433,-117.647058823529,4,2,1,71,0,0
9513,-117.647058823529,4,2,1,66,0,0
9592,-117.647058823529,4,2,1,76,0,0
9671,-117.647058823529,4,2,1,66,0,0
9751,-117.647058823529,4,2,1,71,0,0
9830,-117.647058823529,4,2,1,66,0,0
9909,-117.647058823529,4,2,1,76,0,0
10862,-117.647058823529,4,3,2,76,0,0
11179,-100,4,1,1,70,0,0
13401,-100,4,3,2,70,0,0
13560,-100,4,1,1,70,0,0
15782,-100,4,3,2,70,0,0
15862,-100,4,1,1,70,0,0
18798,-250,4,1,1,50,0,0
19116,-83.3333333333333,4,3,2,50,0,0
19433,-250,4,1,1,50,0,0
19751,-83.3333333333333,4,3,2,50,0,0
20068,-125,4,1,1,50,0,0
20386,-100,4,3,2,50,0,0
21020,-83.3333333333333,4,3,2,70,0,0
21100,-83.3333333333333,4,1,1,70,0,0
21179,-83.3333333333333,4,3,2,70,0,0
21259,-83.3333333333333,4,1,1,70,0,0
21338,-100,4,1,2,70,0,0
21655,-83.3333333333333,4,1,2,70,0,0
21814,-100,4,1,2,70,0,0
22290,-90.9090909090909,4,1,2,70,0,0
22449,-111.111111111111,4,1,2,70,0,0
22925,-100,4,1,2,70,0,0
23084,-125,4,1,2,70,0,0
23560,-125,4,3,2,70,0,0
23719,-125,4,1,2,70,0,0
24195,-83.3333333333333,4,1,2,70,0,0
24354,-100,4,1,2,70,0,0
24830,-90.9090909090909,4,1,2,70,0,0
24989,-111.111111111111,4,1,2,70,0,0
25465,-76.9230769230769,4,1,2,70,0,0
25624,-90.9090909090909,4,1,2,70,0,0
25941,-90.9090909090909,4,3,2,70,0,0
26020,-90.9090909090909,4,1,2,70,0,0
26735,-83.3333333333333,4,1,2,70,0,0
26894,-100,4,1,2,70,0,0
27370,-90.9090909090909,4,1,2,70,0,0
27528,-111.111111111111,4,1,2,70,0,0
28005,-100,4,1,2,70,0,0
28163,-125,4,1,2,70,0,0
28640,-125,4,3,2,70,0,0
28798,-100,4,1,2,70,0,0
28957,-100,4,1,2,70,0,0
29274,-100,4,3,2,70,0,0
29433,-100,4,1,2,70,0,0
29909,-100,4,3,2,70,0,0
30068,-100,4,1,2,70,0,0
30544,-100,4,3,2,70,0,0
30624,-100,4,1,2,70,0,0
31497,-200,4,2,1,40,0,0
35306,-100,4,2,2,40,0,0
35941,-200,4,3,2,40,0,0
36576,-250,4,2,1,50,0,0
43560,-200,4,2,1,50,0,0
44195,-83.3333333333333,4,1,2,80,0,1
45941,-90.9090909090909,4,1,2,80,0,1
46735,-83.3333333333333,4,1,2,80,0,1
48481,-90.9090909090909,4,1,2,80,0,1
49274,-83.3333333333333,4,1,2,80,0,1
51814,-100,4,2,1,80,0,1
54354,-83.3333333333333,4,1,2,80,0,1
54671,-66.6666666666667,4,1,2,80,0,1
54830,-76.9230769230769,4,1,2,80,0,1
55306,-71.4285714285714,4,1,2,75,0,1
55465,-83.3333333333333,4,1,2,75,0,1
55941,-76.9230769230769,4,1,2,70,0,1
56100,-90.9090909090909,4,1,2,70,0,1
56576,-83.3333333333333,4,1,2,65,0,1
56735,-100,4,1,2,65,0,1
57211,-76.9230769230769,4,1,2,70,0,1
57370,-90.9090909090909,4,1,2,70,0,1
57846,-83.3333333333333,4,1,2,65,0,1
58005,-100,4,1,2,65,0,1
58163,-83.3333333333333,4,1,2,80,0,1
61973,-100,4,1,1,80,0,1
63243,-250,4,2,1,60,0,0
63878,-166.666666666667,4,2,1,50,0,0
64513,-76.9230769230769,4,1,2,80,0,1
65147,-76.9230769230769,4,1,1,80,0,1
65306,-76.9230769230769,4,1,2,80,0,1
66259,-83.3333333333333,4,1,2,80,0,1
66417,-83.3333333333333,4,1,1,80,0,1
66576,-83.3333333333333,4,1,2,80,0,1
67052,-90.9090909090909,4,1,2,80,0,1
67687,-90.9090909090909,4,1,1,80,0,1
69592,-76.9230769230769,4,1,2,80,0,1
70227,-76.9230769230769,4,1,1,80,0,1
70386,-76.9230769230769,4,1,2,80,0,1
71497,-76.9230769230769,4,1,1,80,0,1
71655,-76.9230769230769,4,1,2,80,0,1
72767,-76.9230769230769,4,1,1,80,0,1
72925,-76.9230769230769,4,1,2,80,0,1
73401,-76.9230769230769,4,1,2,70,0,1
73719,-76.9230769230769,4,1,2,75,0,1
74036,-76.9230769230769,4,1,1,80,0,1
74142,-76.9230769230769,4,1,2,80,0,1
74354,-76.9230769230769,4,1,2,85,0,1
74671,-76.9230769230769,4,1,2,80,0,1
75941,-83.3333333333333,4,1,2,80,0,1
76576,-90.9090909090909,4,1,1,80,0,1
76735,-90.9090909090909,4,1,2,80,0,1
77846,-76.9230769230769,4,1,2,80,0,1
78481,-83.3333333333333,4,1,2,80,0,1
79116,-90.9090909090909,4,1,2,80,0,1
80703,-90.9090909090909,4,1,2,75,0,1
81020,-90.9090909090909,4,1,2,70,0,1
81338,-90.9090909090909,4,1,2,65,0,1
81655,-125,4,1,2,60,0,1
81973,-90.9090909090909,4,1,2,80,0,1
84195,-90.9090909090909,4,1,1,80,0,1
84830,-100,4,2,1,70,0,0
85624,-90.9090909090909,4,3,2,70,0,0
86100,-100,4,2,1,70,0,0
86894,-90.9090909090909,4,3,2,70,0,0
87370,-100,4,2,1,70,0,0
88163,-90.9090909090909,4,3,2,70,0,0
88639,-100,4,2,1,70,0,0
88640,-83.3333333333333,4,2,1,70,0,0
89433,-100,4,3,2,70,0,0
89592,-100,4,2,1,70,0,0
89909,-100,4,2,1,70,0,0
89988,-100,4,3,2,60,0,0
90068,-100,4,3,2,65,0,0
90147,-100,4,3,2,60,0,0
90226,-100,4,3,2,70,0,0
90306,-100,4,3,2,60,0,0
90385,-100,4,3,2,65,0,0
90464,-100,4,3,2,60,0,0
90544,-100,4,3,2,70,0,0
90623,-100,4,3,2,60,0,0
90703,-100,4,3,2,65,0,0
90782,-100,4,3,2,60,0,0
90861,-100,4,3,2,70,0,0
90941,-100,4,3,2,60,0,0
91020,-100,4,3,2,65,0,0
91099,-100,4,3,2,60,0,0
91179,-100,4,3,2,73,0,0
91258,-100,4,3,2,63,0,0
91337,-100,4,3,2,68,0,0
91417,-100,4,3,2,63,0,0
91496,-100,4,3,2,73,0,0
91576,-100,4,3,2,63,0,0
91655,-100,4,3,2,68,0,0
91734,-100,4,3,2,63,0,0
91814,-100,4,3,2,73,0,0
91893,-100,4,3,2,63,0,0
91972,-100,4,3,2,68,0,0
92052,-100,4,3,2,63,0,0
92131,-100,4,3,2,73,0,0
92210,-100,4,3,2,63,0,0
92290,-100,4,3,2,68,0,0
92369,-100,4,3,2,63,0,0
92449,-100,4,3,2,76,0,0
92528,-100,4,3,2,66,0,0
92607,-100,4,3,2,71,0,0
92687,-100,4,3,2,66,0,0
92766,-100,4,3,2,76,0,0
92845,-100,4,3,2,66,0,0
92925,-100,4,3,2,61,0,0
93004,-100,4,3,2,66,0,0
93083,-100,4,3,2,76,0,0
93163,-100,4,3,2,66,0,0
93242,-100,4,3,2,71,0,0
93322,-100,4,3,2,66,0,0
93401,-100,4,3,2,76,0,0
93480,-100,4,3,2,66,0,0
93560,-100,4,3,2,71,0,0
93639,-100,4,3,2,66,0,0
93718,-100,4,3,2,76,0,0
93719,-100,4,3,2,76,0,0
93798,-100,4,3,2,66,0,0
93877,-100,4,3,2,71,0,0
93957,-100,4,3,2,66,0,0
94036,-100,4,3,2,76,0,0
94115,-100,4,3,2,66,0,0
94195,-100,4,3,2,61,0,0
94274,-100,4,3,2,66,0,0
94353,-100,4,3,2,76,0,0
94433,-100,4,3,2,66,0,0
94512,-100,4,3,2,71,0,0
94592,-100,4,3,2,66,0,0
94671,-100,4,3,2,76,0,0
94989,-100,4,3,2,76,0,0
95068,-100,4,3,2,66,0,0
95147,-100,4,3,2,71,0,0
95227,-100,4,3,2,66,0,0
95306,-100,4,3,2,76,0,0
95385,-100,4,3,2,66,0,0
95465,-100,4,3,2,61,0,0
95544,-100,4,3,2,66,0,0
95623,-100,4,3,2,76,0,0
95703,-100,4,3,2,66,0,0
95782,-100,4,3,2,71,0,0
95862,-100,4,3,2,66,0,0
95941,-100,4,3,2,76,0,0
96259,-100,4,3,2,76,0,0
96338,-100,4,3,2,66,0,0
96417,-100,4,3,2,71,0,0
96497,-100,4,3,2,66,0,0
96576,-100,4,3,2,76,0,0
96655,-100,4,3,2,66,0,0
96735,-100,4,3,2,61,0,0
96814,-100,4,3,2,66,0,0
96893,-100,4,3,2,76,0,0
96973,-100,4,3,2,66,0,0
97052,-100,4,3,2,71,0,0
97132,-100,4,3,2,66,0,0
97211,-100,4,3,2,76,0,0
97528,-100,4,2,1,80,0,0
97607,-100,4,2,1,70,0,0
97687,-100,4,2,1,75,0,0
97766,-100,4,2,1,70,0,0
97845,-100,4,2,1,80,0,0
97925,-100,4,2,1,70,0,0
98004,-100,4,2,1,75,0,0
98083,-100,4,2,1,70,0,0
98163,-100,4,2,1,80,0,0
98242,-100,4,2,1,70,0,0
98322,-100,4,2,1,75,0,0
98401,-100,4,2,1,70,0,0
98480,-100,4,2,1,80,0,0
98560,-100,4,2,1,70,0,0
98639,-100,4,2,1,75,0,0
98718,-100,4,2,1,70,0,0
98798,-100,4,2,1,83,0,0
98877,-100,4,2,1,73,0,0
98956,-100,4,2,1,78,0,0
99036,-100,4,2,1,83,0,0
99115,-100,4,2,1,83,0,0
99195,-100,4,2,1,73,0,0
99274,-100,4,2,1,78,0,0
99353,-100,4,2,1,73,0,0
99433,-100,4,2,1,83,0,0
99512,-100,4,2,1,73,0,0
99591,-100,4,2,1,78,0,0
99671,-100,4,2,1,73,0,0
99750,-100,4,2,1,83,0,0
99829,-100,4,2,1,73,0,0
99909,-100,4,2,1,78,0,0
99988,-100,4,2,1,73,0,0
100068,-100,4,3,2,86,0,0

[Colours]
Combo1 : 156,122,186
Combo2 : 230,147,190
Combo3 : 114,156,207
Combo4 : 220,86,120

[HitObjects]
30,51,1021,5,0,1:0:0:0:
31,62,1100,1,0,1:0:0:0:
33,73,1179,1,0,1:0:0:0:
34,84,1259,1,0,1:0:0:0:
36,95,1338,2,0,L|40:131,1,36.7500014019013,0|0,1:0|1:0,1:1:0:0:
63,313,1497,1,4,0:0:0:0:
63,313,1814,1,0,1:0:0:0:
63,313,2290,5,0,1:0:0:0:
74,312,2369,1,0,1:0:0:0:
85,310,2448,1,0,1:0:0:0:
96,309,2528,1,0,1:0:0:0:
107,307,2607,2,0,L|143:302,1,36.7500014019013,0|0,1:0|1:0,1:1:0:0:
289,281,2766,1,4,0:0:0:0:
289,281,3083,1,0,1:0:0:0:
289,281,3560,5,0,1:0:0:0:
288,270,3639,1,0,1:0:0:0:
286,259,3718,1,0,1:0:0:0:
285,248,3798,1,0,1:0:0:0:
283,237,3877,2,0,L|278:200,1,36.7500014019013,0|0,1:0|1:0,1:1:0:0:
263,91,4036,1,4,0:1:0:0:
263,91,4353,1,0,1:0:0:0:
263,91,4830,6,0,L|222:95,1,41.6500007944107,8|0,0:0|0:0,0:0:0:0:
144,158,4989,1,0,1:0:0:0:
185,162,5068,1,0,1:0:0:0:
226,166,5147,1,0,1:0:0:0:
502,192,5306,6,0,P|424:176|375:240,1,169.050003224373,4|0,0:0|0:0,0:0:0:0:
347,305,5624,1,4,0:1:0:0:
420,142,5782,1,0,1:0:0:0:
455,372,5941,1,4,1:2:0:0:
238,238,6100,5,8,1:2:0:0:
212,226,6179,1,0,1:2:0:0:
182,225,6258,1,8,1:2:0:0:
154,234,6338,1,0,1:2:0:0:
132,252,6417,1,10,1:2:0:0:
101,263,6496,1,8,1:2:0:0:
68,262,6575,1,8,1:2:0:0:
38,249,6655,1,8,1:2:0:0:
15,225,6735,5,8,1:2:0:0:
0,192,6814,1,0,1:2:0:0:
0,155,6893,1,8,1:2:0:0:
16,122,6973,1,0,1:2:0:0:
43,98,7052,1,10,1:2:0:0:
78,88,7131,1,8,1:2:0:0:
114,92,7210,1,8,1:2:0:0:
146,110,7290,1,8,1:2:0:0:
167,140,7370,5,8,1:2:0:0:
137,128,7449,1,0,1:2:0:0:
117,102,7528,1,8,1:2:0:0:
114,70,7608,1,0,1:2:0:0:
129,41,7687,1,10,1:2:0:0:
159,22,7767,1,8,1:2:0:0:
195,24,7846,1,8,1:2:0:0:
223,47,7926,1,8,1:2:0:0:
232,83,8005,5,8,1:2:0:0:
247,119,8084,1,0,1:2:0:0:
279,143,8163,1,8,1:2:0:0:
319,146,8243,1,0,1:2:0:0:
354,128,8322,1,10,1:2:0:0:
393,108,8401,1,8,1:2:0:0:
436,113,8480,1,8,1:2:0:0:
470,140,8560,1,8,1:2:0:0:
484,181,8640,5,8,1:2:0:0:
449,169,8719,1,0,1:2:0:0:
414,175,8798,1,8,1:2:0:0:
385,197,8878,1,0,1:2:0:0:
371,230,8957,1,10,1:2:0:0:
354,267,9036,1,8,1:2:0:0:
321,289,9115,1,8,1:2:0:0:
281,291,9195,1,8,1:2:0:0:
246,272,9274,5,8,1:2:0:0:
215,242,9353,1,0,1:2:0:0:
173,234,9432,1,8,1:2:0:0:
133,250,9512,1,0,1:2:0:0:
109,287,9592,1,10,1:2:0:0:
110,334,9671,1,8,1:2:0:0:
139,371,9750,1,8,1:2:0:0:
184,383,9830,1,8,1:2:0:0:
228,366,9909,5,8,0:0:0:0:
248,374,9989,2,0,L|288:363,1,41.6500007944107,8|0,0:3|0:0,0:0:0:0:
368,330,10147,5,8,0:3:0:0:
387,337,10227,1,4,0:3:0:0:
407,331,10306,1,4,0:3:0:0:
428,326,10385,1,8,0:0:0:0:
428,326,10862,5,2,0:0:0:0:
309,81,11179,5,4,0:0:0:0:
249,266,11338,1,0,0:0:0:0:
371,203,11497,1,10,2:0:0:0:
186,143,11656,1,0,0:0:0:0:
341,19,11814,2,0,P|378:78|346:140,1,147,0|0,0:0|0:0,0:0:0:0:
309,81,12132,1,10,2:0:0:0:
405,265,12290,6,0,P|334:264|301:202,1,147,0|0,0:0|0:0,0:0:0:0:
371,203,12608,1,0,0:0:0:0:
283,349,12767,1,10,2:0:0:0:
407,341,12925,1,0,0:0:0:0:
232,236,13084,1,0,0:0:0:0:
438,132,13243,5,8,2:0:0:0:
283,349,13401,1,10,0:0:0:0:
173,106,13560,1,0,0:0:0:0:
71,292,13719,5,4,0:2:0:0:
232,236,13878,1,0,0:0:0:0:
31,180,14036,1,10,0:2:0:0:
232,236,14195,1,0,0:0:0:0:
116,53,14354,2,0,P|96:96|104:144,1,98,0|0,0:0|1:0,0:0:0:0:
140,218,14592,1,0,1:0:0:0:
140,218,14671,1,10,2:0:0:0:
280,124,14830,6,0,B|178:108|178:108|218:91,1,147,0|0,0:0|0:0,0:0:0:0:
316,66,15147,1,8,2:0:0:0:
316,66,15306,1,8,2:0:0:0:
232,236,15465,1,0,0:0:0:0:
250,29,15624,1,8,2:0:0:0:
423,183,15782,5,10,0:0:0:0:
399,179,15861,1,0,0:0:0:0:
375,175,15940,1,10,2:0:0:0:
214,359,16100,1,8,2:0:0:0:
264,351,16179,1,8,2:0:0:0:
312,343,16258,5,4,0:0:0:0:
186,178,16417,1,0,0:0:0:0:
70,368,16576,1,10,2:0:0:0:
249,266,16735,1,0,0:0:0:0:
35,168,16894,2,0,P|61:231|130:226,1,147,0|0,0:0|0:0,0:0:0:0:
186,178,17211,1,10,2:0:0:0:
401,256,17370,6,0,P|374:319|305:314,1,147,0|0,0:0|0:0,0:0:0:0:
249,266,17687,1,0,0:0:0:0:
439,368,17846,1,10,2:0:0:0:
433,153,18005,1,0,0:0:0:0:
305,314,18163,5,0,0:0:0:0:
506,232,18322,1,8,0:2:0:0:
263,132,18481,1,10,2:0:0:0:
506,34,18640,2,0,L|480:75,1,49,0|0,0:0|0:0,0:0:0:0:
384,228,18798,6,0,P|355:234|327:229,1,58.8,4|0,0:0|2:0,0:0:0:0:
327,229,19116,6,0,P|381:249|432:224,1,117.599996411133,6|0,0:0|0:0,0:0:0:0:
249,75,19433,6,0,L|263:132,1,58.8,12|0,2:0|2:0,0:0:0:0:
263,132,19751,6,0,L|274:15,1,117.599996411133,6|8,0:0|0:0,0:0:0:0:
200,18,19989,1,0,0:0:0:0:
200,18,20068,6,0,P|161:22|127:3,1,78.4,4|0,0:0|0:0,0:0:0:0:
32,178,20386,2,0,P|67:146|116:144,2,98,6|0|4,0:0|0:0|0:0,0:0:0:0:
96,214,20862,5,2,0:3:0:0:
42,79,21020,2,0,P|70:70|99:69,1,58.7999982055665,10|0,0:0|0:0,0:0:0:0:
224,206,21179,2,0,P|194:204|166:196,1,58.7999982055665,2|0,0:0|0:0,0:0:0:0:
363,102,21338,6,0,P|380:148|371:195,1,98,4|0,0:0|0:0,0:0:0:0:
269,354,21655,6,0,B|239:360|239:360|212:351,1,58.7999982055665,10|0,0:0|0:0,0:0:0:0:
344,327,21814,2,0,B|276:308|276:308|214:351,1,147,2|0,0:0|3:0,0:0:0:0:
159,302,22132,1,0,0:0:0:0:
259,38,22290,6,0,P|286:40|311:51,1,53.9000016448975,10|0,0:0|0:0,0:0:0:0:
186,51,22449,2,0,P|248:70|311:51,1,132.299995962525,2|0,0:0|3:0,0:0:0:0:
389,70,22767,1,0,0:0:0:0:
310,259,22925,6,0,B|317:211,1,49,10|0,0:0|0:0,0:0:0:0:
334,326,23084,2,0,B|317:209,1,117.6,2|0,0:0|3:0,0:0:0:0:
306,135,23401,5,8,0:0:0:0:
269,379,23560,1,8,0:0:0:0:
499,290,23719,1,2,0:0:0:0:
246,183,23878,5,4,0:0:0:0:
246,183,24036,1,0,0:0:0:0:
103,301,24195,2,0,B|134:300|134:300|158:286,1,58.7999982055665,10|0,0:0|0:0,0:0:0:0:
25,280,24354,2,0,B|92:251|92:251|157:285,1,147,2|0,0:0|3:0,0:0:0:0:
219,332,24671,1,0,0:0:0:0:
394,239,24830,6,0,L|384:186,1,53.9000016448975,10|0,0:0|0:0,0:0:0:0:
353,314,24989,2,0,L|383:185,1,132.299995962525,2|0,0:0|0:0,0:0:0:0:
395,114,25306,1,10,0:0:0:0:
201,200,25465,6,0,P|232:198|263:208,1,63.6999970840455,10|0,0:0|0:0,0:0:0:0:
107,207,25624,2,0,B|146:187|185:207|185:207|224:227|263:208,1,161.700004934693,2|0,0:0|3:0,0:0:0:0:
333,172,25941,1,10,0:0:0:0:
358,178,26020,1,0,0:0:0:0:
384,185,26100,1,10,0:0:0:0:
486,359,26259,1,10,0:0:0:0:
436,347,26338,1,8,0:0:0:0:
384,333,26418,5,12,0:0:0:0:
274,125,26576,1,0,0:0:0:0:
149,325,26735,6,0,L|92:310,1,58.7999982055665,10|0,0:0|0:0,0:0:0:0:
235,274,26894,2,0,L|92:310,1,147,2|0,0:0|0:0,0:0:0:0:
16,330,27211,1,0,0:0:0:0:
116,137,27370,6,0,B|123:164|123:164|116:190,1,53.9000016448975,10|0,0:0|0:0,0:0:0:0:
99,67,27528,2,0,B|83:131|83:131|116:188,1,132.299995962525,2|0,0:0|3:0,0:0:0:0:
169,238,27846,1,0,0:0:0:0:
317,115,28005,6,0,P|293:120|273:134,1,49,10|0,0:0|0:0,0:0:0:0:
382,137,28163,2,0,P|327:155|273:134,1,117.6,2|0,0:0|0:0,0:0:0:0:
214,80,28481,5,8,0:0:0:0:
327,256,28640,1,10,0:0:0:0:
438,43,28798,1,2,0:0:0:0:
250,219,28957,6,0,P|242:266|261:310,1,98,0|0,0:0|0:0,0:0:0:0:
405,219,29274,2,0,P|413:266|394:310,1,98,10|0,0:0|0:0,0:0:0:0:
214,80,29592,5,0,0:0:0:0:
168,266,29751,1,0,0:0:0:0:
442,81,29909,5,10,0:0:0:0:
488,267,30068,1,0,0:0:0:0:
267,31,30227,5,0,0:0:0:0:
234,11,30306,1,0,0:0:0:0:
195,11,30385,1,8,0:0:0:0:
162,32,30465,1,0,0:0:0:0:
146,67,30544,1,10,0:0:0:0:
149,105,30623,1,0,0:0:0:0:
173,136,30703,1,8,0:0:0:0:
210,150,30782,1,0,0:0:0:0:
248,143,30862,6,0,P|271:147|294:157,1,49,2|0,0:0|0:0,0:0:0:0:
304,360,31020,1,10,0:0:0:0:
266,365,31099,1,10,0:0:0:0:
227,370,31179,5,10,0:0:0:0:
231,321,31258,1,8,0:0:0:0:
257,280,31338,1,10,0:0:0:0:
299,257,31417,1,8,0:0:0:0:
348,256,31497,6,0,B|389:263|425:245|425:245|451:210|425:158|425:158|390:109|329:96|288:158|332:218|391:206|425:158|425:158|444:87|444:87|466:33|523:19|578:72|537:137|481:132|444:87|444:87|404:45|331:51|298:84|298:84|265:117|213:138|162:114|131:55|157:1|210:-12|239:7|234:43,1,1176,6|2,0:0|0:0,0:0:0:0:
204,185,35941,5,0,0:0:0:0:
162,313,36576,6,0,B|161:357|195:375|195:375|240:350|259:286|216:233|157:222|114:260|114:260|113:194|187:163|242:196|242:196|199:171|183:125|206:75,2,627.2,14|6|6,0:0|0:0|0:0,0:0:0:0:
159,318,42925,6,0,B|187:305|215:318|215:318|244:330|272:318,1,117.6,0|0,0:0|0:0,0:0:0:0:
318,256,43560,2,0,P|287:201|243:247,1,147,0|0,0:0|0:0,0:0:0:0:
489,377,44195,5,6,0:0:0:0:
362,144,44354,1,0,0:0:0:0:
218,362,44513,1,10,0:0:0:0:
488,174,44671,1,0,3:0:0:0:
318,366,44830,2,0,P|300:311|317:256,1,117.599996411133,2|0,0:0|0:0,0:0:0:0:
489,67,45147,1,10,0:0:0:0:
489,286,45306,1,0,3:0:0:0:
254,165,45465,5,2,0:0:0:0:
254,165,45624,2,0,P|307:139|363:151,1,117.599996411133,0|10,0:0|0:0,0:0:0:0:
151,235,45942,2,0,P|104:211|51:217,1,107.800003289795,0|2,2:0|0:0,0:0:0:0:
259,288,46259,1,2,0:0:0:0:
181,68,46417,1,10,0:0:0:0:
83,323,46576,1,0,0:0:0:0:
87,349,46655,1,0,0:0:0:0:
91,376,46734,5,2,0:0:0:0:
359,316,46894,1,0,0:0:0:0:
185,113,47052,1,10,0:0:0:0:
215,369,47211,1,0,3:0:0:0:
402,164,47370,2,0,P|456:145|510:163,1,117.599996411133,2|0,0:0|0:0,0:0:0:0:
359,316,47687,1,10,0:0:0:0:
286,113,47846,1,0,3:0:0:0:
458,231,48005,5,2,0:0:0:0:
458,231,48163,2,0,L|434:346,1,117.599996411133,0|10,0:0|0:0,0:0:0:0:
229,194,48481,2,0,L|250:299,1,107.800003289795,0|2,3:0|0:0,0:0:0:0:
393,164,48798,1,0,0:0:0:0:
391,137,48877,1,0,0:0:0:0:
389,111,48957,2,0,L|378:163,1,53.9000016448975,2|0,0:0|3:0,0:0:0:0:
266,378,49116,1,0,3:0:0:0:
171,133,49274,6,0,P|223:109|278:127,1,117.599996411133,2|0,0:0|0:0,0:0:0:0:
89,151,49592,2,0,P|95:93|137:54,1,117.599996411133,10|0,0:0|3:0,0:0:0:0:
204,275,49909,6,0,P|197:332|155:371,1,117.599996411133,2|0,0:0|0:0,0:0:0:0:
229,194,50227,2,0,P|275:228|287:284,1,117.599996411133,10|0,0:0|3:0,0:0:0:0:
65,231,50544,6,0,P|18:196|6:140,1,117.599996411133,2|0,0:0|0:0,0:0:0:0:
122,293,50862,2,0,P|69:316|14:298,1,117.599996411133,10|0,0:0|3:0,0:0:0:0:
229,194,51179,5,2,0:0:0:0:
442,339,51338,1,2,0:0:0:0:
442,339,51418,1,0,0:0:0:0:
442,339,51497,1,8,0:0:0:0:
312,121,51655,1,0,0:0:0:0:
163,324,51814,6,0,L|166:356,2,32.6666666666667,4|0|0,0:1|0:0|0:0,0:0:0:0:
239,295,51973,2,0,L|235:327,2,32.6666666666667,0|0|0,0:0|0:0|0:0,0:0:0:0:
176,244,52132,1,4,0:1:0:0:
352,383,52290,1,0,0:0:0:0:
502,121,52449,5,8,0:0:0:0:
489,122,52528,1,0,0:0:0:0:
477,123,52608,1,0,0:0:0:0:
465,124,52687,1,0,0:0:0:0:
453,126,52767,2,0,L|400:95,1,49,4|0,1:0|0:0,0:0:0:0:
283,9,52925,5,8,0:0:0:0:
287,69,53005,1,8,0:0:0:0:
290,127,53084,5,4,1:0:0:0:
267,118,53163,1,0,0:0:0:0:
245,111,53242,1,0,1:0:0:0:
222,102,53322,1,0,0:0:0:0:
201,94,53401,1,4,0:1:0:0:
178,86,53480,1,0,0:0:0:0:
156,78,53560,2,0,L|97:92,1,49,0|0,1:0|0:0,0:0:0:0:
0,130,53719,5,4,1:0:0:0:
2,160,53798,1,0,0:0:0:0:
6,189,53877,1,0,0:0:0:0:
10,218,53957,1,0,0:0:0:0:
17,252,54036,1,4,0:1:0:0:
17,252,54116,2,0,L|3:299,2,49,4|0|0,0:3|0:0|0:0,0:0:0:0:
164,167,54354,5,0,0:0:0:0:
278,384,54513,1,0,0:0:0:0:
430,211,54671,6,0,B|409:180|409:180|407:145,1,73.5000028038026,10|0,0:0|3:0,0:0:0:0:
466,29,54830,2,0,B|463:99|463:99|434:142|434:142|430:211,1,191.099991252137,2|0,3:2|3:0,0:0:0:0:
400,298,55147,1,0,0:0:0:0:
194,246,55306,6,0,B|163:230|163:230|130:239,1,68.5999979064942,10|0,0:0|3:0,0:0:0:0:
48,293,55465,2,0,B|134:311|134:311|195:246,1,176.399994616699,2|0,3:2|3:0,0:0:0:0:
236,177,55782,1,0,0:0:0:0:
339,299,55941,6,0,P|370:307|400:297,1,63.6999970840455,2|0,0:0|3:0,0:0:0:0:
470,256,56100,2,0,P|393:243|339:300,1,161.700004934693,2|0,0:0|3:0,0:0:0:0:
284,351,56417,1,0,0:0:0:0:
351,127,56576,6,0,L|294:141,1,58.7999982055665,10|0,0:0|0:0,0:0:0:0:
208,91,56735,2,0,L|350:126,1,147,2|0,0:0|3:0,0:0:0:0:
424,143,57052,1,0,0:0:0:0:
218,320,57211,6,0,P|204:291|202:260,1,63.6999970840455,10|0,0:0|3:0,0:0:0:0:
218,164,57370,2,0,B|198:202|218:241|218:241|237:280|218:319,1,161.700004934693,2|0,0:0|3:0,0:0:0:0:
186,382,57687,1,0,0:0:0:0:
75,198,57846,6,0,L|133:212,1,58.7999982055665,10|0,0:0|3:0,0:0:0:0:
218,164,58005,2,0,L|170:176,1,49,2|0,0:0|3:0,0:0:0:0:
1,222,58163,5,2,0:0:0:0:
150,102,58322,1,2,0:0:0:0:
150,296,58481,1,10,0:0:0:0:
40,138,58640,1,0,3:0:0:0:
305,222,58798,5,2,0:0:0:0:
150,102,58957,1,2,0:0:0:0:
150,296,59116,1,10,0:0:0:0:
268,138,59275,1,0,3:0:0:0:
254,333,59433,5,2,0:0:0:0:
150,102,59592,1,2,0:0:0:0:
397,189,59751,2,0,P|403:247|377:300,1,117.599996411133,10|0,0:0|3:0,0:0:0:0:
312,79,60068,5,2,0:0:0:0:
494,218,60227,1,2,0:0:0:0:
264,212,60386,1,10,0:0:0:0:
451,82,60544,1,0,0:0:0:0:
377,299,60703,5,2,0:0:0:0:
334,339,60782,1,0,0:0:0:0:
278,356,60861,1,0,0:0:0:0:
219,347,60941,1,0,0:0:0:0:
172,313,61020,1,10,0:0:0:0:
132,277,61099,1,0,0:0:0:0:
80,267,61178,1,0,0:0:0:0:
31,288,61258,1,0,0:0:0:0:
0,329,61338,5,2,0:0:0:0:
44,343,61417,1,0,0:0:0:0:
91,337,61496,1,0,0:0:0:0:
131,312,61576,1,0,0:0:0:0:
156,271,61655,5,10,0:0:0:0:
108,221,61734,1,8,0:0:0:0:
98,151,61813,1,8,0:0:0:0:
130,88,61893,1,8,0:0:0:0:
193,57,61972,5,4,0:0:0:0:
327,198,62132,2,0,P|259:215|207:167,1,147,0|0,0:0|2:0,0:0:0:0:
278,142,62449,1,0,0:0:0:0:
386,257,62608,2,0,L|380:354,1,98,12|0,0:2|0:0,0:0:0:0:
278,142,62925,1,0,0:0:0:0:
469,184,63084,1,0,0:0:0:0:
469,184,63163,1,0,0:0:0:0:
469,184,63243,6,0,P|515:152|511:95,1,117.6,2|0,0:0|0:0,0:0:0:0:
375,28,63878,2,0,L|403:18,3,19.5999994018555,0|0|0|0,0:0|0:0|0:0|0:0,0:0:0:0:
393,21,64513,5,6,0:0:0:0:
159,112,64671,1,0,0:0:0:0:
406,101,64830,1,10,0:0:0:0:
146,32,64989,1,0,0:0:0:0:
185,244,65147,2,0,P|231:201|233:139,1,127.399994168091,2|0,1:2|0:0,0:0:0:0:
71,4,65465,1,10,0:0:0:0:
110,272,65624,1,0,0:0:0:0:
224,63,65782,5,2,0:0:0:0:
224,63,65941,2,0,L|347:93,1,127.399994168091,0|10,0:0|0:0,0:0:0:0:
298,271,66259,2,0,L|184:243,1,117.599996411133,0|2,0:0|1:2,0:0:0:0:
356,189,66576,1,0,0:0:0:0:
249,348,66735,1,10,0:0:0:0:
117,136,66894,1,0,0:0:0:0:
399,281,67052,5,2,0:0:0:0:
171,371,67211,1,0,0:0:0:0:
171,371,67370,2,0,P|172:318|207:278,1,107.800003289795,8|0,0:0|0:0,0:0:0:0:
458,198,67687,1,2,0:2:0:0:
340,364,67846,1,0,0:0:0:0:
303,79,68005,1,8,0:2:0:0:
399,281,68163,1,0,0:0:0:0:
245,163,68322,5,0,0:0:0:0:
245,163,68481,2,0,L|351:180,1,107.800003289795,0|8,0:0|0:2,0:0:0:0:
210,277,68798,2,0,L|316:259,1,107.800003289795,0|2,0:0|0:2,0:0:0:0:
139,146,69116,2,0,L|245:163,1,107.800003289795,0|8,0:0|0:2,0:0:0:0:
458,198,69433,1,0,0:0:0:0:
347,59,69592,6,0,P|330:119|350:179,1,127.399994168091,2|0,0:0|0:0,0:0:0:0:
421,316,69909,2,0,P|377:271|315:258,1,127.399994168091,10|0,0:0|0:0,0:0:0:0:
161,251,70227,2,0,P|221:235|263:188,1,127.399994168091,2|0,0:2|0:0,0:0:0:0:
347,59,70544,1,10,0:0:0:0:
315,258,70703,1,0,0:0:0:0:
147,115,70862,6,0,P|87:96|27:116,1,127.399994168091,2|0,0:0|0:0,0:0:0:0:
247,87,71179,2,0,P|212:34|154:10,1,127.399994168091,10|0,0:0|0:0,0:0:0:0:
27,256,71497,6,0,P|87:276|147:258,1,127.399994168091,2|2,0:2|0:0,0:0:0:0:
162,247,71735,1,0,0:0:0:0:
177,235,71814,1,10,0:0:0:0:
358,49,71973,1,8,0:0:0:0:
435,248,72132,6,0,P|372:245|326:203,1,127.399994168091,2|0,0:0|0:0,0:0:0:0:
238,27,72449,1,8,0:0:0:0:
406,162,72608,1,0,0:0:0:0:
213,347,72767,2,0,P|174:295|176:233,1,127.399994168091,2|0,0:2|3:0,0:0:0:0:
289,71,73084,5,10,0:0:0:0:
287,82,73190,1,0,3:2:0:0:
285,93,73296,1,0,3:2:0:0:
265,112,73401,5,2,0:0:0:0:
194,78,73506,1,0,3:2:0:0:
131,127,73612,1,0,3:2:0:0:
151,203,73719,1,10,0:0:0:0:
170,280,73825,1,0,3:2:0:0:
109,330,73931,1,0,3:2:0:0:
38,295,74036,5,2,1:2:0:0:
91,223,74141,1,0,3:2:0:0:
178,203,74247,1,0,3:2:0:0:
257,248,74353,1,10,0:0:0:0:
335,291,74460,1,0,3:2:0:0:
423,271,74566,1,0,3:2:0:0:
477,200,74671,5,6,0:0:0:0:
401,380,74830,1,0,0:0:0:0:
357,183,74989,1,8,0:0:0:0:
495,323,75147,1,0,0:0:0:0:
258,336,75306,6,0,P|199:313|170:258,1,127.399994168091,2|0,0:0|0:0,0:0:0:0:
238,99,75624,1,8,0:0:0:0:
257,248,75782,1,0,0:0:0:0:
91,294,75941,6,0,P|85:236|117:188,1,117.599996411133,2|0,0:0|0:0,0:0:0:0:
289,167,76259,1,8,0:0:0:0:
170,258,76417,1,0,0:0:0:0:
53,131,76576,6,0,P|99:105|152:110,1,107.800003289795,2|0,0:2|0:0,0:0:0:0:
257,248,76894,1,8,0:0:0:0:
116,188,77052,1,0,0:0:0:0:
306,48,77211,5,2,0:0:0:0:
257,248,77370,1,0,0:0:0:0:
152,110,77528,1,8,0:0:0:0:
379,198,77687,1,0,0:0:0:0:
333,0,77846,6,0,L|346:126,1,127.399994168091,2|0,0:0|0:0,0:0:0:0:
364,274,78163,1,8,0:0:0:0:
436,145,78322,1,0,0:0:0:0:
186,182,78481,6,0,L|301:206,1,117.599996411133,4|0,0:0|0:0,0:0:0:0:
448,236,78798,1,8,0:0:0:0:
346,126,78957,1,0,0:0:0:0:
310,367,79116,6,0,L|363:273,1,107.800003289795,2|0,0:0|0:0,0:0:0:0:
436,145,79433,1,8,0:0:0:0:
301,206,79592,1,0,0:0:0:0:
454,360,79751,5,2,0:0:0:0:
379,198,79909,1,0,0:0:0:0:
184,316,80068,1,10,0:0:0:0:
197,312,80174,1,0,0:0:0:0:
211,308,80280,1,0,0:0:0:0:
243,319,80386,5,2,0:0:0:0:
298,276,80491,1,0,3:2:0:0:
301,206,80597,1,0,3:2:0:0:
249,160,80703,1,10,0:0:0:0:
196,113,80809,1,0,3:2:0:0:
199,44,80915,1,0,3:2:0:0:
253,0,81020,5,2,0:0:0:0:
269,50,81125,1,0,3:2:0:0:
245,97,81231,1,0,3:2:0:0:
196,113,81337,1,10,0:0:0:0:
144,128,81444,1,0,3:2:0:0:
120,175,81550,1,0,3:2:0:0:
135,224,81655,5,2,0:0:0:0:
140,252,81761,2,0,P|144:277|138:303,1,52.2666666666667
93,384,81973,5,10,0:0:0:0:
135,377,82052,1,8,0:0:0:0:
178,370,82131,1,8,0:0:0:0:
220,363,82211,1,8,0:0:0:0:
263,356,82290,5,12,0:0:0:0:
448,374,82449,1,0,0:0:0:0:
307,127,82608,2,0,L|313:180,1,53.9000016448975,10|0,0:0|0:0,0:0:0:0:
360,351,82767,1,2,0:2:0:0:
360,351,82846,1,0,0:0:0:0:
360,351,82925,2,0,L|373:244,1,107.800003289795,10|0,0:0|0:0,0:0:0:0:
203,63,83243,6,0,L|209:116,1,53.9000016448975,2|0,0:0|0:0,0:0:0:0:
255,287,83402,1,2,0:0:0:0:
255,287,83481,1,0,0:0:0:0:
255,287,83560,5,10,0:0:0:0:
257,233,83639,1,8,0:0:0:0:
232,186,83718,1,8,0:0:0:0:
187,158,83798,1,8,0:0:0:0:
134,157,83877,1,8,0:0:0:0:
87,183,83956,1,8,0:0:0:0:
60,229,84036,1,8,0:0:0:0:
59,282,84115,1,8,0:0:0:0:
84,328,84195,5,8,0:3:0:0:
140,309,84274,1,8,0:3:0:0:
172,261,84353,1,8,0:3:0:0:
170,203,84433,1,8,0:3:0:0:
134,157,84513,5,4,0:3:0:0:
92,98,84592,1,4,0:3:0:0:
115,29,84671,1,4,0:3:0:0:
184,6,84751,1,4,0:3:0:0:
242,48,84830,5,0,1:0:0:0:
257,46,84909,1,0,1:0:0:0:
271,45,84988,1,0,1:0:0:0:
286,43,85068,1,0,1:0:0:0:
301,42,85147,2,0,L|349:36,1,49,0|0,1:0|1:0,1:1:0:0:
495,20,85306,1,4,0:0:0:0:
495,20,85624,2,0,L|441:25,1,53.9000016448975,2|0,0:0|0:0,0:0:0:0:
441,25,86100,5,0,1:0:0:0:
443,40,86179,1,0,1:0:0:0:
444,54,86258,1,0,1:0:0:0:
446,69,86338,1,0,1:0:0:0:
447,84,86417,2,0,L|452:132,1,49,0|0,1:0|1:0,1:1:0:0:
467,263,86576,1,4,0:0:0:0:
467,263,86894,2,0,L|461:209,1,53.9000016448975,2|0,0:0|0:0,0:0:0:0:
461,209,87370,5,0,1:0:0:0:
446,211,87449,1,0,1:0:0:0:
432,212,87528,1,0,1:0:0:0:
417,214,87608,1,0,1:0:0:0:
402,215,87687,2,0,L|353:220,1,49,0|0,1:0|1:0,1:1:0:0:
231,234,87846,1,4,0:1:0:0:
231,234,88163,2,0,L|284:228,1,53.9000016448975,2|0,0:0|0:0,0:0:0:0:
284,228,88640,6,0,L|277:169,1,58.7999982055665,8|0,0:0|0:0,0:0:0:0:
193,63,88798,1,0,1:0:0:0:
187,109,88877,1,0,1:0:0:0:
182,156,88956,1,0,1:0:0:0:
351,18,89116,5,0,0:0:0:0:
351,18,89274,1,0,0:0:0:0:
397,194,89433,5,2,0:0:0:0:
374,106,89592,1,0,0:0:0:0:
351,18,89751,1,0,0:0:0:0:
471,159,89909,5,8,1:2:0:0:
479,192,89988,1,0,1:0:0:0:
473,225,90067,1,8,1:0:0:0:
454,253,90147,1,0,1:0:0:0:
425,271,90227,1,10,1:0:0:0:
387,276,90306,1,8,1:0:0:0:
350,262,90385,1,8,1:0:0:0:
324,233,90465,1,8,1:0:0:0:
314,196,90544,5,8,1:0:0:0:
296,156,90623,1,0,1:0:0:0:
261,130,90702,1,8,1:0:0:0:
217,125,90782,1,0,1:0:0:0:
177,142,90862,1,10,1:0:0:0:
148,180,90941,1,8,1:0:0:0:
144,228,91020,1,8,1:0:0:0:
166,271,91100,1,8,1:0:0:0:
208,296,91179,5,8,1:0:0:0:
209,257,91258,1,0,1:0:0:0:
196,220,91337,1,8,1:0:0:0:
170,191,91417,1,0,1:0:0:0:
134,174,91497,1,10,1:0:0:0:
97,149,91576,1,8,1:0:0:0:
80,109,91655,1,8,1:0:0:0:
86,66,91735,1,8,1:0:0:0:
114,32,91815,5,8,1:0:0:0:
159,18,91894,1,0,1:0:0:0:
205,32,91973,1,8,1:0:0:0:
234,71,92053,1,0,1:0:0:0:
235,119,92132,1,10,1:0:0:0:
241,171,92211,1,8,1:0:0:0:
279,208,92290,1,8,1:0:0:0:
331,212,92370,1,8,1:0:0:0:
375,181,92449,5,8,1:0:0:0:
334,167,92528,1,0,1:0:0:0:
291,175,92607,1,8,1:0:0:0:
257,203,92687,1,0,1:0:0:0:
243,244,92766,1,10,1:0:0:0:
251,291,92846,1,8,1:0:0:0:
285,326,92925,1,8,1:0:0:0:
332,337,93005,1,8,1:0:0:0:
377,320,93084,5,8,1:0:0:0:
408,277,93163,1,0,1:0:0:0:
407,224,93242,1,8,1:0:0:0:
375,181,93322,1,0,1:0:0:0:
324,167,93401,1,10,1:0:0:0:
275,136,93481,1,8,1:0:0:0:
261,80,93560,1,8,1:0:0:0:
287,30,93640,1,8,1:0:0:0:
341,10,93719,5,8,1:0:0:0:
293,0,93798,1,0,1:0:0:0:
248,16,93877,1,8,1:0:0:0:
218,53,93957,1,0,1:0:0:0:
213,103,94036,1,10,1:0:0:0:
205,154,94116,1,8,1:0:0:0:
169,193,94195,1,8,1:0:0:0:
117,207,94275,1,8,1:0:0:0:
67,190,94354,5,8,1:0:0:0:
33,143,94433,1,0,1:0:0:0:
33,85,94512,1,8,1:0:0:0:
69,40,94592,1,0,1:0:0:0:
124,23,94671,1,10,1:0:0:0:
124,23,94989,5,8,1:0:0:0:
87,54,95068,1,0,1:0:0:0:
75,100,95147,1,8,1:0:0:0:
93,145,95227,1,0,1:0:0:0:
134,171,95306,1,10,1:0:0:0:
172,208,95385,1,8,1:0:0:0:
179,260,95464,1,8,1:0:0:0:
152,306,95544,1,8,1:0:0:0:
103,325,95623,5,8,1:0:0:0:
139,279,95703,1,0,1:0:0:0:
193,257,95782,1,8,1:0:0:0:
250,266,95862,1,0,1:0:0:0:
295,302,95941,1,10,1:0:0:0:
295,302,96259,5,8,1:0:0:0:
248,313,96338,1,0,1:0:0:0:
201,302,96417,1,8,1:0:0:0:
165,270,96497,1,0,1:0:0:0:
148,224,96577,1,10,1:0:0:0:
156,172,96656,1,8,1:0:0:0:
190,131,96735,1,8,1:0:0:0:
241,113,96815,1,8,1:0:0:0:
293,123,96894,5,8,1:0:0:0:
238,137,96973,1,0,1:0:0:0:
190,104,97052,1,8,1:0:0:0:
183,48,97132,1,0,1:0:0:0:
219,4,97211,1,10,1:0:0:0:
219,3,97528,5,8,1:2:0:0:
241,47,97607,1,0,1:2:0:0:
247,96,97686,1,8,1:2:0:0:
236,143,97766,1,0,1:2:0:0:
211,185,97846,1,10,1:2:0:0:
189,232,97925,1,8,1:2:0:0:
196,285,98004,1,8,1:2:0:0:
230,326,98084,1,8,1:2:0:0:
280,341,98163,5,8,1:2:0:0:
336,323,98242,1,0,1:2:0:0:
370,276,98321,1,8,1:2:0:0:
370,218,98401,1,0,1:2:0:0:
336,171,98481,1,10,1:2:0:0:
317,112,98560,1,8,1:2:0:0:
340,54,98639,1,8,1:2:0:0:
394,24,98719,1,8,1:2:0:0:
456,37,98799,5,8,1:2:0:0:
411,64,98878,1,0,1:2:0:0:
389,113,98957,1,8,1:2:0:0:
396,165,99037,1,0,1:2:0:0:
430,206,99116,1,10,1:2:0:0:
458,256,99195,1,8,1:2:0:0:
453,314,99274,1,8,1:2:0:0:
417,360,99354,1,8,1:2:0:0:
361,376,99433,5,8,1:2:0:0:
303,356,99513,1,0,1:2:0:0:
267,304,99592,1,8,1:2:0:0:
269,241,99671,1,0,1:2:0:0:
309,192,99751,1,10,1:2:0:0:
353,142,99830,1,8,1:2:0:0:
352,75,99909,1,8,1:2:0:0:
309,24,99989,1,8,1:2:0:0:
243,12,100069,5,10,1:3:0:0:
243,12,101339,5,8,0:0:0:0:
225,45,101418,2,0,L|232:93,1,49,0|0,1:0|0:0,0:0:0:0:
246,190,101577,5,0,1:0:0:0:
227,224,101656,1,0,1:0:0:0:
232,261,101735,1,0,0:0:0:0:
237,301,101814,1,6,0:0:0:0:
