osu file format v14

[General]
AudioFilename: audio.mp3
AudioLeadIn: 0
PreviewTime: 192325
Countdown: 0
SampleSet: Soft
StackLeniency: 0.5
Mode: 0
LetterboxInBreaks: 0
WidescreenStoryboard: 0

[Editor]
DistanceSpacing: 1.2
BeatDivisor: 8
GridSize: 32
TimelineZoom: 1

[Metadata]
Title:A Little Happiness
TitleUnicode:小幸運
Artist:Hebe Tien
ArtistUnicode:田馥甄
Creator:Present
Version:Our Lucky Times
Source:我的少女時代 Our Times
Tags:小幸运 Xiao Xing Yun Darren Wang Dino Lee Vivian Sung Dewi Chien Chinese Pop Kencho 主题曲 Taiwanese Film Movie AngelSnow
BeatmapID:2973388
BeatmapSetID:1445592

[Difficulty]
HPDrainRate:4
CircleSize:4
OverallDifficulty:8.5
ApproachRate:8.5
SliderMultiplier:3.2
SliderTickRate:1

[Events]
//Background and Video events
0,0,"BG.jpg",0,0
//Break Periods
2,131006,133169
//Storyboard Layer 0 (Background)
//Storyboard Layer 1 (Fail)
//Storyboard Layer 2 (Pass)
//Storyboard Layer 3 (Foreground)
//Storyboard Layer 4 (Overlay)
//Storyboard Sound Samples

[TimingPoints]
174,759.493670886076,4,2,1,30,1,0
174,-200,4,2,1,30,0,0
12325,-200,4,2,1,35,0,0
17642,-200,4,2,1,10,0,0
18401,-200,4,2,1,35,0,0
23718,-200,4,2,1,45,0,0
24857,-200,4,2,1,35,0,0
29604,-200,4,2,1,10,0,0
29794,-200,4,2,1,35,0,0
32262,-200,4,2,1,5,0,0
32452,-200,4,2,1,35,0,0
36629,-200,4,2,1,40,0,0
41946,-200,4,2,1,10,0,0
42705,-200,4,2,1,40,0,0
48781,-200,4,2,1,45,0,0
56566,-200,4,2,1,5,0,0
56756,-200,4,2,1,45,0,0
60933,-166.666666666667,4,2,1,50,0,0
85047,-166.666666666667,4,2,1,5,0,0
85237,-142.857142857143,4,2,1,55,0,0
130806,-142.857142857143,4,2,1,50,0,0
133844,-125,4,2,1,70,0,1
145996,-125,4,2,1,60,0,0
169825,-125,4,2,1,5,0,0
169920,-125,4,2,1,60,0,0
170300,-111.111111111111,4,2,1,70,0,0
172484,-111.111111111111,4,2,1,5,0,0
172579,-111.111111111111,4,2,1,70,0,0
175901,-111.111111111111,4,2,1,5,0,0
175996,-111.111111111111,4,2,1,70,0,0
188528,-111.111111111111,4,2,1,80,0,0
189572,-111.111111111111,4,2,1,5,0,0
189667,-111.111111111111,4,2,1,80,0,0
194604,-100,4,2,1,80,0,1
194889,-100,4,2,1,5,0,1
194984,-100,4,2,1,80,0,1
197167,-100,4,2,1,5,0,1
197262,-100,4,2,1,80,0,1
198306,-100,4,2,1,5,0,1
198401,-100,4,2,1,80,0,1
200205,-100,4,2,1,5,0,1
200300,-100,4,2,1,80,0,1
204762,-100,4,2,1,5,0,1
204857,-100,4,2,1,80,0,1
206756,-100,4,2,1,80,0,1
215015,-100,4,2,1,5,0,1
215110,-100,4,2,1,80,0,1
218813,-100,4,2,1,80,0,0
218908,-100,4,2,1,80,0,1
221471,-100,4,2,1,5,0,1
221566,-100,4,2,1,80,0,1
224414,-100,4,2,1,50,0,1
224794,-100,4,2,1,10,0,1
224984,-100,4,2,1,80,0,1
230490,-100,4,2,1,60,0,1
230870,-100,4,2,1,80,0,1
239699,-100,4,2,1,5,0,1
239794,-100,4,2,1,80,0,1
240458,-100,4,2,1,5,0,1
240553,-100,4,2,1,80,0,1
243211,-166.666666666667,4,2,1,80,0,0
243401,-166.666666666667,4,2,1,30,0,0
246249,-200,4,2,1,30,0,0
247768,-200,4,2,1,20,0,0
248528,-200,4,2,1,10,0,0
249287,-200,4,2,1,30,0,0
250806,-200,4,2,1,20,0,0
251566,-200,4,2,1,10,0,0
252325,779.220779220779,4,2,1,30,1,0
252325,-200,4,2,1,30,0,0
253106,833.333333333333,4,2,1,30,1,0
253106,-200,4,2,1,30,0,0
253932,923.076923076923,4,2,1,30,1,0
253932,-200,4,2,1,30,0,0
254393,1132.07547169811,4,2,1,30,1,0
254393,-200,4,2,1,30,0,0
254959,1250,4,2,1,20,1,0
254959,-200,4,2,1,20,0,0
256009,1200,4,2,1,20,1,0
256009,-200,4,2,1,20,0,0
257209,-200,4,2,1,15,0,0
258409,-200,4,2,1,10,0,0
259609,-200,4,2,1,5,0,0

[Colours]
Combo1 : 160,255,160
Combo2 : 255,160,160
Combo3 : 128,192,255
Combo4 : 255,192,128

[HitObjects]
38,121,174,6,0,P|67:103|122:102,1,80,4|0,0:3|0:0,0:0:0:0:
176,183,933,2,0,P|147:201|92:202,1,80,4|0,0:3|0:0,0:0:0:0:
315,214,1692,2,0,B|276:183|276:183|207:276|285:370,1,240,4|0,0:3|0:0,0:0:0:0:
465,300,3211,6,0,P|463:260|443:226,1,80,4|0,0:3|0:0,0:0:0:0:
359,290,3971,2,0,P|360:329|380:363,1,80,4|0,0:3|0:0,0:0:0:0:
315,214,4730,2,0,B|202:263|201:135|64:212,1,240,4|0,0:3|0:0,0:0:0:0:
71,305,6249,6,0,P|109:307|147:287,1,80,4|0,0:3|0:0,0:0:0:0:
86,200,7009,2,0,P|48:198|10:218,1,80,4|0,0:3|0:0,0:0:0:0:
171,162,7768,2,0,B|155:134|124:115|124:115|212:64|290:130,1,240,4|0,0:3|0:0,0:0:0:0:
372,216,9287,5,4,0:3:0:0:
222,284,9667,2,0,P|220:267|222:245,1,40,4|0,0:3|0:0,0:0:0:0:
315,293,10047,2,0,P|321:338|312:372,1,80,4|0,0:3|0:0,0:0:0:0:
429,276,10806,2,0,P|476:236|372:235,1,240,4|0,0:3|0:0,0:0:0:0:
315,293,12325,5,4,0:3:0:0:
253,189,12705,1,0,0:0:0:0:
190,331,13085,2,0,P|222:351|263:348,1,80,4|0,0:3|0:0,0:0:0:0:
135,212,13844,2,0,B|117:234|117:234|126:292,2,80,4|0|0,0:3|0:0|0:0,0:0:0:0:
253,189,14984,1,0,0:0:0:0:
160,63,15363,6,0,P|114:59|79:76,1,80,4|0,0:3|0:0,0:0:0:0:
135,212,16123,1,4,0:3:0:0:
21,122,16503,1,0,0:0:0:0:
228,100,16882,2,0,B|274:115|310:93|310:93|331:110|355:117|355:117|404:88|460:117,1,240,4|0,0:3|0:0,0:0:0:0:
406,209,18401,5,4,0:3:0:0:
302,283,18781,1,0,0:0:0:0:
229,178,19161,2,0,P|221:140|234:84,1,80,4|0,0:3|0:0,0:0:0:0:
73,216,19920,2,0,L|151:228,1,80,4|0,0:3|0:0,0:0:0:0:
223,295,20680,2,0,L|301:282,1,80,0|0,0:3|0:0,0:0:0:0:
229,178,21439,5,4,0:3:0:0:
102,339,21819,2,0,L|108:298,1,40,4|0,0:3|0:0,0:0:0:0:
73,216,22199,1,4,0:3:0:0:
193,298,22579,1,0,0:0:0:0:
163,115,22958,2,0,P|95:132|82:147,2,80,4|0|4,0:3|0:0|0:3,0:0:0:0:
163,115,24477,5,4,0:3:0:0:
242,195,24857,1,0,0:0:0:0:
274,76,25237,2,0,P|281:38|262:-13,1,80,4|0,0:3|0:0,0:0:0:0:
334,155,25996,2,0,P|363:180|417:189,2,80,4|0|0,0:3|0:0|0:3,0:0:0:0:
407,90,27136,1,0,0:0:0:0:
485,197,27515,6,0,L|480:285,1,80,4|0,0:3|0:0,0:0:0:0:
363,365,28275,2,0,L|358:277,1,80,4|0,0:3|0:0,0:0:0:0:
334,155,29034,2,0,P|280:137|216:153,1,120,4|0,0:3|0:0,0:0:0:0:
172,214,29794,1,4,0:3:0:0:
269,287,30174,1,0,0:0:0:0:
109,360,30553,6,0,P|107:323|123:277,1,80,4|0,0:3|0:0,0:0:0:0:
103,168,31313,1,4,0:3:0:0:
19,301,31692,2,0,B|43:270|43:270|78:293|127:282,1,120,4|0,0:3|0:0,0:0:0:0:
171,213,32452,2,0,P|211:218|245:239,1,80,0|0,0:0|0:3,0:0:0:0:
280,364,33211,1,0,0:0:0:0:
343,193,33591,5,4,0:3:0:0:
499,262,33971,1,4,0:3:0:0:
314,279,34351,1,4,0:3:0:0:
375,105,34730,1,4,0:3:0:0:
190,137,35110,2,0,B|111:156|115:88|37:111,1,160,4|4,0:3|0:3,0:0:0:0:
38,110,36629,5,4,0:3:0:0:
169,49,37009,1,0,0:0:0:0:
68,189,37389,2,0,P|61:231|82:276,1,80,4|0,0:3|0:0,0:0:0:0:
217,309,38148,2,0,L|308:295,2,80,4|0|0,0:3|0:0|0:3,0:0:0:0:
119,364,39288,1,0,0:0:0:0:
147,221,39667,5,4,0:3:0:0:
268,381,40047,1,0,0:0:0:0:
218,187,40427,1,4,0:3:0:0:
194,374,40806,1,0,0:0:0:0:
296,226,41186,2,0,B|350:211|355:267|411:248|411:248|459:229|437:157|388:174,1,240,4|0,0:3|0:0,0:0:0:0:
256,78,42705,6,0,P|295:59|333:59,1,80,4|0,0:3|0:0,0:0:0:0:
444,93,43464,1,4,0:3:0:0:
319,147,43844,1,0,0:0:0:0:
429,288,44224,2,0,P|442:251|434:192,1,80,4|0,0:3|0:0,0:0:0:0:
319,147,44984,1,0,0:3:0:0:
189,226,45363,1,0,0:0:0:0:
216,52,45743,5,4,0:3:0:0:
216,52,46503,1,4,0:3:0:0:
189,226,46883,1,0,0:0:0:0:
93,104,47262,2,0,P|84:66|91:8,1,80,4|4,0:3|0:3,0:0:0:0:
216,52,48022,1,4,0:3:0:0:
189,226,48401,1,4,0:3:0:0:
55,264,48781,5,4,0:3:0:0:
203,137,49161,1,0,0:0:0:0:
216,322,49541,2,0,P|174:324|114:291,1,80,4|0,0:3|0:0,0:0:0:0:
288,252,50300,2,0,P|311:286|312:355,1,80,4|0,0:3|0:0,0:0:0:0:
189,226,51060,2,0,P|207:188|266:153,1,80,0|0,0:0|0:0,0:0:0:0:
372,202,51819,5,4,0:3:0:0:
300,64,52199,1,0,0:0:0:0:
460,165,52579,2,0,P|465:207|443:275,1,80,4|0,0:3|0:0,0:0:0:0:
475,366,53338,1,4,0:3:0:0:
372,202,53718,2,0,P|327:206|288:227,2,80,0|0|0,0:3|0:0|0:0,0:0:0:0:
244,66,54857,6,0,P|240:105|222:141,1,80,4|0,0:3|0:0,0:0:0:0:
372,202,55617,1,4,0:3:0:0:
148,308,55996,2,0,B|130:289|130:289|119:239|157:204,1,120,4|0,0:3|0:0,0:0:0:0:
212,264,56756,2,0,P|252:248|294:247,1,80,0|4,0:0|0:3,0:0:0:0:
273,364,57515,1,0,0:0:0:0:
463,131,57895,5,4,0:3:0:0:
228,168,58275,1,0,0:0:0:0:
383,249,58655,1,4,0:3:0:0:
422,41,59034,1,0,0:0:0:0:
228,168,59414,6,0,P|195:147|145:142,1,80,4|0,0:3|0:0,0:0:0:0:
49,96,59984,2,0,B|112:107|95:57|163:62,1,120
181,315,60933,6,0,P|163:270|165:223,1,95.9999970703126,4|0,0:3|0:0,0:0:0:0:
303,251,61692,1,4,0:3:0:0:
238,372,62072,1,0,0:0:0:0:
228,168,62452,1,4,0:3:0:0:
379,296,62832,6,0,P|426:298|471:280,1,95.9999970703126,0|4,0:0|0:3,0:0:0:0:
402,138,63591,1,0,0:0:0:0:
303,251,63971,2,0,L|300:363,2,95.9999970703126,4|0|4,0:3|0:0|0:3,0:0:0:0:
471,280,65110,1,0,0:0:0:0:
336,178,65490,6,0,P|282:176|243:199,1,95.9999970703126,4|4,0:3|0:3,0:0:0:0:
185,253,66060,2,0,B|168:222|168:222|178:114,1,143.999995605469,0|4,0:0|0:3,0:0:0:0:
323,68,67009,5,4,0:3:0:0:
305,256,67389,1,0,0:0:0:0:
480,147,67768,2,0,P|443:107|399:96,1,95.9999970703126,4|0,0:3|0:0,0:0:0:0:
246,195,68528,1,4,0:3:0:0:
418,251,68908,2,0,L|413:298,2,47.9999985351563,0|0|4,0:0|0:0|0:3,0:0:0:0:
404,96,69667,1,0,0:0:0:0:
337,177,70047,6,0,B|247:153|242:228|153:208,1,191.999994140625,4|4,0:3|0:3,0:0:0:0:
306,286,71186,1,0,0:0:0:0:
184,113,71566,2,0,P|166:74|171:14,1,95.9999970703126,4|0,0:3|0:0,0:0:0:0:
82,147,72325,2,0,P|64:186|69:246,1,95.9999970703126,4|0,0:3|0:0,0:0:0:0:
236,317,73085,6,0,L|334:300,2,95.9999970703126,4|0|4,0:3|0:0|0:3,0:0:0:0:
113,340,74224,1,0,0:0:0:0:
228,226,74604,2,0,P|244:261|235:318,1,95.9999970703126,4|0,0:3|0:0,0:0:0:0:
113,340,75363,1,4,0:3:0:0:
147,205,75743,1,0,0:0:0:0:
236,317,76123,6,0,L|334:300,1,95.9999970703126,4|0,0:3|0:0,0:0:0:0:
463,377,76882,2,0,P|472:330|455:286,1,95.9999970703126,4|0,0:3|0:0,0:0:0:0:
406,224,77452,2,0,B|385:192|392:157|392:157|362:183|320:173,1,143.999995605469
235,85,78401,2,0,P|279:67|325:77,1,95.9999970703126,4|0,0:3|0:0,0:0:0:0:
483,167,79160,5,4,0:3:0:0:
236,317,79540,1,0,0:0:0:0:
290,152,79920,1,4,0:3:0:0:
367,364,80300,1,0,0:0:0:0:
170,142,80680,5,4,0:3:0:0:
357,54,81060,2,0,P|381:94|384:150,1,95.9999970703126,0|4,0:0|0:3,0:0:0:0:
236,317,81819,1,0,0:0:0:0:
367,364,82199,6,0,L|388:368,2,15.9999995117188,4|0|4,0:3|0:0|0:3,0:0:0:0:
256,192,83718,12,0,85047,0:0:0:0:
95,205,85237,6,0,P|86:163|119:105,1,111.999996582031,4|0,0:3|0:0,0:0:0:0:
215,228,85996,2,0,P|223:269|190:327,1,111.999996582031,4|0,0:3|0:0,0:0:0:0:
165,169,86756,1,4,0:3:0:0:
322,145,87136,1,0,0:0:0:0:
347,303,87515,2,0,B|411:310|394:268|466:277,1,111.999996582031,4|0,0:3|0:0,0:0:0:0:
293,369,88275,6,0,P|262:323|268:269,1,111.999996582031,4|0,0:3|0:0,0:0:0:0:
367,114,89034,2,0,L|356:230,1,111.999996582031,4|0,0:3|0:0,0:0:0:0:
269,179,89604,2,0,P|213:183|163:208,1,111.999996582031,0|0,0:0|0:0,0:0:0:0:
128,296,90174,1,0,0:0:0:0:
97,137,90553,2,0,L|115:19,1,111.999996582031,4|0,0:3|0:0,0:0:0:0:
197,108,91313,5,4,0:3:0:0:
11,78,91692,1,0,0:0:0:0:
59,223,92072,2,0,P|112:227|169:197,1,111.999996582031,4|0,0:3|0:0,0:0:0:0:
278,267,92832,1,4,0:3:0:0:
304,136,93211,2,0,L|288:16,2,111.999996582031,0|4|0,0:0|0:3|0:0,0:0:0:0:
278,267,94351,5,4,0:3:0:0:
412,313,94730,1,0,0:0:0:0:
238,357,95110,2,0,P|189:359|118:318,1,111.999996582031,4|0,0:3|0:0,0:0:0:0:
193,214,95680,2,0,P|239:261|173:262,1,167.999994873047
83,134,96629,1,4,0:3:0:0:
26,337,97009,1,0,0:0:0:0:
178,139,97389,6,0,P|227:137|298:178,1,111.999996582031,4|0,0:3|0:0,0:0:0:0:
392,253,98148,1,4,0:3:0:0:
206,248,98528,1,4,0:3:0:0:
427,181,98908,1,4,0:3:0:0:
161,321,99287,1,4,0:3:0:0:
218,87,99667,1,4,0:3:0:0:
392,253,100047,1,0,0:0:0:0:
82,173,100427,6,0,L|63:285,1,111.999996582031,4|4,0:3|0:3,0:0:0:0:
323,351,101186,1,4,0:3:0:0:
216,111,101566,1,4,0:3:0:0:
148,307,101946,1,4,0:3:0:0:
347,220,102325,1,4,0:3:0:0:
82,173,102705,1,4,0:3:0:0:
120,381,103085,1,4,0:3:0:0:
430,260,103465,6,0,P|428:204|398:144,1,111.999996582031,4|4,0:3|0:3,0:0:0:0:
226,60,104224,1,4,0:3:0:0:
115,251,104604,1,4,0:3:0:0:
155,32,104984,1,4,0:3:0:0:
182,289,105363,1,4,0:3:0:0:
333,77,105743,2,0,P|285:58|217:61,1,111.999996582031,4|0,0:3|0:0,0:0:0:0:
81,158,106503,5,4,0:3:0:0:
312,194,106882,1,0,0:0:0:0:
141,115,107262,2,0,P|122:162|125:230,1,111.999996582031,4|0,0:3|0:0,0:0:0:0:
224,368,108022,1,4,0:3:0:0:
256,126,108402,1,0,0:0:0:0:
179,307,108781,2,0,P|226:325|294:322,1,111.999996582031,4|0,0:3|0:0,0:0:0:0:
388,161,109541,6,0,P|390:217|371:269,1,111.999996582031,4|0,0:3|0:0,0:0:0:0:
226,59,110300,2,0,P|281:56|333:76,1,111.999996582031,4|0,0:3|0:0,0:0:0:0:
248,236,111060,1,4,0:3:0:0:
388,161,111440,1,0,0:0:0:0:
141,115,111819,2,0,P|122:162|125:230,1,111.999996582031,4|0,0:3|0:0,0:0:0:0:
140,358,112578,5,4,0:3:0:0:
212,210,112959,1,0,0:0:0:0:
33,210,113338,2,0,P|32:278|51:321,1,111.999996582031,4|0,0:3|0:0,0:0:0:0:
123,279,113908,2,0,B|183:270|173:308|241:292,1,111.999996582031
140,358,114477,1,0,0:0:0:0:
341,338,114857,2,0,P|349:282|329:231,1,111.999996582031,4|0,0:3|0:0,0:0:0:0:
231,293,115617,5,4,0:3:0:0:
411,361,115996,1,0,0:0:0:0:
283,153,116376,1,4,0:3:0:0:
265,368,116756,1,0,0:0:0:0:
450,274,117136,1,4,0:3:0:0:
283,153,117515,2,0,P|278:87|298:34,2,111.999996582031,0|4|0,0:0|0:3|0:0,0:0:0:0:
335,326,118655,5,4,0:3:0:0:
400,117,119034,1,0,0:0:0:0:
179,90,119414,2,0,P|123:85|66:118,1,111.999996582031,4|0,0:3|0:0,0:0:0:0:
142,179,119984,2,0,B|120:268|167:261|145:348,1,167.999994873047,0|0,0:0|0:0,0:0:0:0:
20,309,120933,1,4,0:3:0:0:
227,221,121313,1,0,0:0:0:0:
365,356,121693,6,0,L|356:237,1,111.999996582031,4|4,0:3|0:3,0:0:0:0:
312,72,122452,1,4,0:3:0:0:
227,221,122832,1,4,0:3:0:0:
219,25,123212,1,4,0:3:0:0:
333,154,123591,1,4,0:3:0:0:
94,124,123971,1,4,0:3:0:0:
312,72,124351,1,4,0:3:0:0:
85,235,124730,6,0,L|94:116,1,111.999996582031,4|4,0:3|0:3,0:0:0:0:
249,225,125490,1,4,0:3:0:0:
75,328,125870,1,4,0:3:0:0:
93,123,126250,1,4,0:3:0:0:
219,301,126629,1,4,0:3:0:0:
85,235,127009,1,4,0:3:0:0:
294,156,127389,1,0,0:0:0:0:
365,356,127768,6,0,L|356:244,1,111.999996582031,4|4,0:3|0:3,0:0:0:0:
450,105,128528,1,4,0:3:0:0:
511,311,128908,1,4,0:3:0:0:
294,156,129288,1,4,0:3:0:0:
365,356,129667,1,4,0:3:0:0:
98,302,130047,1,4,0:3:0:0:
194,85,130426,1,4,0:3:0:0:
256,384,130806,5,4,0:3:0:0:
126,69,133844,6,0,P|182:61|251:98,1,128,4|0,0:0|0:0,0:0:0:0:
151,295,134604,2,0,P|142:231|166:170,1,128,8|0,0:0|0:0,0:0:0:0:
360,256,135363,1,0,0:0:0:0:
244,91,135743,1,2,0:0:0:0:
270,334,136123,1,8,0:0:0:0:
344,141,136503,1,0,0:0:0:0:
163,172,136882,6,0,B|92:193|96:128|31:159,1,128,2|0,0:0|0:0,0:0:0:0:
157,42,137642,1,8,0:0:0:0:
125,272,138022,1,0,0:0:0:0:
265,88,138401,2,0,P|275:117|279:150,1,64,2|0,0:0|0:0,0:0:0:0:
272,331,138781,1,2,0:0:0:0:
163,172,139161,1,8,0:0:0:0:
428,215,139541,5,0,0:0:0:0:
402,308,139730,1,0,0:0:0:0:
331,239,139920,2,0,P|249:231|179:281,1,128,2|0,0:0|0:0,0:0:0:0:
42,376,140680,2,0,L|58:243,1,128,8|0,0:0|0:0,0:0:0:0:
37,155,141249,1,0,0:0:0:0:
155,102,141439,6,0,P|163:70|153:24,1,64,2|8,0:0|0:0,0:0:0:0:
212,212,141819,1,2,0:0:0:0:
357,144,142009,1,0,0:0:0:0:
249,102,142199,5,8,0:0:0:0:
322,261,142389,1,0,0:0:0:0:
268,77,142579,1,0,0:0:0:0:
304,280,142769,1,0,0:0:0:0:
128,183,142958,6,0,P|98:181|58:196,1,64,2|0,0:0|0:0,0:0:0:0:
170,334,143338,2,0,P|186:309|193:266,1,64,0|0,0:0|0:0,0:0:0:0:
161,106,143718,1,8,0:0:0:0:
109,267,143908,1,0,0:0:0:0:
201,85,144098,1,2,0:0:0:0:
82,275,144287,1,0,0:0:0:0:
330,208,144477,5,2,0:0:0:0:
128,183,144667,1,8,0:0:0:0:
378,119,144857,1,2,0:0:0:0:
82,275,145047,1,0,0:0:0:0:
116,86,145237,6,0,P|147:83|188:104,1,64,2|0,0:0|0:0,0:0:0:0:
373,273,145617,2,0,P|343:284|311:282,1,64,2|0,0:0|0:0,0:0:0:0:
297,94,145996,6,0,P|337:181|329:209,1,128,6|0,0:0|0:0,0:0:0:0:
204,353,146756,1,8,0:0:0:0:
96,193,147136,2,0,P|125:180|156:176,1,64,0|0,0:0|0:0,0:0:0:0:
219,110,147515,2,0,P|203:172|231:233,1,128,0|2,0:0|0:0,0:0:0:0:
355,314,148275,1,8,0:0:0:0:
310,163,148655,1,0,0:0:0:0:
178,294,149034,6,0,L|45:287,1,128,2|0,0:0|0:0,0:0:0:0:
182,156,149794,2,0,L|315:163,1,128,8|0,0:0|0:0,0:0:0:0:
109,116,150553,2,0,P|98:148|105:189,1,64
178,241,150933,1,2,0:0:0:0:
297,69,151313,2,0,P|239:54|163:69,1,128,8|0,0:0|0:0,0:0:0:0:
452,175,152072,5,2,0:0:0:0:
394,5,152452,1,0,0:0:0:0:
309,162,152832,2,0,L|323:301,1,128,8|0,0:0|0:0,0:0:0:0:
280,356,153401,2,0,P|252:376|228:308,1,128
322,289,153971,1,2,0:0:0:0:
151,182,154351,1,8,0:0:0:0:
402,130,154730,1,0,0:0:0:0:
311,371,155110,5,2,0:0:0:0:
311,371,155870,2,0,P|325:302|298:222,1,128,8|0,0:0|0:0,0:0:0:0:
193,125,156629,2,0,P|181:158|182:207,1,64,0|0,0:0|0:0,0:0:0:0:
221,268,157009,1,2,0:0:0:0:
250,54,157389,2,0,P|179:39|131:63,1,128,8|0,0:0|0:0,0:0:0:0:
43,214,158148,5,2,0:0:0:0:
235,166,158528,1,0,0:0:0:0:
57,27,158908,2,0,B|16:55|16:55|33:134,1,128,8|0,0:0|0:0,0:0:0:0:
43,214,159477,2,0,B|116:197|95:260|191:233,1,128,0|0,0:0|0:0,0:0:0:0:
235,166,160047,1,2,0:0:0:0:
72,328,160427,2,0,P|38:279|44:211,1,128,8|0,0:0|0:0,0:0:0:0:
180,345,161186,5,2,0:0:0:0:
377,269,161566,1,0,0:0:0:0:
212,131,161946,1,8,0:0:0:0:
272,368,162325,1,0,0:0:0:0:
351,147,162705,2,0,P|351:77|327:13,1,128,0|2,0:0|0:0,0:0:0:0:
177,240,163465,1,8,0:0:0:0:
377,269,163844,1,0,0:0:0:0:
194,145,164224,6,0,B|127:132|135:183|66:166,1,128,2|0,0:0|0:0,0:0:0:0:
129,25,164984,1,8,0:0:0:0:
281,129,165363,2,0,P|284:160|271:188,1,64
177,239,165743,1,0,0:0:0:0:
215,50,166123,2,0,P|303:27|351:58,1,128,2|8,0:0|0:0,0:0:0:0:
194,145,166882,1,0,0:0:0:0:
333,327,167262,6,0,P|367:328|406:310,1,64,2|0,0:0|0:0,0:0:0:0:
334,169,167642,2,0,P|300:168|261:186,1,64,0|0,0:0|0:0,0:0:0:0:
233,318,168022,1,8,0:0:0:0:
352,248,168211,1,0,0:0:0:0:
216,119,168401,2,0,P|198:147|194:190,1,64,0|0,0:0|0:0,0:0:0:0:
233,318,168781,5,2,0:0:0:0:
272,178,168971,1,8,0:0:0:0:
84,232,169161,2,0,P|79:264|93:308,1,64,2|0,0:0|0:0,0:0:0:0:
316,358,169541,2,0,P|323:310|297:257,1,96,8|0,0:0|0:0,0:0:0:0:
272,178,169920,2,0,P|313:173|337:160,1,64,2|0,0:0|0:0,0:0:0:0:
469,25,170300,6,0,L|460:103,1,71.9999978027344,2|0,0:0|0:0,0:0:0:0:
332,162,170680,2,0,L|323:90,1,71.9999978027344,0|0,0:0|0:0,0:0:0:0:
453,182,171060,2,0,L|444:260,1,71.9999978027344,8|0,0:0|0:0,0:0:0:0:
248,209,171440,2,0,L|239:137,1,71.9999978027344,0|0,0:0|0:0,0:0:0:0:
316,11,171819,5,2,0:0:0:0:
184,64,172009,1,8,0:0:0:0:
336,197,172199,2,0,L|323:89,1,107.999996704102,2|0,0:0|0:0,0:0:0:0:
239,137,172579,2,0,L|248:209,1,71.9999978027344,8|0,0:0|0:0,0:0:0:0:
337,351,172958,2,0,L|345:279,1,71.9999978027344,0|0,0:0|0:0,0:0:0:0:
453,182,173338,5,2,0:0:0:0:
453,182,173718,1,0,0:0:0:0:
344,279,173908,1,0,0:0:0:0:
477,376,174098,2,0,P|487:349|484:299,1,71.9999978027344,8|0,0:0|0:0,0:0:0:0:
274,235,174477,2,0,P|264:262|267:312,1,71.9999978027344,0|0,0:0|0:0,0:0:0:0:
300,136,174857,6,0,B|223:119|231:177|157:161,1,143.999995605469,0|2,0:0|0:0,0:0:0:0:
274,235,175427,1,0,0:0:0:0:
175,81,175617,2,0,B|153:67|143:38|143:38|142:77|118:100,1,107.999996704102,8|0,0:0|0:0,0:0:0:0:
81,149,175996,2,0,P|81:181|99:219,1,71.9999978027344,0|0,0:0|0:0,0:0:0:0:
256,308,176376,6,0,P|216:306|183:295,1,71.9999978027344,2|0,0:0|0:0,0:0:0:0:
24,346,176756,2,0,P|58:335|94:334,1,71.9999978027344,0|0,0:0|0:0,0:0:0:0:
221,112,177136,2,0,B|199:172|232:224|232:224|276:191,1,143.999995605469,8|0,0:0|0:0,0:0:0:0:
256,308,177895,6,0,P|216:306|183:295,1,71.9999978027344
98,216,178275,1,2,0:0:0:0:
346,130,178655,1,8,0:0:0:0:
293,381,179034,1,0,0:0:0:0:
6,275,179414,6,0,P|-12:204|19:137,1,143.999995605469,2|0,0:0|0:0,0:0:0:0:
128,88,179984,1,0,0:0:0:0:
167,213,180174,2,0,P|131:222|86:210,1,71.9999978027344,8|0,0:0|0:0,0:0:0:0:
225,141,180553,2,0,P|250:167|262:212,1,71.9999978027344,0|0,0:0|0:0,0:0:0:0:
203,347,180933,5,2,0:0:0:0:
167,213,181123,1,8,0:0:0:0:
320,301,181313,2,0,P|355:307|389:298,1,71.9999978027344,2|0,0:0|0:0,0:0:0:0:
364,87,181692,2,0,B|331:125|331:125|350:225,1,143.999995605469,8|0,0:0|0:0,0:3:0:0:
448,153,182262,1,0,0:0:0:0:
273,47,182452,6,0,P|208:24|113:51,2,143.999995605469,2|0|8,0:0|0:0|0:0,0:0:0:0:
349,216,183591,1,0,0:0:0:0:
100,296,183971,2,0,P|89:266|90:221,1,71.9999978027344,0|0,0:0|0:0,0:0:0:0:
201,155,184351,1,2,0:0:0:0:
166,366,184730,1,8,0:0:0:0:
45,124,185110,2,0,P|75:113|120:114,1,71.9999978027344,0|0,0:0|0:0,0:0:0:0:
201,155,185490,6,0,B|282:171|262:110|352:127,1,143.999995605469,2|0,0:0|0:0,0:0:0:0:
313,284,186249,2,0,P|324:245|323:189,1,71.9999978027344,8|0,0:0|0:0,0:0:0:0:
219,73,186629,1,0,0:0:0:0:
437,240,186819,2,0,P|427:200|398:152,1,71.9999978027344
302,41,187199,1,0,0:0:0:0:
162,261,187389,2,0,P|194:245|229:236,1,71.9999978027344,2|0,0:0|0:0,0:0:0:0:
280,383,187768,2,0,P|250:362|225:336,1,71.9999978027344,8|0,0:0|0:0,0:0:0:0:
325,213,188148,2,0,P|323:249|313:284,1,71.9999978027344,0|0,0:0|0:0,0:0:0:0:
88,382,188528,6,0,L|80:302,1,71.9999978027344,2|0,0:0|0:0,0:0:0:0:
236,165,188908,2,0,L|228:245,1,71.9999978027344,2|0,0:0|0:0,0:0:0:0:
11,139,189287,2,0,P|61:98|114:98,1,107.999996704102,8|0,0:0|0:0,0:0:0:0:
168,148,189667,2,0,P|198:162|260:159,1,71.9999978027344,2|0,0:0|0:0,0:0:0:0:
423,109,190047,5,2,0:0:0:0:
229,31,190237,1,8,0:0:0:0:
355,189,190427,2,0,P|360:224|352:259,1,71.9999978027344,2|0,0:0|0:0,0:0:0:0:
184,320,190806,2,0,P|176:284|181:249,1,71.9999978027344,8|0,0:0|0:0,0:0:0:0:
229,31,191186,1,2,0:0:0:0:
423,109,191376,1,2,0:0:0:0:
261,187,191566,5,2,0:0:0:0:
345,16,191756,1,2,0:0:0:0:
389,236,191946,1,10,0:0:0:0:
229,31,192136,1,2,0:0:0:0:
190,255,192325,5,8,0:0:0:0:
423,109,192515,1,2,0:0:0:0:
152,129,192705,1,10,0:0:0:0:
358,311,192895,1,2,0:0:0:0:
160,323,193085,5,10,0:0:0:0:
152,129,193275,1,2,0:0:0:0:
342,117,193465,1,2,0:0:0:0:
358,311,193655,1,10,0:0:0:0:
113,310,193844,5,2,0:0:0:0:
164,83,194034,1,2,0:0:0:0:
388,128,194224,1,10,0:0:0:0:
346,358,194414,1,2,0:0:0:0:
185,165,194604,6,0,P|108:149|36:187,2,160,6|2|8,0:0|0:0|0:0,0:0:0:0:
109,350,195743,2,0,P|107:310|120:272,1,80,2|0,0:0|0:0,0:0:0:0:
185,165,196123,1,0,0:0:0:0:
273,283,196313,1,8,0:0:0:0:
248,70,196503,6,0,P|205:66|167:83,1,80,2|0,0:0|0:0,0:0:0:0:
69,165,196882,2,0,P|96:115|77:44,1,120,8|0,0:0|0:0,0:0:0:0:
0,24,197262,2,0,P|-4:67|13:105,1,80,2|0,0:0|0:0,0:0:0:0:
248,70,197642,5,2,0:0:0:0:
248,70,198022,2,0,B|304:54|304:102|368:81,1,120,2|0,0:0|0:0,0:0:0:0:
437,131,198401,2,0,P|451:98|446:50,1,80,8|0,0:0|0:0,0:0:0:0:
266,150,198781,1,2,0:0:0:0:
351,3,198971,1,2,0:0:0:0:
387,195,199161,1,0,0:0:0:0:
248,70,199351,1,8,0:0:0:0:
328,254,199541,6,0,P|342:299|331:338,1,80,2|0,0:0|0:0,0:0:0:0:
201,350,199920,2,0,P|199:303|268:309,1,120,8|0,0:0|0:0,0:0:0:0:
335,330,200300,2,0,P|380:344|419:333,1,80
245,210,200680,6,0,P|197:212|166:231,1,80,2|0,0:0|0:0,0:0:0:0:
25,321,201060,2,0,P|60:338|100:338,1,80,2|0,0:0|0:0,0:0:0:0:
96,172,201439,2,0,L|77:280,1,80,8|0,0:0|0:0,0:0:0:0:
239,375,201819,2,0,L|225:296,1,80,2|0,0:0|0:0,0:0:0:0:
178,138,202199,1,0,0:0:0:0:
82,250,202389,1,8,0:0:0:0:
245,210,202579,2,0,B|324:192|318:254|403:227,2,160,2|8|0,0:0|0:0|0:0,0:0:0:0:
367,138,203718,5,2,0:0:0:0:
367,138,204098,2,0,P|366:93|355:55,1,80,2|0,0:0|0:0,0:0:0:0:
179,101,204477,2,0,P|166:159|172:219,1,120,8|0,0:0|0:0,0:0:0:0:
228,299,204857,1,2,0:0:0:0:
238,168,205047,2,0,P|160:137|87:207,1,160,2|8,0:0|0:0,0:0:0:0:
314,350,205617,2,0,P|324:318|322:270,1,80,2|0,0:0|0:0,0:0:0:0:
247,90,205996,2,0,P|237:122|238:169,1,80,8|0,0:0|0:0,0:0:0:0:
408,256,206376,1,2,0:0:0:0:
356,56,206566,1,8,0:0:0:0:
234,246,206756,6,0,B|145:272|161:202|71:227,1,160,6|0,0:0|0:0,0:0:0:0:
173,351,207325,1,0,0:0:0:0:
205,166,207515,2,0,B|251:149|251:149|368:191,2,160,12|4|4,0:3|0:3|0:3,0:0:0:0:
102,303,208465,1,0,0:0:0:0:
63,115,208655,6,0,P|64:71|92:30,1,80,2|0,0:0|0:0,0:0:0:0:
205,166,209034,2,0,P|166:187|116:183,1,80,8|0,0:0|0:0,0:0:0:0:
180,16,209414,2,0,P|217:38|239:83,1,80,2|0,0:0|0:0,0:0:0:0:
292,299,209794,6,0,L|314:114,1,160,2|0,0:0|0:0,0:0:0:0:
418,240,210363,1,0,0:0:0:0:
335,370,210553,2,0,B|288:386|288:386|171:344,2,160,12|4|4,0:3|0:3|0:3,0:0:0:0:
457,327,211503,1,0,0:0:0:0:
318,226,211693,6,0,P|297:257|297:323,1,80,2|0,0:0|0:0,0:0:0:0:
181,176,212072,2,0,P|218:178|275:145,1,80,8|0,0:0|0:0,0:0:0:0:
195,317,212452,2,0,P|178:283|121:250,1,80,2|0,0:0|0:0,2:0:0:0:
18,376,212832,6,0,L|43:210,1,160,6|0,0:0|0:0,0:0:0:0:
181,176,213401,1,0,0:0:0:0:
39,54,213591,2,0,P|23:90|26:130,1,80,8|0,0:0|0:0,2:0:0:0:
145,257,213971,1,2,0:0:0:0:
114,102,214161,1,8,0:0:0:0:
41,217,214351,1,0,0:0:0:0:
210,80,214541,1,8,0:0:0:0:
240,296,214730,6,0,P|305:303|360:266,1,120,2|0,0:0|0:0,0:0:0:0:
418,216,215110,2,0,P|386:194|343:188,1,80,8|0,0:0|0:0,0:0:0:0:
208,215,215490,1,2,0:0:0:0:
357,373,215680,1,8,0:0:0:0:
421,123,215870,5,2,0:0:0:0:
208,215,216060,1,2,0:0:0:0:
437,313,216249,1,6,0:3:0:0:
275,98,216439,1,2,0:0:0:0:
162,287,216629,2,0,P|198:299|241:294,1,80,8|0,0:0|0:0,0:0:0:0:
418,216,217009,5,6,0:3:0:0:
160,142,217199,1,2,0:0:0:0:
193,379,217388,1,2,0:0:0:0:
275,98,217578,1,2,0:0:0:0:
44,182,217768,2,0,P|32:218|36:261,1,80,4|0,0:3|0:0,0:0:0:0:
193,379,218148,1,10,0:0:0:0:
160,142,218338,1,2,0:0:0:0:
0,345,218528,2,0,P|54:353|117:307,1,120,4|0,0:3|0:0,0:0:0:0:
175,262,218908,6,0,B|261:231|248:320|351:268,2,160,4|0|8,0:0|0:0|0:0,0:0:0:0:
276,84,220047,2,0,P|295:118|300:164,1,80,2|0,0:0|0:0,0:0:0:0:
193,379,220427,1,2,0:0:0:0:
104,216,220617,1,8,0:0:0:0:
327,278,220806,2,0,P|366:272|401:252,1,80,2|0,0:0|0:0,0:0:0:0:
339,34,221186,2,0,P|373:95|382:177,1,120,8|0,0:0|0:0,0:0:0:0:
460,185,221566,2,0,P|465:145|485:110,1,80,2|0,0:0|0:0,0:0:0:0:
301,157,221946,5,2,0:0:0:0:
301,157,222326,2,0,P|246:183|184:173,1,120,2|0,0:0|0:0,0:0:0:0:
127,119,222705,2,0,P|106:156|109:198,1,80,8|0,0:0|0:0,0:0:0:0:
172,279,223085,1,2,0:0:0:0:
234,89,223275,1,2,0:0:0:0:
37,233,223465,1,2,0:0:0:0:
114,10,223655,1,8,0:0:0:0:
301,157,223845,2,0,P|312:210|303:252,1,80,2|0,0:0|0:0,0:0:0:0:
234,89,224224,6,0,P|250:77|272:70,1,40,8|0,0:0|0:0,0:0:0:0:
381,113,224414,2,0,P|403:219|385:303,1,160,4|0,0:0|0:0,0:0:0:0:
244,314,224984,6,0,P|279:326|325:321,1,80,2|0,0:0|0:0,0:0:0:0:
159,201,225363,2,0,P|119:196|81:209,1,80,2|0,0:0|0:0,0:0:0:0:
291,233,225743,2,0,L|284:149,1,80,8|0,0:0|0:0,0:0:0:0:
128,292,226123,2,0,L|121:371,1,80,2|0,0:0|0:0,0:0:0:0:
321,322,226503,1,2,0:0:0:0:
159,201,226693,1,0,0:0:0:0:
373,104,226882,2,0,L|386:263,2,160,2|8|0,0:0|0:0|0:0,0:0:0:0:
321,322,228022,5,2,0:0:0:0:
321,322,228401,5,2,0:0:0:0:
159,201,228591,1,0,0:0:0:0:
373,104,228781,2,0,P|385:145|380:186,1,80,8|0,0:0|0:0,0:0:0:0:
234,260,229161,1,8,0:0:0:0:
289,60,229351,2,0,P|318:29|356:12,1,80,0|2,0:0|0:0,0:0:0:0:
481,88,229730,1,8,0:0:0:0:
293,149,229920,2,0,P|254:140|222:118,1,80,2|2,0:0|0:0,0:0:0:0:
373,104,230300,2,0,P|383:126|386:143,1,40,8|0,0:0|0:0,0:0:0:0:
371,267,230490,2,0,P|313:300|308:233,1,160,4|8,0:0|0:0,0:0:0:0:
452,253,231060,6,0,P|439:316|356:383,1,160,6|4,0:3|0:3,0:0:0:0:
205,322,231629,1,0,0:0:0:0:
293,149,231819,2,0,B|339:132|339:132|456:174,2,160,12|4|6,0:3|0:3|0:3,0:0:0:0:
370,378,232769,1,8,0:0:0:0:
256,230,232959,6,0,P|212:231|171:259,1,80,6|0,0:3|0:0,0:0:0:0:
98,384,233338,2,0,P|119:346|115:296,1,80,12|0,0:3|0:0,0:0:0:0:
44,171,233718,2,0,P|67:208|112:230,1,80,6|0,0:3|0:0,0:0:0:0:
325,63,234098,6,0,B|361:33|361:33|426:24|477:65,1,160,6|4,0:3|0:3,0:0:0:0:
437,206,234667,1,0,0:0:0:0:
262,131,234857,2,0,B|215:115|215:115|98:157,2,160,12|4|6,0:3|0:3|0:3,0:0:0:0:
362,34,235807,1,8,0:0:0:0:
437,206,235996,6,0,P|442:245|429:283,1,80,6|0,0:3|0:0,0:0:0:0:
263,267,236376,2,0,P|294:242|333:234,1,80,12|0,0:3|0:0,0:0:0:0:
405,384,236756,2,0,P|368:368|341:339,1,80,6|8,0:3|0:0,0:0:0:0:
160,181,237136,6,0,P|132:252|148:335,1,160,6|4,0:3|0:3,0:0:0:0:
263,267,237705,1,2,0:0:0:0:
174,96,237895,2,0,P|134:100|101:122,1,80,12|0,0:3|0:0,2:0:0:0:
248,148,238275,2,0,P|264:111|260:72,1,80,6|0,0:3|0:0,2:0:0:0:
9,31,238655,5,6,0:3:0:0:
132,255,238845,1,8,0:0:0:0:
188,6,239034,1,6,0:3:0:0:
188,6,239414,6,0,P|164:66|185:129,1,120,12|0,0:3|0:0,0:0:0:0:
185,209,239794,2,0,P|145:203|112:180,1,80,6|8,0:3|0:0,0:0:0:0:
260,72,240174,6,0,P|320:48|383:69,1,120,2|0,0:0|0:0,0:0:0:0:
402,153,240553,2,0,P|364:155|323:139,1,80,8|0,0:0|0:0,0:0:0:0:
116,103,240933,5,12,0:3:0:0:
80,310,241123,1,0,0:0:0:0:
289,348,241313,1,14,0:3:0:0:
325,140,241503,1,0,0:0:0:0:
128,120,241692,5,10,0:0:0:0:
97,300,241882,1,2,0:0:0:0:
279,332,242072,1,10,0:0:0:0:
309,152,242262,1,2,0:0:0:0:
97,78,242452,5,8,0:0:0:0:
55,327,242642,1,2,0:0:0:0:
307,372,242832,1,10,0:0:0:0:
349,123,243022,1,2,0:0:0:0:
97,78,243211,6,0,P|62:81|2:120,2,95.9999970703126,6|2|2,0:0|0:0|0:0,0:0:0:0:
194,139,244351,1,2,0:0:0:0:
92,193,244730,1,2,0:0:0:0:
92,193,246249,6,0,P|80:157|84:107,2,80,4|0|4,0:3|0:0|0:3,0:0:0:0:
194,139,247389,1,0,0:0:0:0:
139,302,247768,2,0,B|276:310|216:203|349:214,1,240,4|0,0:3|0:0,0:0:0:0:
326,311,249287,6,0,P|331:357|308:391,2,80,4|0|4,0:3|0:0|0:3,0:0:0:0:
247,256,250427,1,0,0:0:0:0:
511,180,250806,2,0,B|471:139|471:139|286:190,1,240,4|0,0:3|0:0,0:0:0:0:
167,49,252325,6,0,P|151:84|159:134,1,80,4|0,0:3|0:0,0:0:0:0:
357,125,253106,2,0,P|361:86|345:50,1,80,4|0,0:3|0:0,0:0:0:0:
256,174,253932,6,0,L|256:253,1,80,4|0,0:3|0:0,0:0:0:0:
168,362,254959,6,0,L|168:283,1,80,4|0,0:3|0:0,0:0:0:0:
100,170,256009,6,0,L|100:157,5,13.3333333333333,4|0|0|0|0|0,0:3|0:0|0:0|0:0|0:0|0:0,0:0:0:0:
171,174,256609,38,0,B|191:76|62:123|132:-54|219:27|219:27|323:-32|385:163|169:100|217:225,1,560,4|0,0:3|0:0,0:0:0:0:
