osu file format v14

[General]
AudioFilename: audio.mp3
AudioLeadIn: 0
PreviewTime: 63874
Countdown: 0
SampleSet: Normal
StackLeniency: 0.7
Mode: 0
LetterboxInBreaks: 0
WidescreenStoryboard: 0

[Editor]
Bookmarks: 38351,51823,68373
DistanceSpacing: 2
BeatDivisor: 4
GridSize: 16
TimelineZoom: 1.9

[Metadata]
Title:Yura Yura (TV Size)
TitleUnicode:Yura Yura (TV Size)
Artist:Hearts Grow
ArtistUnicode:Hearts Grow
Creator:iShowes
Version:- i S h o w es -
Source:
Tags:Naruto Yura Yura
BeatmapID:2074048
BeatmapSetID:991722

[Difficulty]
HPDrainRate:5.2
CircleSize:4
OverallDifficulty:7.5
ApproachRate:9
SliderMultiplier:1.00000000596046
SliderTickRate:1

[Events]
//Background and Video events
0,0,"6064-naruto-as-a-boy-1920x1080-anime-wallpaper.jpg",0,0
//Break Periods
//Storyboard Layer 0 (Background)
//Storyboard Layer 1 (Fail)
//Storyboard Layer 2 (Pass)
//Storyboard Layer 3 (Foreground)
//Storyboard Sound Samples

[TimingPoints]
184,398.803589232303,4,1,0,100,1,0
1374,-100,4,1,0,70,0,0
12229,-80,4,1,0,70,0,0
63475,-66.6666666666667,4,1,0,100,0,1
88600,-66.6666666666667,4,1,0,100,0,0

[HitObjects]
102,76,582,5,0,0:0:0:0:
260,41,981,1,0,0:0:0:0:
410,101,1380,1,0,0:0:0:0:
416,262,1778,1,0,0:0:0:0:
262,313,2177,1,0,0:0:0:0:
123,228,2576,2,0,P|92:184|91:132,2,100.000000596046
123,228,3772,5,0,0:0:0:0:
183,77,4171,1,0,0:0:0:0:
183,77,4570,2,0,P|213:118|267:142,2,100.000000596046
344,63,5766,1,0,0:0:0:0:
340,224,6165,1,0,0:0:0:0:
201,307,6564,1,0,0:0:0:0:
362,313,6963,6,0,L|416:222,1,100.000000596046
261,164,7760,2,0,L|175:103,1,100.000000596046
32,141,8558,1,0,0:0:0:0:
193,151,8957,2,0,P|230:117|287:104,2,100.000000596046
193,151,10153,5,0,0:0:0:0:
338,44,10552,1,0,0:0:0:0:
401,212,10951,1,0,0:0:0:0:
238,289,11350,1,0,0:0:0:0:
58,302,11748,2,0,P|36:262|53:201,2,93.7500005587931
138,192,12745,5,8,0:0:0:0:
254,259,12945,1,0,0:0:0:0:
370,189,13144,1,0,0:0:0:0:
254,118,13344,1,0,0:0:0:0:
103,72,13543,1,0,0:0:0:0:
53,207,13742,1,0,0:0:0:0:
192,172,13942,1,0,0:0:0:0:
168,314,14141,1,0,0:0:0:0:
341,97,14540,5,0,0:0:0:0:
213,29,14739,2,0,P|170:41|126:104,3,125.000000745057
44,190,16135,5,0,0:0:0:0:
193,175,16335,1,0,0:0:0:0:
96,289,16534,1,0,0:0:0:0:
244,308,16733,1,0,0:0:0:0:
265,159,16933,1,0,0:0:0:0:
411,190,17132,1,0,0:0:0:0:
343,55,17332,1,0,0:0:0:0:
136,272,17730,5,0,0:0:0:0:
278,317,17930,1,0,0:0:0:0:
156,117,18329,1,0,0:0:0:0:
134,141,18727,1,0,0:0:0:0:
121,170,19126,1,0,0:0:0:0:
417,112,19525,6,0,P|371:125|362:125,1,31.2500001862644
270,155,19724,1,0,0:0:0:0:
406,216,19924,1,0,0:0:0:0:
265,269,20123,1,0,0:0:0:0:
163,158,20323,1,0,0:0:0:0:
98,293,20522,1,0,0:0:0:0:
42,152,20721,2,0,P|13:182|9:206,2,62.5000003725287
166,163,21519,5,0,0:0:0:0:
315,164,21918,1,0,0:0:0:0:
465,164,22317,1,0,0:0:0:0:
211,68,22715,6,0,L|171:94,1,31.2500001862644
230,225,22915,1,0,0:0:0:0:
92,165,23114,1,0,0:0:0:0:
240,146,23314,1,0,0:0:0:0:
130,248,23513,1,0,0:0:0:0:
266,311,23713,1,0,0:0:0:0:
343,182,23912,1,0,0:0:0:0:
200,227,24111,5,0,0:0:0:0:
344,267,24311,1,0,0:0:0:0:
258,144,24510,1,0,0:0:0:0:
366,40,24710,1,0,0:0:0:0:
377,189,24909,1,0,0:0:0:0:
378,338,25108,1,0,0:0:0:0:
228,329,25308,1,0,0:0:0:0:
309,202,25507,1,0,0:0:0:0:
360,56,25707,5,0,0:0:0:0:
360,56,25806,1,0,0:0:0:0:
360,56,25906,1,0,0:0:0:0:
420,93,26105,6,0,B|421:124|407:147|387:167|338:181,1,125.000000745057
263,122,26704,2,0,P|228:158|226:184,1,62.5000003725287
312,256,27102,1,0,0:0:0:0:
216,315,27302,1,0,0:0:0:0:
348,338,27501,1,0,0:0:0:0:
180,232,27701,2,0,P|149:195|115:197,1,62.5000003725287
78,130,28099,2,0,P|101:109|140:101,1,62.5000003725287
224,98,28498,5,0,0:0:0:0:
292,83,28897,1,0,0:0:0:0:
401,162,29296,1,0,0:0:0:0:
360,290,29695,1,0,0:0:0:0:
227,264,30093,2,0,P|171:199|124:199,1,125.000000745057
313,173,30891,2,0,P|257:108|218:113,1,125.000000745057
141,127,31689,2,0,P|85:62|53:71,1,125.000000745057
92,58,32486,5,0,0:0:0:0:
59,188,32885,1,0,0:0:0:0:
129,303,33284,1,0,0:0:0:0:
263,301,33683,2,0,P|305:271|338:197,1,125.000000745057
274,76,34480,2,0,P|227:105|194:174,1,125.000000745057
303,209,35278,5,0,0:0:0:0:
191,96,35677,1,0,0:0:0:0:
114,172,36075,1,0,0:0:0:0:
162,268,36474,1,0,0:0:0:0:
312,257,36873,2,0,B|369:223|359:267|441:214,2,125.000000745057
314,172,38069,1,0,0:0:0:0:
395,64,38468,1,0,0:0:0:0:
188,68,38867,2,0,P|148:110|127:177,1,125.000000745057
153,292,39665,5,0,0:0:0:0:
302,289,40063,2,0,P|403:251|420:234,1,125.000000745057
409,116,40861,1,0,0:0:0:0:
315,48,41260,2,0,P|258:32|190:55,1,125.000000745057
77,95,42057,1,0,0:0:0:0:
59,243,42456,2,0,P|136:319|156:321,1,125.000000745057
259,269,43254,1,0,0:0:0:0:
111,155,43653,2,0,P|136:212|186:254,2,125.000000745057
355,102,44849,1,0,0:0:0:0:
206,342,45248,6,0,P|125:263|178:143,1,250.000001490115
93,70,46444,1,0,0:0:0:0:
217,68,46843,2,0,P|290:67|351:100,1,125.000000745057
338,97,47640,5,0,0:0:0:0:
378,280,48039,1,0,0:0:0:0:
190,290,48438,2,0,P|120:253|84:190,1,125.000000745057
26,30,49236,1,0,0:0:0:0:
210,61,49634,1,0,0:0:0:0:
155,240,50033,1,0,0:0:0:0:
338,277,50432,2,0,P|376:204|372:141,1,125.000000745057
210,75,51230,5,0,0:0:0:0:
396,57,51628,1,0,0:0:0:0:
276,201,52027,1,0,0:0:0:0:
460,166,52426,1,0,0:0:0:0:
305,272,52825,2,0,P|161:271|88:204,1,250.000001490115
27,25,54021,1,0,0:0:0:0:
214,12,54420,1,0,0:0:0:0:
392,69,54819,1,0,0:0:0:0:
432,252,55218,6,0,P|376:286|300:310,1,125.000000745057
182,178,56015,1,0,0:0:0:0:
338,75,56414,1,0,0:0:0:0:
153,42,56813,1,0,0:0:0:0:
51,199,57212,1,0,0:0:0:0:
191,322,57610,2,0,P|260:316|316:273,2,125.000000745057
301,169,58807,5,0,0:0:0:0:
301,169,59206,2,0,P|240:216|174:204,1,125.000000745057
58,85,60003,1,0,0:0:0:0:
239,36,60402,1,0,0:0:0:0:
231,223,60801,1,0,0:0:0:0:
403,297,61200,6,0,P|448:226|438:172,1,125.000000745057
412,3,61997,1,0,0:0:0:0:
230,48,62396,1,0,0:0:0:0:
414,80,62795,1,0,0:0:0:0:
253,176,63194,2,0,B|191:226|191:226|264:237,1,125.000000745057
326,95,63992,5,0,0:0:0:0:
326,95,64091,1,0,0:0:0:0:
326,95,64191,1,0,0:0:0:0:
326,95,64390,2,0,L|269:155,1,75.0000033080576
74,239,64789,1,0,0:0:0:0:
449,125,64989,2,0,L|391:182,1,75.0000033080576
240,271,65387,2,0,P|190:266|160:274,1,75.0000033080576
11,107,65786,5,0,0:0:0:0:
11,107,65985,1,0,0:0:0:0:
115,65,66185,1,0,0:0:0:0:
221,27,66384,1,0,0:0:0:0:
324,70,66583,1,0,0:0:0:0:
425,121,66783,1,0,0:0:0:0:
384,342,66982,1,0,0:0:0:0:
384,342,67182,2,0,P|346:245|281:226,1,150.000006616115
213,287,67780,5,0,0:0:0:0:
89,275,67979,1,0,0:0:0:0:
89,275,68179,1,0,0:0:0:0:
56,52,68378,1,0,0:0:0:0:
56,52,68578,1,0,0:0:0:0:
280,61,68777,1,0,0:0:0:0:
280,61,68976,1,0,0:0:0:0:
351,148,69176,5,0,0:0:0:0:
248,194,69375,1,0,0:0:0:0:
248,194,69575,1,0,0:0:0:0:
442,216,69774,1,0,0:0:0:0:
442,216,69973,2,0,L|295:273,1,150.000006616115
302,270,70771,5,0,0:0:0:0:
191,248,70970,1,0,0:0:0:0:
86,203,71170,1,0,0:0:0:0:
86,203,71369,1,0,0:0:0:0:
86,203,71569,1,0,0:0:0:0:
162,121,71768,1,0,0:0:0:0:
244,44,71967,2,0,P|324:52|385:112,1,150.000006616115
424,197,72566,5,0,0:0:0:0:
314,222,72765,1,0,0:0:0:0:
402,291,72964,1,0,0:0:0:0:
291,313,73164,1,0,0:0:0:0:
225,221,73363,1,0,0:0:0:0:
145,300,73563,2,0,P|64:266|58:196,1,150.000006616115
53,211,74161,5,0,0:0:0:0:
124,97,74360,1,0,0:0:0:0:
175,238,74560,1,0,0:0:0:0:
261,97,74759,1,0,0:0:0:0:
339,241,74958,1,0,0:0:0:0:
196,156,75158,1,0,0:0:0:0:
359,137,75357,1,0,0:0:0:0:
235,246,75557,5,0,0:0:0:0:
235,246,75756,1,0,0:0:0:0:
78,296,75955,2,0,P|40:212|56:148,1,150.000006616115
168,40,76554,1,0,0:0:0:0:
332,54,76753,1,0,0:0:0:0:
441,176,76952,1,0,0:0:0:0:
338,308,77152,6,0,P|293:264|254:253,1,75.0000033080576
83,171,77551,1,0,0:0:0:0:
227,55,77750,2,0,P|282:85|301:83,1,75.0000033080576
359,197,78149,2,0,P|327:246|329:282,1,75.0000033080576
124,305,78548,5,0,0:0:0:0:
216,142,78747,1,0,0:0:0:0:
380,306,78946,1,0,0:0:0:0:
153,172,79146,1,0,0:0:0:0:
414,174,79345,1,0,0:0:0:0:
236,313,79545,1,0,0:0:0:0:
302,166,79744,1,0,0:0:0:0:
118,271,79943,2,0,B|89:203|89:203|140:120,1,150.000006616115
234,38,80542,5,0,0:0:0:0:
395,132,80741,1,0,0:0:0:0:
282,281,80940,1,0,0:0:0:0:
149,148,81140,2,0,P|116:219|147:306,1,150.000006616115
297,197,81738,5,0,0:0:0:0:
297,197,81937,1,0,0:0:0:0:
432,66,82137,1,0,0:0:0:0:
245,50,82336,1,0,0:0:0:0:
245,50,82536,1,0,0:0:0:0:
64,97,82735,1,0,0:0:0:0:
84,283,82934,1,0,0:0:0:0:
272,283,83134,2,0,P|369:253|409:189,1,150.000006616115
398,29,83732,5,0,0:0:0:0:
398,29,83931,1,0,0:0:0:0:
247,37,84131,1,0,0:0:0:0:
243,35,84330,2,0,P|167:49|93:105,1,150.000006616115
42,224,84928,1,0,0:0:0:0:
148,330,85128,2,0,P|231:326|297:287,1,150.000006616115
405,200,85726,5,0,0:0:0:0:
405,200,85925,1,0,0:0:0:0:
407,49,86125,1,0,0:0:0:0:
407,49,86324,1,0,0:0:0:0:
256,47,86524,1,0,0:0:0:0:
113,94,86723,6,0,B|54:174|54:174|139:173,1,150.000006616115
243,142,87321,1,0,0:0:0:0:
346,93,87520,5,0,0:0:0:0:
346,93,87620,1,0,0:0:0:0:
346,93,87720,1,0,0:0:0:0:
268,167,87920,2,0,P|249:156|244:132,2,37.5000016540288
146,243,88319,1,4,0:0:0:0:
