osu file format v14

[General]
AudioFilename: audio.mp3
AudioLeadIn: 0
PreviewTime: 48442
Countdown: 0
SampleSet: Soft
StackLeniency: 0.7
Mode: 0
LetterboxInBreaks: 0
WidescreenStoryboard: 1

[Editor]
Bookmarks: 14157,74157
DistanceSpacing: 1
BeatDivisor: 4
GridSize: 4
TimelineZoom: 1.6

[Metadata]
Title:Stay Alive (instrumental) (Cut Ver.)
TitleUnicode:Stay Alive (instrumental) (Cut Ver.)
Artist:Heart's Cry
ArtistUnicode:Heart's Cry
Creator:DayDreamkwy
Version:Normal
Source:Re:ゼロから始める異世界生活
Tags:Re: Zero Kara Hajimeru Isekai Seikatsu Life in a different world from zero Re:zero Ed Ending Instrumental Rock hearts version Emilia yuyoyuppe ゆよゆっぺ muryoku-p muryokup 無力P hige driver ヒゲドライバー baker takahashi rie 高橋李依
BeatmapID:2858216
BeatmapSetID:1376134

[Difficulty]
HPDrainRate:4
CircleSize:3
OverallDifficulty:4
ApproachRate:5
SliderMultiplier:1.8
SliderTickRate:1

[Events]
//Background and Video events
0,0,"60054686_p0.jpg",0,0
//Break Periods
//Storyboard Layer 0 (Background)
//Storyboard Layer 1 (Fail)
//Storyboard Layer 2 (Pass)
//Storyboard Layer 3 (Foreground)
//Storyboard Layer 4 (Overlay)
//Storyboard Sound Samples

[TimingPoints]
443,857.142857142857,4,2,4,30,1,0
3014,-100,4,2,4,15,0,0
3871,-100,4,2,4,30,0,0
6014,-100,4,2,4,20,0,0
6442,-100,4,2,4,15,0,0
6657,-100,4,2,4,20,0,0
6871,-100,4,2,4,25,0,0
7085,-100,4,2,4,30,0,0
9871,-100,4,2,4,15,0,0
10728,-100,4,2,4,30,0,0
14157,-83.3333333333333,4,2,1,50,0,0
16728,-83.3333333333333,4,2,2,50,0,0
17585,-83.3333333333333,4,2,1,50,0,0
23585,-83.3333333333333,4,2,3,50,0,0
24442,-83.3333333333333,4,2,1,50,0,0
31300,-83.3333333333333,4,2,4,50,0,0
31514,-83.3333333333333,4,2,1,50,0,0
38157,-83.3333333333333,4,2,4,50,0,0
38371,-83.3333333333333,4,2,1,50,0,0
39442,-83.3333333333333,4,2,4,50,0,0
40300,-83.3333333333333,4,2,1,50,0,0
41585,-83.3333333333333,4,2,22,50,0,0
45014,-166.666666666667,4,2,22,50,0,0
48442,-66.6666666666667,4,2,62,80,0,1
69014,-66.6666666666667,4,2,1,80,0,1
72442,-66.6666666666667,4,2,1,90,0,1
75014,-66.6666666666667,4,2,1,80,0,0
75442,-66.6666666666667,4,2,1,75,0,0
75871,-76.9230769230769,4,2,1,70,0,0
78442,-76.9230769230769,4,2,2,70,0,0
79300,-76.9230769230769,4,2,1,70,0,0
85300,-76.9230769230769,4,2,5,70,0,0
85728,-76.9230769230769,4,2,2,70,0,0
86157,-76.9230769230769,4,2,1,70,0,0
90014,-76.9230769230769,4,2,1,65,0,0
90442,-76.9230769230769,4,2,1,60,0,0
90871,-76.9230769230769,4,2,1,55,0,0
91300,-76.9230769230769,4,2,1,50,0,0
92157,-76.9230769230769,4,2,1,45,0,0
92585,-76.9230769230769,4,2,1,40,0,0
93014,-76.9230769230769,4,2,1,35,0,0

[Colours]
Combo1 : 0,202,0
Combo2 : 255,255,128
Combo3 : 192,192,192
Combo4 : 128,0,255

[HitObjects]
141,87,443,6,0,B|165:113|165:113|264:104,1,135,2|2,0:0|0:0,0:0:0:0:
307,92,1300,2,0,L|313:191,1,90,2|2,0:0|0:0,0:0:0:0:
122,283,3871,6,0,P|105:235|123:146,1,135,2|2,0:0|0:0,0:0:0:0:
158,132,4728,2,0,P|199:166|265:145,1,90,2|2,0:0|0:0,0:0:0:0:
345,287,6442,2,0,L|351:226,2,45,2|2|2,0:0|0:0|0:0,0:0:0:0:
410,350,7300,6,0,P|462:324|478:253,1,135,2|2,0:0|0:0,0:0:0:0:
487,209,8157,2,0,B|452:181|452:181|393:197,1,90,2|2,0:0|0:0,0:0:0:0:
279,346,10728,6,0,L|182:337,1,90,2|0,0:0|0:0,0:0:0:0:
146,258,11585,2,0,L|101:259,2,45,2|0|2,0:0|0:0|0:0,0:0:0:0:
246,53,13300,2,0,L|237:113,1,45,2|2,0:0|0:0,0:0:0:0:
226,140,13728,2,0,L|234:200,1,45,2|2,0:0|0:0,0:0:0:0:
231,238,14157,5,6,3:2:0:0:
322,297,14585,1,10,0:0:0:0:
405,227,15014,1,10,0:0:0:0:
383,121,15442,1,10,0:0:0:0:
371,68,15657,2,0,P|314:51|269:83,1,107.999996704102,8|8,0:0|0:0,0:0:0:0:
268,127,16300,2,0,P|232:155|155:141,1,107.999996704102,8|2,0:0|0:1,0:0:0:0:
154,50,17157,1,4,0:0:0:0:
71,120,17585,5,4,3:2:0:0:
10,209,18014,1,8,0:0:0:0:
104,260,18442,1,8,0:0:0:0:
38,346,18871,1,8,0:0:0:0:
87,367,19085,2,0,B|143:378|143:378|213:355,1,107.999996704102,8|8,0:0|0:0,0:0:0:0:
238,335,19728,2,0,L|248:227,1,107.999996704102,8|8,0:0|0:0,0:0:0:0:
282,125,20585,2,0,P|313:123|347:127,1,53.9999983520508,8|8,0:0|0:0,0:0:0:0:
390,122,21014,5,4,3:2:0:0:
485,171,21442,1,8,0:0:0:0:
460,277,21871,1,8,0:0:0:0:
356,307,22300,1,8,0:0:0:0:
348,253,22514,2,0,P|280:250|239:284,1,107.999996704102,8|8,0:0|0:0,0:0:0:0:
202,301,23157,2,0,L|184:190,1,107.999996704102,8|4,0:0|0:0,0:0:0:0:
162,88,24014,1,2,0:0:0:0:
267,66,24442,5,6,3:2:0:0:
369,107,24871,1,10,0:0:0:0:
471,71,25300,1,8,0:0:0:0:
493,176,25728,1,8,0:0:0:0:
462,220,25942,2,0,L|444:329,1,107.999996704102,8|8,0:0|0:0,0:0:0:0:
427,378,26585,1,8,0:0:0:0:
322,351,27014,2,0,L|257:336,1,53.9999983520508,8|8,0:0|0:3,0:0:0:0:
216,348,27442,2,0,L|163:360,1,53.9999983520508,8|4,0:0|0:3,0:0:0:0:
113,339,27871,6,0,B|73:310|73:310|69:233,1,107.999996704102,4|2,3:2|0:0,0:0:0:0:
55,144,28728,2,0,P|82:158|123:148,1,53.9999983520508,8|0,0:0|0:0,0:0:0:0:
145,120,29157,1,2,0:0:0:0:
195,138,29371,2,0,P|204:203|206:267,2,107.999996704102,2|0|0,3:2|3:0|0:0,0:0:0:0:
248,144,30442,1,8,0:0:0:0:
302,53,30871,1,2,3:2:0:0:
385,121,31300,6,0,B|425:150|425:150|429:227,1,107.999996704102,4|2,3:2|0:0,0:0:0:0:
409,315,32157,2,0,L|353:307,1,53.9999983520508,8|0,0:0|0:0,0:0:0:0:
306,329,32585,1,2,0:0:0:0:
256,307,32800,2,0,P|241:215|242:184,2,107.999996704102,2|0|0,3:2|3:0|0:0,0:0:0:0:
226,352,33871,2,0,L|172:359,1,53.9999983520508,8|0,0:0|3:0,0:0:0:0:
118,365,34300,2,0,L|40:333,1,53.9999983520508,8|0,0:0|3:0,0:0:0:0:
50,289,34728,6,0,L|35:164,1,107.999996704102,4|2,3:2|0:0,0:0:0:0:
23,74,35585,2,0,L|84:65,1,53.9999983520508,10|0,0:0|0:0,0:0:0:0:
115,104,36014,1,2,0:0:0:0:
164,82,36228,2,0,L|276:67,2,107.999996704102,2|0|2,3:2|3:0|0:0,0:0:0:0:
155,135,37300,1,8,0:0:0:0:
156,242,37728,1,2,3:2:0:0:
260,269,38157,6,0,B|314:288|314:288|381:262,1,107.999996704102,4|2,3:2|0:0,0:0:0:0:
468,239,39014,2,0,L|475:303,2,53.9999983520508,8|0|2,0:0|0:0|0:0,0:0:0:0:
460,185,39657,1,2,3:2:0:0:
453,131,39871,2,0,P|404:115|338:139,1,107.999996704102,4|4,0:0|0:0,0:0:0:0:
278,209,40728,1,8,0:0:0:0:
198,135,41157,1,8,0:3:0:0:
273,58,41585,5,2,0:0:0:0:
273,58,43300,1,2,0:0:0:0:
273,58,45014,2,0,B|226:145|271:212|271:212|318:282|250:360,1,323.999990112305,2|0,0:0|0:0,0:0:0:0:
145,110,48442,6,0,B|216:142|207:78|286:120,1,135.000005149842,6|2,3:2|3:2,0:0:0:0:
404,155,49300,2,0,P|422:208|413:238,1,67.5000025749208,10|0,0:0|0:0,0:0:0:0:
360,248,49728,2,0,P|342:301|351:331,1,67.5000025749208,2|0,3:2|0:0,0:0:0:0:
390,359,50157,1,2,3:2:0:0:
255,347,50585,1,2,3:2:0:0:
164,245,51014,2,0,B|139:182|139:182|159:102,1,135.000005149842,10|2,0:0|3:2,0:0:0:0:
270,45,51871,6,0,P|317:70|410:38,2,135.000005149842,6|2|10,3:2|3:2|0:0,0:0:0:0:
145,97,53157,1,2,3:2:0:0:
255,174,53585,1,2,3:2:0:0:
389,157,54014,2,0,P|406:201|404:233,1,67.5000025749208,2|0,0:3|0:0,0:0:0:0:
389,286,54442,1,8,0:0:0:0:
290,378,54871,2,0,P|273:334|275:302,1,67.5000025749208,2|0,0:3|0:0,0:0:0:0:
273,246,55300,6,0,B|216:250|216:250|188:231|188:231|117:235,1,135.000005149842,6|2,3:2|3:2,0:0:0:0:
10,249,56157,2,0,B|-1:209|-1:209|11:172,1,67.5000025749208,10|0,0:0|0:0,0:0:0:0:
65,151,56585,2,0,B|76:111|76:111|64:74,1,67.5000025749208,2|0,3:2|0:0,0:0:0:0:
38,25,57014,2,0,L|178:14,2,135.000005149842,2|2|10,3:2|3:2|0:0,0:0:0:0:
129,124,58300,1,2,3:2:0:0:
248,61,58728,6,0,P|292:78|318:169,2,135.000005149842,6|2|10,3:2|3:2|0:0,0:0:0:0:
175,175,60014,1,2,3:2:0:0:
228,299,60442,2,0,L|295:292,1,67.5000025749208,2|0,3:2|0:0,0:0:0:0:
359,269,60871,2,0,L|426:275,1,67.5000025749208,0|0,3:0|0:0,0:0:0:0:
482,312,61300,1,8,0:0:0:0:
470,177,61728,1,8,0:3:0:0:
415,137,61942,1,4,3:0:0:0:
352,138,62157,6,0,B|283:124|283:124|214:147,1,135.000005149842,6|2,3:2|3:2,0:0:0:0:
114,226,63014,2,0,B|93:164|93:164|107:95,1,135.000005149842,10|2,0:0|3:2,0:0:0:0:
205,2,63871,2,0,B|240:0|240:0|279:27,1,67.5000025749208,2|0,3:2|0:0,0:0:0:0:
307,72,64300,2,0,B|327:102|327:102|320:156,1,67.5000025749208,2|0,3:2|0:0,0:0:0:0:
285,190,64728,2,0,L|283:340,1,135.000005149842,10|2,0:0|3:2,0:0:0:0:
407,271,65585,6,0,P|425:202|391:135,2,135.000005149842,6|2|10,3:2|3:2|0:0,0:0:0:0:
283,324,66871,1,2,0:0:0:0:
154,282,67300,2,0,L|132:202,1,67.5000025749208,2|0,0:0|3:0,0:0:0:0:
116,152,67728,2,0,L|138:72,1,67.5000025749208,2|0,3:2|0:0,0:0:0:0:
157,23,68157,1,10,0:0:0:0:
259,110,68585,1,10,0:0:0:0:
323,108,68799,1,10,0:0:0:0:
367,55,69014,6,0,L|379:193,2,135.000005149842,6|2|8,3:2|3:2|0:3,0:0:0:0:
468,144,70300,1,0,3:0:0:0:
461,278,70728,2,0,L|326:290,2,135.000005149842,0|0|8,3:0|3:0|0:3,0:0:0:0:
374,382,72014,1,0,3:0:0:0:
240,366,72442,6,0,L|98:385,1,135.000005149842,4|4,3:2|3:2,0:0:0:0:
50,260,73300,2,0,L|192:279,1,135.000005149842,12|4,3:2|3:2,0:0:0:0:
299,207,74157,2,0,L|280:349,1,135.000005149842,4|8,1:0|1:3,0:0:0:0:
414,316,75014,1,8,1:2:0:0:
461,189,75442,1,8,3:0:0:0:
507,62,75871,5,4,3:2:0:0:
391,66,76300,1,8,0:0:0:0:
338,174,76728,2,0,L|273:182,1,58.4999973220826,8|0,0:0|0:0,0:0:0:0:
234,217,77157,1,8,0:0:0:0:
182,189,77371,2,0,L|60:203,1,116.999994644165,8|8,0:0|0:0,0:0:0:0:
57,260,78014,2,0,L|72:327,1,58.4999973220826,8|0,0:0|0:0,0:0:0:0:
110,361,78442,2,0,L|226:347,1,116.999994644165,2|4,0:1|0:0,0:0:0:0:
343,345,79300,5,4,3:2:0:0:
409,248,79728,1,8,0:0:0:0:
291,251,80157,2,0,P|249:248|206:222,1,58.4999973220826,8|0,0:0|0:0,0:0:0:0:
192,209,80585,1,8,0:0:0:0:
189,150,80800,2,0,P|241:150|300:111,1,116.999994644165,8|8,0:0|0:0,0:0:0:0:
309,60,81442,2,0,P|279:48|243:56,1,58.4999973220826,8|0,0:0|0:0,0:0:0:0:
196,66,81871,1,8,0:0:0:0:
92,11,82300,1,8,0:0:0:0:
41,40,82514,1,8,0:0:0:0:
25,96,82728,5,4,3:2:0:0:
50,210,83157,1,8,0:0:0:0:
140,283,83585,2,0,B|167:302|167:302|233:291,1,58.4999973220826,8|0,0:0|0:0,0:0:0:0:
252,286,84014,1,8,0:0:0:0:
293,327,84228,2,0,B|347:341|347:341|404:304,1,116.999994644165,8|8,0:0|0:0,0:0:0:0:
403,249,84871,2,0,L|392:173,1,58.4999973220826,8|0,0:0|0:0,0:0:0:0:
370,137,85300,6,0,B|296:182|296:182|212:152,1,175.499991966248,4|0,0:0|0:0,0:0:0:0:
190,97,86157,6,0,L|174:212,1,116.999994644165,4|8,3:2|0:0,0:0:0:0:
74,152,87014,2,0,L|82:89,1,58.4999973220826,8|0,0:0|0:0,0:0:0:0:
100,38,87442,1,8,0:0:0:0:
155,18,87657,2,0,L|281:9,1,116.999994644165,8|8,0:0|0:0,0:0:0:0:
297,62,88300,1,8,0:0:0:0:
244,167,88728,6,0,L|233:239,1,58.4999973220826,8|0,0:0|3:0,0:0:0:0:
260,277,89157,2,0,L|249:353,2,58.4999973220826,8|0|4,0:0|3:0|3:2,0:0:0:0:
256,192,89800,12,0,93014,0:0:0:0:
