osu file format v14

[General]
AudioFilename: ! - Koukan Win-Win mujouken.mp3
AudioLeadIn: 0
PreviewTime: 122135
Countdown: 1
SampleSet: Soft
StackLeniency: 0.7
Mode: 0
LetterboxInBreaks: 1
WidescreenStoryboard: 0

[Editor]
Bookmarks: 64052,64133,64213,64294
DistanceSpacing: 0.5
BeatDivisor: 4
GridSize: 8
TimelineZoom: 2.699999

[Metadata]
Title:Koukan Win-Win Mujouken
TitleUnicode:好感Win-Win無条件
Artist:Heart Invader
ArtistUnicode:ハート♡インベーダー
Creator:sammy711
Version:Insane
Source:六畳間の侵略者!?
Tags:Rokujouma no Shinryakusha
BeatmapID:556676
BeatmapSetID:240948

[Difficulty]
HPDrainRate:7
CircleSize:4
OverallDifficulty:7
ApproachRate:9.3
SliderMultiplier:1.5
SliderTickRate:1

[Events]
//Background and Video events
0,0,"Korona Sou.JPG",0,0
//Break Periods
2,87969,97057
//Storyboard Layer 0 (Background)
//Storyboard Layer 1 (Fail)
//Storyboard Layer 2 (Pass)
//Storyboard Layer 3 (Foreground)
//Storyboard Sound Samples

[TimingPoints]
1129,322.684737011939,4,2,1,100,1,0
6291,-66.6666666666667,4,2,1,100,0,0
21458,-100,4,2,1,100,0,0
30508,-80,4,2,1,100,0,0
56630,-66.6666666666667,4,2,1,100,0,1
77443,-66.6666666666667,4,2,1,100,0,0
122458,-100,4,2,1,100,0,1
143271,-100,4,2,1,100,0,0
166343,-100,4,2,1,100,0,1
166424,-100,4,2,1,100,0,0
167634,-100,4,2,1,100,0,1
167714,-100,4,2,1,100,0,0
168925,-100,4,2,1,100,0,1
169005,-100,4,2,1,100,0,0
170215,-100,4,2,1,100,0,1
170296,-100,4,2,1,100,0,0
171667,-100,4,2,1,100,0,1
171748,-100,4,2,1,100,0,0
172797,-100,4,2,1,100,0,1
172877,-100,4,2,1,100,0,0
174249,-100,4,2,1,100,0,1
176669,-100,4,2,1,100,0,0
177153,-100,4,2,1,100,0,1
197482,-100,4,2,1,100,0,0

[Colours]
Combo1 : 255,121,121
Combo2 : 98,255,98
Combo3 : 200,200,255
Combo4 : 255,140,255
Combo5 : 255,255,117

[HitObjects]
144,88,1129,5,4,0:0:0:0:
44,336,2419,5,4,0:0:0:0:
320,140,3710,5,4,0:0:0:0:
448,352,5001,5,4,0:0:0:0:
320,184,5646,2,0,P|302:254|264:336,1,150,4|8,0:0|0:0,0:0:0:0:
270,324,6049,1,8,0:0:0:0:
270,324,6130,1,8,0:0:0:0:
468,264,6291,6,0,P|433:221|410:170,1,112.500004291535,8|8,0:0|0:0,0:0:0:0:
401,143,6533,1,8,0:0:0:0:
386,118,6614,1,8,0:0:0:0:
364,99,6695,1,8,0:0:0:0:
336,92,6775,1,8,0:0:0:0:
307,95,6856,1,8,0:0:0:0:
281,106,6937,1,8,0:0:0:0:
258,122,7017,1,8,0:0:0:0:
234,136,7098,1,8,0:0:0:0:
207,144,7179,1,8,0:0:0:0:
178,142,7260,2,0,L|124:118,1,56.2500021457673,8|8,0:0|0:0,0:0:0:0:
191,245,7421,1,8,0:0:0:0:
269,323,7582,6,0,B|307:305|307:305|285:250|313:181,1,168.750006437302,4|8,0:0|0:0,0:0:0:0:
323,155,7905,1,8,0:0:0:0:
342,134,7986,1,8,0:0:0:0:
364,117,8066,1,8,0:0:0:0:
390,108,8147,1,8,0:0:0:0:
417,112,8228,1,8,0:0:0:0:
443,122,8308,1,8,0:0:0:0:
462,142,8389,1,8,0:0:0:0:
469,168,8470,1,8,0:0:0:0:
473,195,8550,2,0,L|510:265,1,56.2500021457673,8|8,0:0|0:0,0:0:0:0:
379,241,8712,1,8,0:0:0:0:
258,83,8873,6,0,B|233:98|192:95|192:95|179:112|179:112|160:106|160:106|126:138|98:133,1,168.750006437302,4|8,0:0|0:0,0:0:0:0:
89,154,9196,1,8,0:0:0:0:
77,179,9276,1,8,0:0:0:0:
73,206,9357,1,8,0:0:0:0:
80,233,9438,1,8,0:0:0:0:
90,259,9518,1,8,0:0:0:0:
109,278,9599,1,8,0:0:0:0:
131,294,9680,2,0,L|209:314,1,56.2500021457673,8|8,0:0|0:0,0:0:0:0:
217,229,9841,2,0,L|306:202,1,56.2500021457673,8|8,0:0|0:0,0:0:0:0:
232,133,10002,2,0,L|264:73,1,56.2500021457673,8|8,0:0|0:0,0:0:0:0:
176,24,10164,5,4,0:0:0:0:
15,18,10809,1,0,0:0:0:0:
88,260,10970,1,8,0:1:0:0:
232,132,11132,1,8,0:1:0:0:
57,125,11293,2,8,L|-7:157,1,56.2500021457673
88,260,11454,2,0,L|115:182,1,56.2500021457673
199,226,11616,6,0,L|461:273,1,225.000008583069,4|8,0:0|0:0,0:0:0:0:
422,26,12100,1,8,0:1:0:0:
455,114,12261,2,0,L|346:166,1,112.500004291535,8|0,0:0|0:0,0:0:0:0:
232,132,12584,1,8,0:0:0:0:
123,85,12745,2,0,B|198:38|198:38|361:66,1,225.000008583069,4|8,0:0|0:1,0:0:0:0:
356,170,13229,1,8,0:0:0:0:
333,341,13391,1,8,0:1:0:0:
264,237,13552,1,8,0:0:0:0:
147,253,13713,1,8,0:0:0:0:
232,132,13875,1,8,0:0:0:0:
227,331,14036,5,4,0:0:0:0:
227,331,14520,2,0,L|97:358,1,112.500004291535,8|8,0:0|1:0,0:0:0:0:
8,168,14843,1,8,0:0:0:0:
48,251,15004,1,8,0:1:0:0:
232,132,15165,1,8,0:0:0:0:
150,71,15327,2,0,L|123:195,1,112.500004291535,4|0,0:0|0:0,0:0:0:0:
323,266,15649,2,0,L|203:219,1,112.500004291535,8|8,1:0|0:0,0:0:0:0:
232,132,15972,1,2,0:0:0:0:
262,103,16053,1,2,0:0:0:0:
300,85,16133,1,10,0:0:0:0:
342,82,16214,1,8,0:0:0:0:
383,92,16295,2,0,L|414:22,1,56.2500021457673,8|8,0:0|0:1,0:0:0:0:
371,187,16456,2,0,L|274:152,1,56.2500021457673,8|8,0:0|0:0,0:0:0:0:
145,171,16617,6,0,B|108:235|124:286|124:286|65:304|41:373,1,225.000008583069,4|0,0:0|0:0,0:0:0:0:
28,230,17101,1,8,0:0:0:0:
146,372,17263,1,0,0:0:0:0:
325,267,17424,2,0,P|256:253|197:251,1,112.500004291535,8|8,0:0|0:1,0:0:0:0:
211,58,17747,1,8,0:0:0:0:
315,95,17908,2,0,B|367:115|380:151|380:151|384:169|382:186|382:186|403:240|492:246,1,225.000008583069,4|8,0:0|0:1,0:0:0:0:
470,147,18392,1,8,0:0:0:0:
325,266,18553,1,8,0:1:0:0:
201,166,18715,1,8,0:0:0:0:
197,350,18876,1,8,0:0:0:0:
66,293,19038,1,8,0:0:0:0:
159,15,19199,5,4,0:0:0:0:
159,15,19683,1,8,0:0:0:0:
96,191,19844,1,8,0:1:0:0:
285,60,20006,2,0,P|291:118|314:189,1,112.500004291535,8|8,0:0|0:0,0:0:0:0:
306,169,20248,1,8,0:0:0:0:
306,169,20328,1,8,0:0:0:0:
472,42,20490,5,8,0:0:0:0:
273,334,20812,1,8,0:0:0:0:
457,307,21135,1,8,0:0:0:0:
376,82,21458,2,0,L|337:39,2,37.5,8|8|8,0:1|0:1|0:1,0:0:0:0:
93,117,21780,5,0,0:0:0:0:
93,117,21942,2,0,L|72:219,1,75,4|0,0:0|0:0,0:0:0:0:
210,201,22264,1,8,0:1:0:0:
189,103,22426,1,0,0:0:0:0:
116,24,22587,2,0,L|35:8,1,75,8|0,0:1|0:0,0:0:0:0:
292,28,22910,2,0,L|271:130,1,75,8|0,0:1|0:0,0:0:0:0:
421,185,23232,5,8,0:1:0:0:
319,199,23394,1,0,0:0:0:0:
393,272,23555,1,8,0:1:0:0:
284,290,23716,1,0,0:0:0:0:
209,203,23878,2,0,L|236:117,1,75,8|0,0:1|0:0,0:0:0:0:
110,226,24200,2,0,L|151:299,1,75,8|0,0:3|0:0,0:0:0:0:
146,71,24523,6,0,P|102:122|24:146,1,150,8|8,0:1|0:1,0:0:0:0:
209,203,25007,1,0,0:0:0:0:
250,37,25169,2,0,L|227:138,1,75,8|0,0:1|0:0,0:0:0:0:
342,100,25491,2,0,L|364:1,1,75,8|0,0:1|0:0,0:0:0:0:
458,167,25814,6,0,B|406:168|406:168|360:201|291:186,1,150,8|8,0:1|0:1,0:0:0:0:
270,281,26298,1,0,0:0:0:0:
166,298,26459,1,8,0:1:0:0:
112,72,26621,1,8,0:3:0:0:
112,72,26782,2,0,L|32:48,1,75,8|0,0:0|0:0,0:0:0:0:
59,179,27105,6,0,L|209:215,1,150,12|8,0:0|0:1,0:0:0:0:
275,135,27589,1,0,0:0:0:0:
351,211,27750,2,0,P|373:168|408:129,1,75,8|0,0:1|0:0,0:0:0:0:
343,60,28073,2,0,P|308:47|277:28,1,75,8|0,0:1|0:0,0:0:0:0:
439,69,28395,6,0,B|457:94|482:112|482:112|474:164|489:227,1,150,8|8,0:1|0:1,0:0:0:0:
467,296,28879,1,0,0:0:0:0:
392,353,29041,2,0,L|297:363,1,75,8|0,0:1|0:0,0:0:0:0:
174,193,29363,2,0,B|205:240|260:248|260:248|308:289,1,150,8|8,0:3|0:1,0:0:0:0:
98,87,30009,5,8,0:0:0:0:
141,330,30170,1,8,0:0:0:0:
141,330,30493,1,10,0:0:0:0:
26,272,30654,1,10,0:0:0:0:
175,194,30815,1,10,0:0:0:0:
248,311,30977,6,0,L|236:265,1,46.875,8|8,0:0|0:0,0:0:0:0:
308,207,31138,2,0,L|350:175,1,46.875,8|8,0:0|0:0,0:0:0:0:
320,31,31300,1,8,0:0:0:0:
189,90,31461,2,0,L|311:123,1,93.75,4|0,0:0|0:0,0:0:0:0:
400,294,31784,5,8,0:0:0:0:
434,281,31864,1,8,0:0:0:0:
457,251,31945,1,8,0:0:0:0:
498,108,32106,1,8,0:0:0:0:
498,108,32187,1,8,0:0:0:0:
498,108,32268,6,0,P|446:113|379:131,1,93.75,4|0,0:0|0:0,0:0:0:0:
503,254,32590,1,8,0:0:0:0:
356,211,32752,2,0,P|358:258|349:342,1,93.75,0|8,0:0|0:1,0:0:0:0:
132,296,33074,1,0,0:0:0:0:
275,366,33236,1,8,0:0:0:0:
266,248,33397,6,0,B|236:181|236:181|244:132|244:132|215:67,1,187.5,8|8,0:1|0:1,0:0:0:0:
97,94,33881,1,8,0:0:0:0:
135,188,34042,1,8,0:1:0:0:
44,237,34204,2,0,L|36:311,2,46.875,8|8|0,0:1|0:1|0:0,0:0:0:0:
96,368,34526,1,8,0:0:0:0:
275,366,34688,1,0,0:0:0:0:
383,228,34849,6,0,L|364:345,1,93.75,8|0,0:1|0:0,0:0:0:0:
473,267,35172,1,8,0:0:0:0:
429,141,35333,2,0,B|369:128|317:157|317:157|276:137|219:124,1,187.5,8|8,0:1|0:1,0:0:0:0:
152,108,35817,1,8,0:0:0:0:
132,296,35978,5,4,0:0:0:0:
132,296,36301,2,0,P|90:329|41:353,2,93.75,8|8|8,0:1|0:0|0:1,0:0:0:0:
63,154,36785,1,8,0:0:0:0:
82,186,36866,1,8,0:0:0:0:
114,203,36947,1,8,0:0:0:0:
296,147,37108,1,0,0:0:0:0:
265,335,37269,1,0,0:0:0:0:
396,267,37431,6,0,B|352:242|352:242|307:250|307:250|190:222,1,187.5,4|8,0:0|0:0,0:0:0:0:
296,147,37915,1,0,0:0:0:0:
171,28,38076,1,8,0:1:0:0:
103,116,38237,1,0,0:0:0:0:
0,68,38399,1,8,0:0:0:0:
36,245,38560,6,0,P|122:226|241:232,1,187.5,8|8,0:1|0:1,0:0:0:0:
298,297,39044,1,8,0:0:0:0:
406,210,39205,1,0,0:0:0:0:
297,148,39367,2,0,L|317:210,1,46.875,8|8,0:1|0:1,0:0:0:0:
365,81,39528,1,0,0:0:0:0:
201,116,39689,2,0,B|190:138|192:171|192:171|179:209,1,93.75,8|0,0:0|0:0,0:0:0:0:
269,34,40012,5,4,0:0:0:0:
162,316,40335,1,8,0:0:0:0:
240,229,40496,1,2,0:0:0:0:
7,182,40657,1,8,0:0:0:0:
202,117,40819,1,8,0:0:0:0:
44,296,40980,1,8,0:0:0:0:
85,92,41141,5,12,0:0:0:0:
85,92,41464,1,10,0:0:0:0:
277,25,41625,1,10,0:0:0:0:
449,127,41787,1,8,0:0:0:0:
449,127,42109,2,0,P|454:175|466:230,1,93.75,8|8,0:0|1:0,0:0:0:0:
360,249,42432,1,0,0:0:0:0:
424,324,42593,6,0,P|373:339|256:251,1,187.5,4|8,0:0|0:1,0:0:0:0:
288,178,43078,1,0,0:0:0:0:
163,296,43239,1,8,0:1:0:0:
107,200,43400,1,8,0:1:0:0:
156,95,43562,2,0,L|265:76,1,93.75,8|2,0:0|0:0,0:0:0:0:
248,78,44046,1,8,0:1:0:0:
358,44,44208,1,8,0:1:0:0:
409,143,44368,2,0,B|419:198|419:198|403:244|403:244|421:276|427:355,1,187.5,8|8,0:0|0:1,0:0:0:0:
275,204,44852,1,8,0:0:0:0:
321,304,45014,1,0,0:0:0:0:
222,365,45175,6,0,L|96:342,1,93.75,4|0,0:0|0:0,0:0:0:0:
181,259,45498,1,0,0:0:0:0:
110,183,45659,2,0,L|85:69,1,93.75,8|8,0:1|0:1,0:0:0:0:
202,95,45982,1,8,0:1:0:0:
181,259,46143,1,8,0:0:0:0:
336,168,46304,2,0,P|327:215|328:327,1,140.625,8|2,0:0|0:0,0:0:0:0:
418,66,46627,2,0,P|371:75|259:74,1,140.625,8|2,0:0|0:0,0:0:0:0:
188,0,46950,2,0,P|179:47|180:159,1,140.625,8|2,0:0|0:0,0:0:0:0:
226,238,47273,2,0,P|173:246|103:231,1,93.75,8|8,0:0|0:0,0:0:0:0:
101,222,47514,1,8,0:2:0:0:
80,190,47595,1,8,0:2:0:0:
74,152,47676,1,8,0:2:0:0:
81,115,47756,6,0,P|69:64|47:17,1,93.75,8|0,0:2|0:0,0:0:0:0:
266,116,48079,2,0,P|215:127|168:149,1,93.75,8|0,0:0|0:0,0:0:0:0:
130,319,48402,1,8,0:1:0:0:
228,238,48563,1,8,0:1:0:0:
80,115,48724,1,8,0:0:0:0:
267,115,48886,6,0,B|343:110|394:83|394:83|450:79,1,187.5,8|8,0:1|0:1,0:0:0:0:
374,298,49370,1,8,0:0:0:0:
331,209,49531,1,2,0:0:0:0:
272,328,49693,2,0,L|210:341,1,46.875,2|0,0:0|0:0,0:0:0:0:
225,239,49854,2,0,L|181:226,1,46.875,2|2,0:0|0:0,0:0:0:0:
127,322,50015,1,8,0:0:0:0:
33,185,50177,1,0,0:0:0:0:
54,313,50338,6,8,B|129:324|129:324|147:268|186:223,1,187.5,12|8,0:0|0:0,0:0:0:0:
214,95,50822,2,0,L|120:135,1,93.75,8|8,0:1|0:0,0:0:0:0:
33,185,51145,1,8,0:1:0:0:
70,50,51306,1,8,0:0:0:0:
182,227,51467,5,4,0:0:0:0:
182,227,51790,2,0,P|185:282|177:329,1,93.75,8|8,0:1|0:0,0:0:0:0:
213,95,52113,1,8,0:1:0:0:
301,297,52274,1,8,0:0:0:0:
349,78,52435,1,8,0:1:0:0:
349,78,52516,1,8,0:1:0:0:
349,78,52597,1,8,0:0:0:0:
182,229,52758,1,8,0:0:0:0:
404,203,52919,6,0,B|460:190|460:190|476:171|505:159,1,93.75,10|8,0:0|0:1,0:0:0:0:
468,291,53242,2,0,B|412:304|412:304|396:323|367:335,1,93.75,10|8,0:0|0:1,0:0:0:0:
383,326,53484,1,8,0:0:0:0:
383,326,53565,1,8,0:0:0:0:
215,362,53726,1,8,0:0:0:0:
215,362,53807,1,8,0:0:0:0:
215,362,53887,1,8,0:0:0:0:
142,202,54049,2,0,L|182:228,1,46.875,8|8,0:0|0:0,0:0:0:0:
278,270,54210,2,0,L|322:256,1,46.875,8|8,0:0|0:0,0:0:0:0:
403,203,54371,5,8,0:0:0:0:
417,171,54451,1,8,0:0:0:0:
421,136,54532,1,8,0:0:0:0:
413,102,54613,1,8,0:0:0:0:
393,73,54694,2,0,L|322:63,1,46.875,8|0,0:0|0:0,0:0:0:0:
268,148,54856,2,0,L|339:158,1,46.875,8|0,0:0|0:0,0:0:0:0:
253,52,55017,2,0,L|239:4,1,46.875,8|8,0:0|0:0,0:0:0:0:
156,52,55178,2,0,L|142:4,1,46.875,8|8,0:0|0:0,0:0:0:0:
134,143,55340,1,8,0:1:0:0:
121,179,55420,1,8,0:1:0:0:
121,216,55501,1,8,0:1:0:0:
125,253,55582,6,0,B|144:316|201:330|201:330|191:394|69:382,1,234.375,8|0,0:1|0:0,0:0:0:0:
76,360,56065,1,2,0:0:0:0:
54,329,56146,1,2,0:0:0:0:
57,291,56227,1,2,0:0:0:0:
80,263,56308,2,0,L|140:249,1,46.875,2|2,0:0|0:0,0:0:0:0:
268,341,56469,2,0,L|313:330,1,46.875,2|2,0:0|0:0,0:0:0:0:
424,169,56630,6,0,B|440:228|499:281|499:281|483:315|483:315|496:345|488:395,1,225.000008583069,4|0,0:0|0:0,0:0:0:0:
356,247,57114,1,8,0:0:0:0:
263,202,57276,2,0,P|206:220|117:232,1,112.500004291535,0|8,0:0|0:1,0:0:0:0:
61,193,57598,1,0,0:0:0:0:
59,382,57760,1,8,0:0:0:0:
164,325,57921,6,0,B|192:325|209:333|209:333|271:373|238:200|291:439|384:329|424:358,1,225.000008583069,2|0,0:0|0:0,0:0:0:0:
452,218,58405,1,8,0:0:0:0:
480,351,58566,1,0,0:0:0:0:
377,111,58728,1,8,0:0:0:0:
351,267,58889,1,0,0:0:0:0:
351,267,58970,1,0,0:0:0:0:
351,267,59050,1,0,0:0:0:0:
175,182,59212,6,0,P|231:180|326:165,1,112.500004291535,4|0,0:0|0:0,0:0:0:0:
378,111,59534,1,0,0:0:0:0:
247,81,59696,1,8,0:0:0:0:
144,280,59857,2,0,P|88:282|-7:297,1,112.500004291535,2|0,0:0|0:0,0:0:0:0:
82,118,60180,1,0,0:0:0:0:
175,182,60341,1,8,0:0:0:0:
247,81,60502,6,0,B|272:64|300:42|300:42|356:63|399:62|399:62|474:38,1,225.000008583069,2|8,0:0|0:1,0:0:0:0:
482,134,60987,2,0,B|411:160|411:160|354:148,1,112.500004291535,8|0,0:0|0:0,0:0:0:0:
493,291,61309,1,8,0:0:0:0:
493,291,61390,1,8,0:0:0:0:
493,291,61471,2,0,L|484:226,1,56.2500021457673,8|8,0:0|0:0,0:0:0:0:
340,316,61632,2,0,L|382:279,1,56.2500021457673,8|8,0:0|0:0,0:0:0:0:
208,335,61793,2,0,L|256:363,1,56.2500021457673,8|8,0:0|0:0,0:0:0:0:
250,222,61955,6,0,P|195:231|141:219,1,112.500004291535,4|0,0:0|0:0,0:0:0:0:
38,197,62277,2,0,P|55:162|116:91,1,112.500004291535,8|0,0:0|0:0,0:0:0:0:
10,62,62600,1,8,0:1:0:0:
39,196,62761,1,0,0:0:0:0:
139,13,62923,1,8,0:0:0:0:
243,316,63084,5,4,0:0:0:0:
243,316,63407,1,8,0:1:0:0:
243,316,63487,1,8,0:1:0:0:
243,316,63568,2,0,L|366:334,1,112.500004291535,8|0,0:1|0:0,0:0:0:0:
289,138,63891,1,8,0:1:0:0:
367,212,64052,1,8,0:0:0:0:
408,204,64132,1,8,0:0:0:0:
444,183,64213,2,0,L|458:114,1,56.2500021457673,8|8,0:0|0:0,0:0:0:0:
337,42,64375,2,0,L|399:117,1,56.2500021457673,8|8,0:0|0:0,0:0:0:0:
98,182,64536,6,0,B|135:214|200:210|200:210|235:151|295:138,1,225.000008583069,4|8,0:0|0:0,0:0:0:0:
20,10,65020,2,0,B|15:59|43:97|43:97|0:147|4:220,1,225.000008583069,8|8,0:1|0:1,0:0:0:0:
148,91,65504,1,8,0:0:0:0:
73,295,65665,2,0,B|156:305|156:305|204:336|204:336|302:340,1,225.000008583069,8|8,0:1|0:1,0:0:0:0:
404,143,66149,5,8,0:0:0:0:
288,95,66311,2,0,L|299:166,1,56.2500021457673,8|8,0:0|0:0,0:0:0:0:
353,225,66472,2,0,L|285:259,1,56.2500021457673,8|8,0:0|0:0,0:0:0:0:
198,210,66634,2,0,L|208:154,1,56.2500021457673,8|8,0:0|0:0,0:0:0:0:
148,91,66795,1,8,0:0:0:0:
56,182,66956,6,0,P|69:243|73:324,1,112.500004291535,4|0,0:0|0:0,0:0:0:0:
149,90,67279,1,8,0:1:0:0:
309,194,67440,1,8,0:0:0:0:
309,194,67602,2,0,L|188:211,1,112.500004291535,0|8,0:0|0:1,0:0:0:0:
274,316,67924,1,8,0:1:0:0:
199,209,68086,1,0,0:0:0:0:
267,89,68247,6,0,P|344:97|509:84,1,225.000008583069,8|0,0:0|0:0,0:0:0:0:
309,194,68731,1,8,0:0:0:0:
475,240,68892,1,0,0:0:0:0:
274,316,69054,1,8,0:1:0:0:
199,209,69215,2,0,L|128:155,1,56.2500021457673,8|0,0:0|0:0,0:0:0:0:
84,261,69376,2,0,L|-9:279,1,56.2500021457673,8|0,0:0|0:0,0:0:0:0:
51,45,69538,6,0,P|53:100|41:202,1,112.500004291535,4|0,0:0|0:0,0:0:0:0:
154,174,69860,1,8,0:1:0:0:
224,83,70022,1,8,0:0:0:0:
424,189,70183,2,0,P|366:193|287:207,1,112.500004291535,8|0,0:1|0:0,0:0:0:0:
300,332,70506,1,8,0:1:0:0:
90,362,70667,1,8,0:1:0:0:
154,174,70828,1,12,0:0:0:0:
154,174,71151,5,0,0:0:0:0:
103,285,71312,1,8,0:0:0:0:
260,85,71474,1,0,0:0:0:0:
275,246,71635,1,8,0:0:0:0:
457,94,71796,2,8,L|543:112,1,56.2500021457673,8|8,0:0|0:0,0:1:0:0:
459,238,71958,2,0,L|383:261,1,56.2500021457673,8|8,0:0|0:0,0:0:0:0:
260,85,72119,6,0,B|315:97|338:147|338:147|272:189|274:264,1,225.000008583069,4|0,0:0|0:0,0:0:0:0:
178,338,72603,1,8,0:0:0:0:
137,230,72765,1,0,0:0:0:0:
60,313,72926,1,8,0:0:0:0:
20,198,73087,1,0,0:0:0:0:
178,338,73249,1,8,0:0:0:0:
260,85,73410,1,12,0:0:0:0:
260,85,73733,5,2,0:0:0:0:
419,150,73894,1,2,0:0:0:0:
454,301,74055,1,2,0:0:0:0:
382,0,74217,1,8,0:0:0:0:
281,243,74378,1,8,0:0:0:0:
281,243,74539,1,0,0:0:0:0:
72,197,74701,6,0,B|108:240|87:314|87:314|209:315|193:360,1,225.000008583069,4|0,0:0|0:0,0:0:0:0:
281,243,75185,1,8,0:0:0:0:
362,338,75346,1,0,0:0:0:0:
476,209,75507,2,0,L|409:236,1,56.2500021457673,8|8,0:0|0:0,0:0:0:0:
365,87,75669,2,0,L|408:172,1,56.2500021457673,8|8,0:0|0:0,0:0:0:0:
206,138,75830,2,0,L|272:109,1,56.2500021457673,8|8,0:0|0:0,0:0:0:0:
185,332,75991,1,12,0:0:0:0:
185,332,76637,5,8,0:0:0:0:
185,332,76717,1,8,0:0:0:0:
185,332,76798,2,0,L|113:357,1,56.2500021457673,8|0,0:0|0:0,0:0:0:0:
12,243,76959,2,8,L|64:283,1,56.2500021457673,8|0,0:0|0:0,0:0:0:0:
202,202,77121,2,0,L|130:227,1,56.2500021457673,8|0,0:0|0:0,0:0:0:0:
29,113,77282,2,8,L|81:153,1,56.2500021457673,8|0,0:0|0:0,0:0:0:0:
226,71,77443,6,0,B|273:101|273:101|393:75,1,168.750006437302,12|0,0:0|0:0,0:0:0:0:
450,166,77766,2,0,B|423:182|395:180|395:180|345:230,1,112.500004291535,8|0,0:0|0:0,0:0:0:0:
289,312,78089,1,8,0:0:0:0:
200,226,78250,1,0,0:0:0:0:
150,330,78411,1,8,0:0:0:0:
77,76,78573,1,12,0:0:0:0:
77,76,78896,5,0,0:0:0:0:
87,199,79057,1,8,0:0:0:0:
200,65,79218,2,0,L|267:38,1,56.2500021457673
366,15,79380,1,8,0:0:0:0:
318,213,79541,2,0,L|310:142,1,56.2500021457673,8|0,0:0|0:0,0:0:0:0:
366,15,79702,2,0,L|358:86,1,56.2500021457673,8|0,0:0|0:0,0:0:0:0:
438,256,79864,2,0,B|418:305|418:305|334:298|254:361,1,225.000008583069,12|0,0:0|0:0,0:0:0:0:
179,164,80348,6,0,L|186:299,1,112.500004291535,8|0,0:0|0:0,0:0:0:0:
43,266,80670,2,0,L|111:398,1,112.500004291535,8|0,0:0|0:0,0:0:0:0:
94,366,80912,1,8,0:0:0:0:
94,366,80993,1,8,0:0:0:0:
290,152,81154,2,0,L|178:163,1,112.500004291535,12|0,0:0|0:0,0:0:0:0:
427,252,81477,2,0,L|315:263,1,112.500004291535,8|0,0:0|0:0,0:0:0:0:
40,95,81800,2,0,L|70:182,1,56.2500021457673,8|0,0:0|0:0,0:0:0:0:
49,262,81961,2,0,L|-11:294,1,56.2500021457673,8|0,0:0|0:0,0:0:0:0:
185,69,82122,2,0,L|215:156,1,56.2500021457673,8|0,0:0|0:0,0:0:0:0:
194,236,82283,2,0,L|125:270,1,56.2500021457673,8|0,0:0|0:0,0:0:0:0:
313,77,82445,6,0,B|368:70|428:94|428:94|442:41|442:41|409:0,1,225.000008583069,12|0,0:0|0:0,0:0:0:0:
484,226,82929,1,8,0:0:0:0:
427,336,83090,1,0,0:0:0:0:
466,203,83252,1,8,0:0:0:0:
437,357,83413,1,0,0:0:0:0:
240,213,83574,1,8,0:0:0:0:
168,361,83736,1,12,0:0:0:0:
168,361,84058,5,8,0:0:0:0:
168,361,84139,1,8,0:0:0:0:
168,361,84220,1,8,0:0:0:0:
102,243,84381,1,0,0:0:0:0:
240,213,84543,1,8,0:0:0:0:
347,322,84704,1,0,0:0:0:0:
446,186,84865,1,8,0:0:0:0:
373,24,85027,1,12,0:0:0:0:
373,24,85511,5,8,0:0:0:0:
256,34,85672,1,0,0:0:0:0:
146,46,85833,1,8,0:0:0:0:
76,206,85995,1,8,0:0:0:0:
82,244,86075,1,8,0:0:0:0:
89,282,86156,1,8,0:0:0:0:
96,320,86237,1,8,0:0:0:0:
105,357,86317,2,0,L|234:380,1,112.500004291535,8|0,0:0|0:0,0:0:0:0:
235,274,86640,2,0,L|364:297,1,112.500004291535,8|0,0:0|0:0,0:0:0:0:
370,181,86963,5,8,0:0:0:0:
408,178,87043,1,8,0:0:0:0:
445,165,87124,1,8,0:0:0:0:
469,134,87205,1,8,0:0:0:0:
481,97,87285,1,8,0:0:0:0:
470,58,87366,1,8,0:0:0:0:
439,32,87447,1,8,0:0:0:0:
399,30,87527,1,0,0:0:0:0:
362,46,87608,2,0,L|264:16,1,56.2500021457673,8|0,0:0|0:0,0:0:0:0:
296,272,87769,5,8,0:0:0:0:
280,264,97611,5,8,0:0:0:0:
288,288,97692,1,8,0:0:0:0:
296,312,97773,1,8,0:0:0:0:
304,336,97853,1,8,0:0:0:0:
312,360,97934,2,0,L|376:368,1,56.2500021457673
160,320,98095,6,0,L|32:376,1,112.500004291535,12|0,0:0|0:0,0:0:0:0:
