osu file format v14

[General]
AudioFilename: audio.mp3
AudioLeadIn: 0
PreviewTime: 29466
Countdown: 0
SampleSet: Soft
StackLeniency: 0.7
Mode: 3
LetterboxInBreaks: 0
SpecialStyle: 0
WidescreenStoryboard: 1

[Editor]
DistanceSpacing: 0.8
BeatDivisor: 4
GridSize: 8
TimelineZoom: 1.800001

[Metadata]
Title:Kundalini
TitleUnicode:Kundalini
Artist:Headhunterz & Skytech
ArtistUnicode:Headhunterz & Skytech
Creator:Gangsterkill
Version:4K NM
Source:
Tags:
BeatmapID:1144300
BeatmapSetID:539639

[Difficulty]
HPDrainRate:5
CircleSize:4
OverallDifficulty:4
ApproachRate:5
SliderMultiplier:1.4
SliderTickRate:1

[Events]
//Background and Video events
0,0,"to_the_sky_by_hangmoon-d655wks.jpg",0,0
//Break Periods
//Storyboard Layer 0 (Background)
//Storyboard Layer 1 (Fail)
//Storyboard Layer 2 (Pass)
//Storyboard Layer 3 (Foreground)
//Storyboard Sound Samples

[TimingPoints]
18334,468.75,4,2,1,5,1,0
21146,-100,4,2,1,10,0,0
24427,-100,4,2,1,13,0,0
25834,-100,4,2,1,19,0,0
28646,-100,4,2,1,27,0,0
31459,-100,4,2,1,35,0,0
77865,-100,4,2,1,35,0,0
77982,-83.3333333333333,4,2,1,35,0,0
78099,-71.4285714285714,4,2,1,35,0,0
78199,-399.999999999997,4,2,1,35,0,0
78334,-100,4,2,1,35,0,1
91341,-117.647058823529,4,2,1,35,0,0
93334,-100,4,2,1,35,0,1
106459,-100,4,2,1,35,0,0

[HitObjects]
448,192,18334,5,0,0:0:0:0:
320,192,18334,1,0,0:0:0:0:
64,192,18568,1,0,0:0:0:0:
192,192,18802,1,0,0:0:0:0:
320,192,19037,1,0,0:0:0:0:
448,192,19271,1,0,0:0:0:0:
320,192,19505,1,0,0:0:0:0:
64,192,19740,1,0,0:0:0:0:
320,192,19974,1,0,0:0:0:0:
64,192,20209,1,0,0:0:0:0:
192,192,20209,1,8,0:0:0:0:
320,192,20443,1,0,0:0:0:0:
192,192,20677,1,8,0:0:0:0:
448,192,20912,1,0,0:0:0:0:
64,192,21146,1,0,0:0:0:0:
192,192,21146,1,8,0:0:0:0:
320,192,21615,1,8,0:0:0:0:
448,192,21615,1,0,0:0:0:0:
64,192,22084,1,0,0:0:0:0:
192,192,22084,1,8,0:0:0:0:
320,192,22318,1,0,0:0:0:0:
448,192,22552,1,8,0:0:0:0:
320,192,22787,1,0,0:0:0:0:
64,192,23021,128,8,23959:0:0:0:0:
448,192,23490,1,8,0:0:0:0:
320,192,23959,1,8,0:0:0:0:
448,192,24310,1,0,0:0:0:0:
320,192,24427,1,8,0:0:0:0:
64,192,24662,1,0,0:0:0:0:
320,192,24896,1,8,0:0:0:0:
448,192,24896,1,0,0:0:0:0:
64,192,25365,1,8,0:0:0:0:
320,192,25365,1,0,0:0:0:0:
192,192,25834,1,0,0:0:0:0:
448,192,25834,1,0,0:0:0:0:
320,192,26068,1,0,0:0:0:0:
64,192,26302,1,0,0:0:0:0:
320,192,26537,1,0,0:0:0:0:
192,192,26771,1,0,0:0:0:0:
448,192,27005,1,0,0:0:0:0:
192,192,27240,1,0,0:0:0:0:
64,192,27474,1,0,0:0:0:0:
320,192,27709,1,8,0:0:0:0:
448,192,27709,1,0,0:0:0:0:
64,192,27943,1,0,0:0:0:0:
192,192,28177,1,8,0:0:0:0:
320,192,28412,1,0,0:0:0:0:
448,192,28646,1,8,0:0:0:0:
64,192,29115,1,8,0:0:0:0:
320,192,29115,1,0,0:0:0:0:
448,192,29584,1,8,0:0:0:0:
320,192,29818,1,0,0:0:0:0:
192,192,30052,1,0,0:0:0:0:
448,192,30287,1,8,0:0:0:0:
64,192,30521,128,8,31459:0:0:0:0:
320,192,30990,1,8,0:0:0:0:
192,192,31459,1,0,0:0:0:0:
448,192,31459,1,8,0:0:0:0:
320,192,31810,1,2,0:0:0:0:
192,192,31927,1,8,0:0:0:0:
448,192,32162,1,2,0:0:0:0:
192,192,32396,1,8,0:0:0:0:
64,192,32513,1,0,0:0:0:0:
192,192,32630,1,0,0:0:0:0:
320,192,32748,1,0,0:0:0:0:
448,192,32865,128,8,33334:0:0:0:0:
64,192,33334,128,0,34271:0:0:0:0:
192,192,33334,1,2,0:0:0:0:
448,192,34271,128,0,35091:0:0:0:0:
320,192,34271,1,0,0:0:0:0:
64,192,35091,128,0,35443:0:0:0:0:
192,192,35443,1,0,0:0:0:0:
320,192,35677,1,0,0:0:0:0:
64,192,35912,1,0,0:0:0:0:
448,192,36146,128,0,36615:0:0:0:0:
64,192,36966,128,0,37318:0:0:0:0:
448,192,37318,1,0,0:0:0:0:
320,192,37552,1,0,0:0:0:0:
64,192,37787,1,0,0:0:0:0:
192,192,38021,128,0,38490:0:0:0:0:
448,192,38841,128,0,39193:0:0:0:0:
320,192,39193,1,0,0:0:0:0:
192,192,39310,1,0,0:0:0:0:
64,192,39427,1,0,0:0:0:0:
448,192,39662,1,0,0:0:0:0:
192,192,39896,1,0,0:0:0:0:
64,192,39896,128,0,40365:0:0:0:0:
320,192,40599,1,0,0:0:0:0:
448,192,40834,128,0,41771:0:0:0:0:
192,192,41771,128,0,42591:0:0:0:0:
320,192,42591,128,0,42943:0:0:0:0:
192,192,42943,1,0,0:0:0:0:
64,192,43060,1,0,0:0:0:0:
192,192,43177,1,0,0:0:0:0:
448,192,43412,1,0,0:0:0:0:
64,192,43646,1,0,0:0:0:0:
320,192,43646,128,0,44115:0:0:0:0:
64,192,44466,128,0,44818:0:0:0:0:
320,192,44466,1,0,0:0:0:0:
448,192,44818,1,0,0:0:0:0:
192,192,45052,1,0,0:0:0:0:
320,192,45287,1,0,0:0:0:0:
64,192,45521,128,0,45990:0:0:0:0:
448,192,45521,1,0,0:0:0:0:
448,192,46341,128,0,46693:0:0:0:0:
64,192,46341,128,0,46693:0:0:0:0:
320,192,46693,1,0,0:0:0:0:
192,192,46927,1,0,0:0:0:0:
448,192,47162,1,0,0:0:0:0:
64,192,47396,1,0,0:0:0:0:
320,192,47396,1,0,0:0:0:0:
320,192,48099,1,0,0:0:0:0:
192,192,48334,1,0,0:0:0:0:
64,192,48334,1,0,0:0:0:0:
320,192,48568,1,0,0:0:0:0:
448,192,48802,1,0,0:0:0:0:
192,192,49037,1,0,0:0:0:0:
64,192,49271,1,0,0:0:0:0:
448,192,49271,1,0,0:0:0:0:
320,192,49505,1,0,0:0:0:0:
192,192,49740,1,0,0:0:0:0:
320,192,49974,1,0,0:0:0:0:
448,192,50091,1,0,0:0:0:0:
320,192,50209,1,8,0:0:0:0:
64,192,50443,1,0,0:0:0:0:
192,192,50677,1,8,0:0:0:0:
320,192,50912,1,0,0:0:0:0:
64,192,51146,1,0,0:0:0:0:
192,192,51146,1,8,0:0:0:0:
448,192,51615,1,0,0:0:0:0:
320,192,51615,1,8,0:0:0:0:
192,192,51966,1,0,0:0:0:0:
64,192,52084,1,8,0:0:0:0:
320,192,52318,1,0,0:0:0:0:
448,192,52552,1,8,0:0:0:0:
192,192,52787,1,0,0:0:0:0:
64,192,53021,128,8,53841:0:0:0:0:
448,192,53490,1,8,0:0:0:0:
448,192,53841,1,0,0:0:0:0:
320,192,53959,1,8,0:0:0:0:
192,192,54193,1,0,0:0:0:0:
64,192,54427,1,8,0:0:0:0:
448,192,54662,1,0,0:0:0:0:
192,192,54896,1,0,0:0:0:0:
64,192,54896,1,8,0:0:0:0:
320,192,55365,1,8,0:0:0:0:
192,192,55365,1,0,0:0:0:0:
448,192,55599,1,0,0:0:0:0:
192,192,55834,1,0,0:0:0:0:
64,192,55834,1,8,0:0:0:0:
320,192,56068,1,0,0:0:0:0:
192,192,56302,1,8,0:0:0:0:
320,192,56537,1,0,0:0:0:0:
448,192,56771,1,8,0:0:0:0:
192,192,56771,1,0,0:0:0:0:
64,192,57005,1,0,0:0:0:0:
192,192,57240,1,8,0:0:0:0:
448,192,57474,1,0,0:0:0:0:
320,192,57591,1,0,0:0:0:0:
64,192,57709,1,8,0:0:0:0:
320,192,57943,1,0,0:0:0:0:
192,192,58177,1,8,0:0:0:0:
448,192,58412,1,0,0:0:0:0:
192,192,58646,1,0,0:0:0:0:
64,192,58646,1,8,0:0:0:0:
64,192,59115,1,0,0:0:0:0:
448,192,59115,1,8,0:0:0:0:
320,192,59466,1,0,0:0:0:0:
192,192,59584,1,8,0:0:0:0:
320,192,59818,1,0,0:0:0:0:
448,192,60052,1,8,0:0:0:0:
192,192,60287,1,0,0:0:0:0:
320,192,60521,128,8,61341:0:0:0:0:
64,192,60990,1,8,0:0:0:0:
192,192,61459,1,8,0:0:0:0:
448,192,61693,1,0,0:0:0:0:
64,192,61927,1,8,0:0:0:0:
320,192,62162,1,0,0:0:0:0:
448,192,62396,1,0,0:0:0:0:
64,192,62396,1,8,0:0:0:0:
320,192,62865,1,0,0:0:0:0:
192,192,62865,1,0,0:0:0:0:
64,192,63099,1,0,0:0:0:0:
448,192,63334,128,2,63802:0:0:0:0:
192,192,63334,1,2,0:0:0:0:
320,192,63802,128,2,64271:0:0:0:0:
448,192,64271,128,0,64740:0:0:0:0:
64,192,64271,1,2,0:0:0:0:
320,192,64740,128,2,65091:0:0:0:0:
64,192,65091,128,0,65443:0:0:0:0:
448,192,65443,128,0,65677:0:0:0:0:
320,192,65677,128,0,65912:0:0:0:0:
64,192,65677,1,2,0:0:0:0:
192,192,65912,128,0,66146:0:0:0:0:
64,192,66146,128,0,66615:0:0:0:0:
448,192,66146,1,2,0:0:0:0:
320,192,66615,1,2,0:0:0:0:
448,192,66849,1,0,0:0:0:0:
320,192,67084,1,2,0:0:0:0:
192,192,67084,1,0,0:0:0:0:
64,192,67318,1,0,0:0:0:0:
320,192,67552,1,2,0:0:0:0:
448,192,67552,1,0,0:0:0:0:
192,192,67787,1,0,0:0:0:0:
64,192,68021,1,0,0:0:0:0:
320,192,68021,1,2,0:0:0:0:
448,192,68490,1,0,0:0:0:0:
192,192,68490,1,2,0:0:0:0:
64,192,68724,1,0,0:0:0:0:
192,192,68841,1,0,0:0:0:0:
320,192,68959,1,2,0:0:0:0:
448,192,68959,1,0,0:0:0:0:
192,192,69193,1,0,0:0:0:0:
64,192,69310,1,0,0:0:0:0:
192,192,69427,1,2,0:0:0:0:
448,192,69662,1,0,0:0:0:0:
64,192,69662,1,0,0:0:0:0:
320,192,69896,1,2,0:0:0:0:
192,192,69896,1,0,0:0:0:0:
448,192,70365,1,2,0:0:0:0:
64,192,70365,1,0,0:0:0:0:
320,192,70599,1,0,0:0:0:0:
192,192,70716,1,0,0:0:0:0:
64,192,70834,128,2,71302:0:0:0:0:
448,192,71302,128,2,71771:0:0:0:0:
192,192,71771,128,2,72240:0:0:0:0:
320,192,72240,128,2,72591:0:0:0:0:
64,192,72591,128,2,72943:0:0:0:0:
448,192,72943,128,0,73177:0:0:0:0:
192,192,73177,128,2,73412:0:0:0:0:
64,192,73412,128,0,73646:0:0:0:0:
320,192,73646,128,2,74466:0:0:0:0:
448,192,73646,1,0,0:0:0:0:
64,192,74115,1,2,0:0:0:0:
448,192,74466,128,0,74818:0:0:0:0:
64,192,74818,1,0,0:0:0:0:
192,192,75052,1,0,0:0:0:0:
448,192,75287,1,0,0:0:0:0:
320,192,75521,1,2,0:0:0:0:
64,192,75521,128,0,76459:0:0:0:0:
192,192,75521,128,0,76459:0:0:0:0:
448,192,75755,1,0,0:0:0:0:
320,192,75990,1,0,0:0:0:0:
448,192,76224,1,0,0:0:0:0:
320,192,76459,1,2,0:0:0:0:
448,192,76576,1,0,0:0:0:0:
448,192,76810,1,0,0:0:0:0:
320,192,76927,1,2,0:0:0:0:
192,192,77162,1,0,0:0:0:0:
64,192,77279,1,0,0:0:0:0:
192,192,77396,1,2,0:0:0:0:
320,192,77513,1,0,0:0:0:0:
448,192,77630,1,2,0:0:0:0:
448,192,77865,1,2,0:0:0:0:
320,192,77865,128,2,78334:0:0:0:0:
192,192,78334,1,2,0:0:0:0:
64,192,78334,1,0,0:0:0:0:
448,192,78568,1,0,0:0:0:0:
192,192,78802,1,2,0:0:0:0:
64,192,78802,1,0,0:0:0:0:
320,192,79037,1,0,0:0:0:0:
448,192,79271,1,0,0:0:0:0:
192,192,79271,1,2,0:0:0:0:
320,192,79505,1,0,0:0:0:0:
64,192,79740,1,2,0:0:0:0:
448,192,79740,1,0,0:0:0:0:
192,192,80091,1,0,0:0:0:0:
320,192,80209,1,2,0:0:0:0:
448,192,80443,1,0,0:0:0:0:
320,192,80443,1,0,0:0:0:0:
192,192,80677,1,2,0:0:0:0:
64,192,80677,1,0,0:0:0:0:
320,192,80912,1,0,0:0:0:0:
448,192,80912,1,0,0:0:0:0:
192,192,81146,1,2,0:0:0:0:
64,192,81146,128,0,81615:0:0:0:0:
448,192,81380,1,0,0:0:0:0:
320,192,81615,1,2,0:0:0:0:
192,192,81849,1,0,0:0:0:0:
320,192,81966,1,0,0:0:0:0:
448,192,82084,1,2,0:0:0:0:
64,192,82084,1,0,0:0:0:0:
320,192,82318,1,0,0:0:0:0:
192,192,82552,1,0,0:0:0:0:
64,192,82552,1,2,0:0:0:0:
320,192,82787,1,0,0:0:0:0:
448,192,83021,1,2,0:0:0:0:
192,192,83021,1,0,0:0:0:0:
64,192,83255,1,0,0:0:0:0:
192,192,83490,1,0,0:0:0:0:
320,192,83490,1,2,0:0:0:0:
192,192,83841,1,0,0:0:0:0:
64,192,83959,1,0,0:0:0:0:
320,192,83959,1,2,0:0:0:0:
448,192,84193,1,0,0:0:0:0:
320,192,84310,1,0,0:0:0:0:
64,192,84427,1,2,0:0:0:0:
320,192,84662,1,0,0:0:0:0:
448,192,84662,1,0,0:0:0:0:
64,192,84896,1,0,0:0:0:0:
192,192,84896,1,2,0:0:0:0:
320,192,85130,1,0,0:0:0:0:
64,192,85365,128,0,85834:0:0:0:0:
448,192,85365,128,2,85834:0:0:0:0:
320,192,85834,1,2,0:0:0:0:
192,192,86068,1,0,0:0:0:0:
448,192,86302,1,0,0:0:0:0:
320,192,86302,1,2,0:0:0:0:
64,192,86537,1,0,0:0:0:0:
192,192,86771,1,2,0:0:0:0:
320,192,86771,1,0,0:0:0:0:
64,192,87005,1,0,0:0:0:0:
192,192,87240,1,0,0:0:0:0:
448,192,87240,1,2,0:0:0:0:
448,192,87474,1,0,0:0:0:0:
320,192,87591,1,0,0:0:0:0:
192,192,87709,1,2,0:0:0:0:
64,192,87943,1,0,0:0:0:0:
192,192,88060,1,0,0:0:0:0:
448,192,88177,1,2,0:0:0:0:
320,192,88412,1,0,0:0:0:0:
64,192,88646,1,0,0:0:0:0:
192,192,88646,1,2,0:0:0:0:
320,192,88880,1,0,0:0:0:0:
192,192,89115,1,2,0:0:0:0:
448,192,89115,1,0,0:0:0:0:
64,192,89349,1,0,0:0:0:0:
192,192,89466,128,0,89818:0:0:0:0:
320,192,89818,1,0,0:0:0:0:
448,192,89935,1,0,0:0:0:0:
320,192,90052,1,2,0:0:0:0:
64,192,90287,1,0,0:0:0:0:
192,192,90521,128,0,90990:0:0:0:0:
448,192,90521,1,2,0:0:0:0:
320,192,90990,1,0,0:0:0:0:
448,192,91341,128,2,91693:0:0:0:0:
64,192,91341,128,0,91693:0:0:0:0:
192,192,91693,128,0,91927:0:0:0:0:
320,192,91927,128,2,92162:0:0:0:0:
448,192,92162,128,0,92396:0:0:0:0:
64,192,92396,1,2,0:0:0:0:
192,192,92630,1,0,0:0:0:0:
320,192,92630,1,0,0:0:0:0:
448,192,92865,1,2,0:0:0:0:
64,192,92865,1,2,0:0:0:0:
320,192,93099,1,0,0:0:0:0:
192,192,93099,1,2,0:0:0:0:
448,192,93334,1,2,0:0:0:0:
64,192,93334,1,2,0:0:0:0:
320,192,93568,1,0,0:0:0:0:
64,192,93802,1,0,0:0:0:0:
192,192,93802,1,2,0:0:0:0:
448,192,94037,1,0,0:0:0:0:
320,192,94271,1,2,0:0:0:0:
64,192,94271,1,0,0:0:0:0:
448,192,94505,1,0,0:0:0:0:
64,192,94740,1,0,0:0:0:0:
192,192,94740,1,2,0:0:0:0:
320,192,94974,1,0,0:0:0:0:
192,192,95091,128,0,95443:0:0:0:0:
448,192,95443,1,0,0:0:0:0:
320,192,95443,1,0,0:0:0:0:
192,192,95677,1,2,0:0:0:0:
64,192,95677,1,0,0:0:0:0:
64,192,95912,1,0,0:0:0:0:
448,192,95912,1,0,0:0:0:0:
320,192,96146,1,0,0:0:0:0:
64,192,96146,1,2,0:0:0:0:
448,192,96380,1,0,0:0:0:0:
320,192,96615,1,0,0:0:0:0:
192,192,96615,1,2,0:0:0:0:
64,192,96849,1,0,0:0:0:0:
320,192,96966,1,0,0:0:0:0:
448,192,97084,1,0,0:0:0:0:
192,192,97084,1,2,0:0:0:0:
64,192,97318,1,0,0:0:0:0:
320,192,97318,1,0,0:0:0:0:
448,192,97552,1,0,0:0:0:0:
320,192,97552,1,2,0:0:0:0:
64,192,97787,1,0,0:0:0:0:
192,192,97787,1,0,0:0:0:0:
320,192,98021,1,2,0:0:0:0:
448,192,98021,1,0,0:0:0:0:
192,192,98255,1,0,0:0:0:0:
320,192,98490,1,2,0:0:0:0:
64,192,98490,1,0,0:0:0:0:
448,192,98490,128,0,98959:0:0:0:0:
192,192,98959,1,2,0:0:0:0:
320,192,99193,1,0,0:0:0:0:
192,192,99310,1,0,0:0:0:0:
448,192,99427,1,2,0:0:0:0:
64,192,99427,1,0,0:0:0:0:
320,192,99662,1,0,0:0:0:0:
64,192,99896,1,0,0:0:0:0:
192,192,99896,1,2,0:0:0:0:
448,192,100130,1,0,0:0:0:0:
320,192,100130,1,0,0:0:0:0:
448,192,100365,128,0,100599:0:0:0:0:
320,192,100365,1,2,0:0:0:0:
64,192,100599,128,0,100834:0:0:0:0:
192,192,100599,1,0,0:0:0:0:
320,192,100834,1,2,0:0:0:0:
448,192,101068,1,0,0:0:0:0:
192,192,101302,1,2,0:0:0:0:
64,192,101302,1,0,0:0:0:0:
320,192,101537,1,0,0:0:0:0:
448,192,101771,1,0,0:0:0:0:
192,192,101771,1,2,0:0:0:0:
64,192,102005,1,0,0:0:0:0:
320,192,102240,1,2,0:0:0:0:
448,192,102240,1,0,0:0:0:0:
192,192,102474,1,0,0:0:0:0:
320,192,102591,128,0,102943:0:0:0:0:
448,192,102943,1,0,0:0:0:0:
64,192,103060,1,0,0:0:0:0:
192,192,103177,1,2,0:0:0:0:
448,192,103412,1,0,0:0:0:0:
64,192,103646,1,0,0:0:0:0:
320,192,103646,1,2,0:0:0:0:
192,192,103880,1,0,0:0:0:0:
448,192,104115,1,0,0:0:0:0:
320,192,104115,1,2,0:0:0:0:
192,192,104466,1,0,0:0:0:0:
320,192,104584,1,2,0:0:0:0:
448,192,104584,1,0,0:0:0:0:
64,192,104818,1,0,0:0:0:0:
192,192,105052,1,0,0:0:0:0:
320,192,105052,1,2,0:0:0:0:
448,192,105287,1,0,0:0:0:0:
320,192,105521,1,2,0:0:0:0:
64,192,105521,1,0,0:0:0:0:
192,192,105755,1,0,0:0:0:0:
64,192,105990,1,0,0:0:0:0:
320,192,105990,1,2,0:0:0:0:
320,192,106341,1,0,0:0:0:0:
448,192,106459,1,2,0:0:0:0:
320,192,106576,1,0,0:0:0:0:
192,192,106693,1,0,0:0:0:0:
64,192,106810,1,0,0:0:0:0:
448,192,106927,1,2,0:0:0:0:
320,192,107044,1,0,0:0:0:0:
192,192,107162,1,0,0:0:0:0:
64,192,107279,1,0,0:0:0:0:
448,192,107396,1,2,0:0:0:0:
192,192,107513,1,0,0:0:0:0:
320,192,107630,1,0,0:0:0:0:
64,192,107748,1,0,0:0:0:0:
192,192,107865,1,2,0:0:0:0:
320,192,108099,1,0,0:0:0:0:
448,192,108334,1,2,0:0:0:0:
192,192,108334,1,0,0:0:0:0:
64,192,108334,1,2,0:0:0:0:
