osu file format v14

[General]
AudioFilename: audio.mp3
AudioLeadIn: 0
PreviewTime: 29466
Countdown: 0
SampleSet: Soft
StackLeniency: 0.7
Mode: 3
LetterboxInBreaks: 0
SpecialStyle: 0
WidescreenStoryboard: 0

[Editor]
DistanceSpacing: 0.8
BeatDivisor: 6
GridSize: 8
TimelineZoom: 2.2

[Metadata]
Title:Kundalini
TitleUnicode:Kundalini
Artist:Headhunterz & Skytech
ArtistUnicode:Headhunterz & Skytech
Creator:Gangsterkill
Version:4K HD
Source:Spinnin' Records
Tags:Headhunterz Skytech Kundalini Bass House EDM Spinnin' Records
BeatmapID:1144299
BeatmapSetID:539639

[Difficulty]
HPDrainRate:8
CircleSize:4
OverallDifficulty:6
ApproachRate:5
SliderMultiplier:1.4
SliderTickRate:1

[Events]
//Background and Video events
0,0,"to_the_sky_by_hangmoon-d655wks.jpg",0,0
//Break Periods
//Storyboard Layer 0 (Background)
//Storyboard Layer 1 (Fail)
//Storyboard Layer 2 (Pass)
//Storyboard Layer 3 (Foreground)
//Storyboard Sound Samples

[TimingPoints]
18334,468.75,4,2,1,5,1,0
21146,-100,4,2,1,10,0,0
24427,-100,4,2,1,13,0,0
25834,-100,4,2,1,19,0,0
28646,-100,4,2,1,27,0,0
31459,-100,4,2,1,35,0,0
77865,-100,4,2,1,35,0,0
77982,-66.6666666666667,4,2,1,35,0,0
78099,-55.5555555555556,4,2,1,35,0,0
78199,-399.999999999997,4,2,1,35,0,0
78334,-100,4,2,1,35,0,1
91341,-117.647058823529,4,2,1,35,0,0
93334,-100,4,2,1,35,0,1
106459,-100,4,2,1,35,0,0

[HitObjects]
64,192,18334,5,0,0:0:0:0:
192,192,18334,1,0,0:0:0:0:
448,192,18568,1,0,0:0:0:0:
320,192,18802,1,0,0:0:0:0:
192,192,19037,1,0,0:0:0:0:
448,192,19271,1,8,0:0:0:0:
64,192,19271,1,0,0:0:0:0:
192,192,19505,1,0,0:0:0:0:
320,192,19740,1,8,0:0:0:0:
192,192,19974,1,0,0:0:0:0:
320,192,20209,1,0,0:0:0:0:
448,192,20209,1,8,0:0:0:0:
192,192,20443,1,0,0:0:0:0:
320,192,20677,1,0,0:0:0:0:
64,192,20677,1,8,0:0:0:0:
448,192,20912,128,0,21146:0:0:0:0:
192,192,20912,1,0,0:0:0:0:
64,192,21146,1,8,0:0:0:0:
64,192,21615,1,8,0:0:0:0:
192,192,21615,1,0,0:0:0:0:
448,192,22084,1,8,0:0:0:0:
192,192,22084,1,0,0:0:0:0:
320,192,22318,1,0,0:0:0:0:
192,192,22552,1,0,0:0:0:0:
64,192,22552,1,8,0:0:0:0:
320,192,22787,1,0,0:0:0:0:
448,192,23021,1,8,0:0:0:0:
64,192,23021,128,0,23959:0:0:0:0:
320,192,23490,1,8,0:0:0:0:
192,192,23490,1,0,0:0:0:0:
320,192,23959,1,8,0:0:0:0:
448,192,23959,128,0,24427:0:0:0:0:
192,192,24310,1,0,0:0:0:0:
64,192,24427,1,0,0:0:0:0:
320,192,24427,1,8,0:0:0:0:
192,192,24662,1,0,0:0:0:0:
448,192,24662,1,0,0:0:0:0:
320,192,24896,1,0,0:0:0:0:
448,192,24896,1,8,0:0:0:0:
64,192,25365,1,8,0:0:0:0:
320,192,25365,1,0,0:0:0:0:
448,192,25834,1,0,0:0:0:0:
320,192,25834,1,0,0:0:0:0:
192,192,26068,1,0,0:0:0:0:
448,192,26302,1,0,0:0:0:0:
64,192,26302,1,0,0:0:0:0:
64,192,26537,1,0,0:0:0:0:
192,192,26771,1,0,0:0:0:0:
320,192,26771,1,0,0:0:0:0:
448,192,27005,1,0,0:0:0:0:
192,192,27240,1,0,0:0:0:0:
64,192,27240,1,0,0:0:0:0:
320,192,27474,1,0,0:0:0:0:
448,192,27709,1,8,0:0:0:0:
192,192,27709,1,0,0:0:0:0:
64,192,27943,1,0,0:0:0:0:
448,192,28177,1,8,0:0:0:0:
192,192,28177,128,0,28412:0:0:0:0:
64,192,28412,1,0,0:0:0:0:
320,192,28646,1,0,0:0:0:0:
448,192,28646,1,8,0:0:0:0:
320,192,29115,1,0,0:0:0:0:
448,192,29115,1,8,0:0:0:0:
320,192,29584,1,0,0:0:0:0:
64,192,29584,1,8,0:0:0:0:
192,192,29818,1,0,0:0:0:0:
448,192,30052,1,8,0:0:0:0:
320,192,30052,1,0,0:0:0:0:
192,192,30287,1,0,0:0:0:0:
64,192,30521,1,8,0:0:0:0:
320,192,30521,128,0,31459:0:0:0:0:
192,192,30990,1,0,0:0:0:0:
448,192,30990,1,8,0:0:0:0:
64,192,31459,1,0,0:0:0:0:
192,192,31459,1,0,0:0:0:0:
448,192,31459,1,8,0:0:0:0:
448,192,31810,1,0,0:0:0:0:
192,192,31810,1,0,0:0:0:0:
64,192,31810,1,0,0:0:0:0:
320,192,31927,1,0,0:0:0:0:
448,192,32162,1,0,0:0:0:0:
192,192,32162,1,0,0:0:0:0:
64,192,32162,1,0,0:0:0:0:
320,192,32279,1,0,0:0:0:0:
448,192,32396,1,8,0:0:0:0:
64,192,32396,1,0,0:0:0:0:
320,192,32513,1,0,0:0:0:0:
192,192,32630,1,0,0:0:0:0:
320,192,32748,1,0,0:0:0:0:
64,192,32865,128,0,33334:0:0:0:0:
192,192,32865,1,0,0:0:0:0:
448,192,32865,128,0,33334:0:0:0:0:
192,192,33334,128,2,33802:0:0:0:0:
320,192,33334,128,2,34271:0:0:0:0:
64,192,34271,128,2,34740:0:0:0:0:
192,192,34271,128,2,35091:0:0:0:0:
448,192,35091,128,0,35443:0:0:0:0:
64,192,35443,128,0,35677:0:0:0:0:
192,192,35443,1,0,0:0:0:0:
448,192,35677,128,0,35912:0:0:0:0:
320,192,35677,1,0,0:0:0:0:
192,192,35912,128,0,36146:0:0:0:0:
320,192,35912,1,0,0:0:0:0:
448,192,36146,128,0,36615:0:0:0:0:
64,192,36146,1,0,0:0:0:0:
64,192,36615,1,0,0:0:0:0:
192,192,36615,1,0,0:0:0:0:
192,192,36966,128,0,37318:0:0:0:0:
448,192,36966,1,0,0:0:0:0:
64,192,36966,1,0,0:0:0:0:
320,192,37318,128,0,37552:0:0:0:0:
448,192,37318,1,0,0:0:0:0:
64,192,37552,128,0,37787:0:0:0:0:
192,192,37552,1,0,0:0:0:0:
448,192,37787,128,0,38021:0:0:0:0:
192,192,37787,1,0,0:0:0:0:
320,192,38021,128,0,38490:0:0:0:0:
192,192,38021,1,0,0:0:0:0:
64,192,38021,1,0,0:0:0:0:
192,192,38841,128,0,39193:0:0:0:0:
448,192,38841,1,0,0:0:0:0:
64,192,38841,1,0,0:0:0:0:
448,192,39193,1,0,0:0:0:0:
320,192,39193,128,0,39427:0:0:0:0:
64,192,39310,1,0,0:0:0:0:
448,192,39427,1,0,0:0:0:0:
192,192,39427,128,0,39662:0:0:0:0:
448,192,39662,128,0,39896:0:0:0:0:
64,192,39662,1,0,0:0:0:0:
64,192,39896,128,0,40365:0:0:0:0:
192,192,39896,1,0,0:0:0:0:
320,192,39896,1,0,0:0:0:0:
448,192,40365,1,0,0:0:0:0:
192,192,40599,1,0,0:0:0:0:
320,192,40834,1,0,0:0:0:0:
448,192,40834,1,0,0:0:0:0:
64,192,40834,128,0,41302:0:0:0:0:
320,192,41302,1,0,0:0:0:0:
448,192,41771,1,0,0:0:0:0:
320,192,41771,128,0,42240:0:0:0:0:
192,192,42240,1,0,0:0:0:0:
448,192,42591,128,0,42943:0:0:0:0:
64,192,42591,1,0,0:0:0:0:
64,192,42943,128,0,43060:0:0:0:0:
320,192,42943,1,0,0:0:0:0:
192,192,43060,128,0,43177:0:0:0:0:
320,192,43177,128,0,43412:0:0:0:0:
448,192,43177,1,0,0:0:0:0:
192,192,43412,128,0,43646:0:0:0:0:
64,192,43412,1,0,0:0:0:0:
448,192,43646,128,0,44115:0:0:0:0:
64,192,43646,1,0,0:0:0:0:
192,192,44115,1,0,0:0:0:0:
448,192,44466,128,0,44818:0:0:0:0:
192,192,44466,1,0,0:0:0:0:
64,192,44818,128,0,44935:0:0:0:0:
192,192,44818,1,0,0:0:0:0:
448,192,45052,128,0,45169:0:0:0:0:
320,192,45052,1,0,0:0:0:0:
64,192,45287,128,0,45404:0:0:0:0:
192,192,45287,1,0,0:0:0:0:
320,192,45521,128,0,45990:0:0:0:0:
448,192,45521,1,0,0:0:0:0:
192,192,45521,1,0,0:0:0:0:
448,192,46341,128,0,46693:0:0:0:0:
64,192,46341,128,0,46693:0:0:0:0:
192,192,46693,1,0,0:0:0:0:
320,192,46693,128,0,46927:0:0:0:0:
64,192,46927,128,0,47162:0:0:0:0:
448,192,46927,1,0,0:0:0:0:
448,192,47162,128,0,47396:0:0:0:0:
192,192,47162,1,0,0:0:0:0:
192,192,47396,1,0,0:0:0:0:
64,192,47396,128,0,47513:0:0:0:0:
448,192,48099,128,0,48334:0:0:0:0:
320,192,48334,1,0,0:0:0:0:
64,192,48334,1,0,0:0:0:0:
448,192,48568,1,0,0:0:0:0:
64,192,48802,1,0,0:0:0:0:
320,192,48802,1,0,0:0:0:0:
448,192,49037,1,0,0:0:0:0:
64,192,49271,1,0,0:0:0:0:
192,192,49271,1,0,0:0:0:0:
320,192,49271,1,0,0:0:0:0:
448,192,49505,1,0,0:0:0:0:
64,192,49740,1,0,0:0:0:0:
320,192,49740,1,0,0:0:0:0:
192,192,49974,1,0,0:0:0:0:
320,192,50091,1,0,0:0:0:0:
64,192,50091,1,0,0:0:0:0:
448,192,50091,1,0,0:0:0:0:
192,192,50443,1,0,0:0:0:0:
320,192,50443,1,0,0:0:0:0:
448,192,50677,1,0,0:0:0:0:
192,192,50677,1,0,0:0:0:0:
64,192,50912,1,0,0:0:0:0:
448,192,50912,1,0,0:0:0:0:
192,192,51146,1,0,0:0:0:0:
320,192,51146,1,0,0:0:0:0:
64,192,51146,1,8,0:0:0:0:
448,192,51615,1,8,0:0:0:0:
320,192,51966,1,0,0:0:0:0:
64,192,51966,1,0,0:0:0:0:
192,192,52084,1,0,0:0:0:0:
448,192,52084,1,8,0:0:0:0:
64,192,52318,1,0,0:0:0:0:
192,192,52318,1,0,0:0:0:0:
320,192,52552,1,8,0:0:0:0:
192,192,52552,1,0,0:0:0:0:
448,192,52787,1,0,0:0:0:0:
192,192,52787,1,0,0:0:0:0:
64,192,53021,1,0,0:0:0:0:
320,192,53021,1,0,0:0:0:0:
448,192,53021,1,8,0:0:0:0:
448,192,53490,1,8,0:0:0:0:
64,192,53841,1,0,0:0:0:0:
192,192,53841,1,0,0:0:0:0:
192,192,53959,1,0,0:0:0:0:
448,192,53959,1,8,0:0:0:0:
320,192,54193,1,0,0:0:0:0:
64,192,54193,1,0,0:0:0:0:
448,192,54427,1,8,0:0:0:0:
320,192,54427,1,0,0:0:0:0:
448,192,54662,1,0,0:0:0:0:
192,192,54662,1,0,0:0:0:0:
64,192,54896,1,8,0:0:0:0:
192,192,54896,1,0,0:0:0:0:
320,192,54896,1,0,0:0:0:0:
448,192,55365,1,8,0:0:0:0:
448,192,55599,128,0,55834:0:0:0:0:
320,192,55834,1,0,0:0:0:0:
192,192,55834,1,8,0:0:0:0:
448,192,56068,1,0,0:0:0:0:
64,192,56302,1,0,0:0:0:0:
192,192,56302,1,0,0:0:0:0:
320,192,56537,1,0,0:0:0:0:
64,192,56771,1,0,0:0:0:0:
192,192,56771,1,0,0:0:0:0:
448,192,56771,1,0,0:0:0:0:
320,192,57005,1,0,0:0:0:0:
448,192,57240,1,0,0:0:0:0:
64,192,57240,1,8,0:0:0:0:
192,192,57474,1,0,0:0:0:0:
320,192,57591,1,0,0:0:0:0:
448,192,57591,1,0,0:0:0:0:
64,192,57591,1,0,0:0:0:0:
320,192,57943,1,0,0:0:0:0:
192,192,57943,1,0,0:0:0:0:
64,192,57943,1,0,0:0:0:0:
192,192,58177,1,8,0:0:0:0:
448,192,58177,1,0,0:0:0:0:
320,192,58177,1,0,0:0:0:0:
64,192,58412,1,0,0:0:0:0:
320,192,58412,1,0,0:0:0:0:
448,192,58412,1,0,0:0:0:0:
192,192,58646,1,0,0:0:0:0:
64,192,58646,1,8,0:0:0:0:
320,192,58646,1,0,0:0:0:0:
192,192,59115,1,8,0:0:0:0:
320,192,59466,1,0,0:0:0:0:
192,192,59466,1,0,0:0:0:0:
192,192,59584,1,0,0:0:0:0:
448,192,59584,1,0,0:0:0:0:
64,192,59584,1,8,0:0:0:0:
320,192,59818,1,0,0:0:0:0:
192,192,59818,1,0,0:0:0:0:
448,192,59818,1,0,0:0:0:0:
64,192,60052,1,8,0:0:0:0:
192,192,60052,1,0,0:0:0:0:
320,192,60052,1,0,0:0:0:0:
192,192,60287,1,0,0:0:0:0:
448,192,60287,1,0,0:0:0:0:
64,192,60287,1,0,0:0:0:0:
320,192,60521,1,0,0:0:0:0:
192,192,60521,1,0,0:0:0:0:
448,192,60521,1,8,0:0:0:0:
448,192,60990,1,8,0:0:0:0:
192,192,61341,1,0,0:0:0:0:
64,192,61459,1,0,0:0:0:0:
320,192,61459,1,0,0:0:0:0:
448,192,61459,1,8,0:0:0:0:
192,192,61693,1,0,0:0:0:0:
320,192,61693,1,0,0:0:0:0:
448,192,61693,1,0,0:0:0:0:
448,192,61927,1,8,0:0:0:0:
320,192,61927,1,0,0:0:0:0:
192,192,61927,1,0,0:0:0:0:
64,192,62162,1,0,0:0:0:0:
192,192,62162,1,0,0:0:0:0:
320,192,62162,1,0,0:0:0:0:
64,192,62396,1,0,0:0:0:0:
448,192,62396,1,8,0:0:0:0:
320,192,62396,1,0,0:0:0:0:
320,192,62865,1,8,0:0:0:0:
448,192,62865,128,0,63334:0:0:0:0:
192,192,63334,1,0,0:0:0:0:
64,192,63334,1,2,0:0:0:0:
320,192,63568,1,0,0:0:0:0:
448,192,63802,1,2,0:0:0:0:
320,192,63802,1,0,0:0:0:0:
192,192,64037,1,0,0:0:0:0:
320,192,64271,1,0,0:0:0:0:
64,192,64271,1,2,0:0:0:0:
448,192,64505,1,0,0:0:0:0:
64,192,64740,1,2,0:0:0:0:
320,192,64740,1,0,0:0:0:0:
320,192,64974,1,0,0:0:0:0:
192,192,65091,1,0,0:0:0:0:
320,192,65209,1,0,0:0:0:0:
448,192,65209,1,2,0:0:0:0:
64,192,65209,1,2,0:0:0:0:
192,192,65443,1,0,0:0:0:0:
320,192,65443,1,0,0:0:0:0:
448,192,65677,1,2,0:0:0:0:
320,192,65677,1,0,0:0:0:0:
64,192,65912,1,0,0:0:0:0:
320,192,65912,1,0,0:0:0:0:
448,192,66146,1,2,0:0:0:0:
192,192,66146,1,0,0:0:0:0:
64,192,66146,1,0,0:0:0:0:
320,192,66380,1,0,0:0:0:0:
192,192,66615,1,0,0:0:0:0:
448,192,66615,1,2,0:0:0:0:
64,192,66849,1,0,0:0:0:0:
192,192,66966,1,0,0:0:0:0:
320,192,67084,1,0,0:0:0:0:
448,192,67084,1,2,0:0:0:0:
64,192,67084,1,0,0:0:0:0:
192,192,67318,1,0,0:0:0:0:
320,192,67318,1,0,0:0:0:0:
64,192,67552,1,2,0:0:0:0:
192,192,67552,1,0,0:0:0:0:
320,192,67552,1,0,0:0:0:0:
448,192,67787,1,0,0:0:0:0:
192,192,67787,1,0,0:0:0:0:
320,192,68021,1,0,0:0:0:0:
448,192,68021,1,2,0:0:0:0:
64,192,68021,1,0,0:0:0:0:
192,192,68255,1,0,0:0:0:0:
64,192,68490,1,2,0:0:0:0:
192,192,68490,1,0,0:0:0:0:
320,192,68724,1,0,0:0:0:0:
448,192,68841,1,0,0:0:0:0:
64,192,68959,1,0,0:0:0:0:
192,192,68959,1,0,0:0:0:0:
448,192,68959,1,2,0:0:0:0:
448,192,69193,1,0,0:0:0:0:
192,192,69193,1,0,0:0:0:0:
64,192,69310,1,0,0:0:0:0:
448,192,69427,1,2,0:0:0:0:
192,192,69427,1,0,0:0:0:0:
320,192,69662,1,0,0:0:0:0:
64,192,69662,1,0,0:0:0:0:
192,192,69896,1,0,0:0:0:0:
448,192,69896,1,2,0:0:0:0:
320,192,70365,1,0,0:0:0:0:
192,192,70365,1,0,0:0:0:0:
64,192,70365,1,2,0:0:0:0:
448,192,70599,1,0,0:0:0:0:
192,192,70716,1,0,0:0:0:0:
448,192,70834,1,0,0:0:0:0:
320,192,70834,1,0,0:0:0:0:
192,192,70951,1,0,0:0:0:0:
192,192,71185,1,0,0:0:0:0:
320,192,71302,1,0,0:0:0:0:
64,192,71302,1,0,0:0:0:0:
192,192,71537,1,0,0:0:0:0:
192,192,71771,1,0,0:0:0:0:
64,192,71771,1,0,0:0:0:0:
320,192,71888,1,0,0:0:0:0:
192,192,72123,1,0,0:0:0:0:
64,192,72240,1,0,0:0:0:0:
448,192,72240,1,0,0:0:0:0:
320,192,72474,1,0,0:0:0:0:
192,192,72591,1,0,0:0:0:0:
64,192,72591,1,0,0:0:0:0:
320,192,72709,1,0,0:0:0:0:
192,192,72826,1,0,0:0:0:0:
320,192,73060,1,0,0:0:0:0:
448,192,73060,1,0,0:0:0:0:
192,192,73177,1,0,0:0:0:0:
64,192,73177,1,0,0:0:0:0:
320,192,73412,1,0,0:0:0:0:
448,192,73412,1,0,0:0:0:0:
64,192,73646,1,0,0:0:0:0:
320,192,73646,1,0,0:0:0:0:
448,192,73646,1,0,0:0:0:0:
192,192,73763,1,0,0:0:0:0:
192,192,73998,1,0,0:0:0:0:
64,192,74115,1,0,0:0:0:0:
320,192,74115,1,0,0:0:0:0:
448,192,74115,1,0,0:0:0:0:
320,192,74349,1,0,0:0:0:0:
192,192,74349,1,0,0:0:0:0:
448,192,74584,1,0,0:0:0:0:
320,192,74584,1,2,0:0:0:0:
192,192,74701,1,0,0:0:0:0:
64,192,74818,1,0,0:0:0:0:
448,192,74935,1,0,0:0:0:0:
320,192,75052,1,0,0:0:0:0:
64,192,75052,1,2,0:0:0:0:
192,192,75169,1,0,0:0:0:0:
320,192,75287,1,0,0:0:0:0:
64,192,75404,1,0,0:0:0:0:
448,192,75521,1,0,0:0:0:0:
320,192,75521,1,2,0:0:0:0:
192,192,75599,1,0,0:0:0:0:
64,192,75677,1,0,0:0:0:0:
192,192,75755,1,2,0:0:0:0:
448,192,75755,1,0,0:0:0:0:
320,192,75834,1,0,0:0:0:0:
448,192,75912,1,0,0:0:0:0:
320,192,75990,1,2,0:0:0:0:
64,192,75990,1,0,0:0:0:0:
192,192,76068,1,0,0:0:0:0:
64,192,76146,1,0,0:0:0:0:
448,192,76224,1,0,0:0:0:0:
192,192,76224,1,2,0:0:0:0:
320,192,76302,1,0,0:0:0:0:
192,192,76380,1,0,0:0:0:0:
64,192,76459,128,0,76576:0:0:0:0:
448,192,76459,1,0,0:0:0:0:
320,192,76576,128,0,76810:0:0:0:0:
320,192,76927,1,0,0:0:0:0:
64,192,76927,1,0,0:0:0:0:
192,192,77162,5,0,0:0:0:0:
448,192,77162,1,0,0:0:0:0:
320,192,77279,1,0,0:0:0:0:
192,192,77396,1,0,0:0:0:0:
448,192,77396,1,0,0:0:0:0:
64,192,77513,1,0,0:0:0:0:
192,192,77630,1,0,0:0:0:0:
320,192,77748,1,0,0:0:0:0:
192,192,77865,128,0,78334:0:0:0:0:
64,192,77865,128,0,78334:0:0:0:0:
448,192,78334,128,0,78802:0:0:0:0:
320,192,78334,1,2,0:0:0:0:
192,192,78568,1,0,0:0:0:0:
64,192,78802,128,0,79271:0:0:0:0:
320,192,78802,1,2,0:0:0:0:
448,192,79037,1,0,0:0:0:0:
448,192,79271,128,0,79740:0:0:0:0:
192,192,79271,1,2,0:0:0:0:
64,192,79505,1,0,0:0:0:0:
64,192,79740,128,0,80091:0:0:0:0:
320,192,79740,1,2,0:0:0:0:
448,192,80091,128,0,80443:0:0:0:0:
320,192,80091,1,2,0:0:0:0:
64,192,80443,128,2,80501:0:0:0:0:
192,192,80443,1,0,0:0:0:0:
320,192,80443,1,0,0:0:0:0:
192,192,80677,128,2,80736:0:0:0:0:
64,192,80677,1,0,0:0:0:0:
448,192,80677,1,0,0:0:0:0:
320,192,80912,128,2,80970:0:0:0:0:
448,192,80912,1,0,0:0:0:0:
64,192,80912,1,0,0:0:0:0:
448,192,81146,128,0,81615:0:0:0:0:
192,192,81146,1,2,0:0:0:0:
64,192,81146,1,0,0:0:0:0:
320,192,81380,1,0,0:0:0:0:
192,192,81615,1,0,0:0:0:0:
64,192,81615,1,0,0:0:0:0:
448,192,81849,1,0,0:0:0:0:
64,192,81966,128,0,82318:0:0:0:0:
320,192,81966,1,0,0:0:0:0:
192,192,82318,128,0,82435:0:0:0:0:
320,192,82318,1,0,0:0:0:0:
448,192,82552,128,0,82669:0:0:0:0:
64,192,82552,1,0,0:0:0:0:
320,192,82552,1,2,0:0:0:0:
64,192,82787,128,0,82904:0:0:0:0:
320,192,82787,1,0,0:0:0:0:
448,192,83021,128,0,83490:0:0:0:0:
320,192,83021,1,2,0:0:0:0:
192,192,83021,1,0,0:0:0:0:
320,192,83255,1,0,0:0:0:0:
64,192,83490,1,0,0:0:0:0:
192,192,83490,1,2,0:0:0:0:
448,192,83724,1,0,0:0:0:0:
320,192,83841,128,0,83959:0:0:0:0:
64,192,83959,128,0,84193:0:0:0:0:
192,192,83959,1,2,0:0:0:0:
192,192,84193,128,0,84310:0:0:0:0:
320,192,84193,1,0,0:0:0:0:
448,192,84310,128,0,84427:0:0:0:0:
64,192,84427,128,0,84662:0:0:0:0:
320,192,84427,1,2,0:0:0:0:
448,192,84662,128,0,84896:0:0:0:0:
320,192,84662,1,0,0:0:0:0:
192,192,84896,128,0,85130:0:0:0:0:
64,192,84896,1,2,0:0:0:0:
320,192,85130,1,0,0:0:0:0:
448,192,85130,1,0,0:0:0:0:
192,192,85365,1,2,0:0:0:0:
448,192,85365,1,2,0:0:0:0:
320,192,85443,1,0,2:2:0:0:
192,192,85521,1,0,2:2:0:0:
64,192,85599,1,0,2:2:0:0:
192,192,85677,1,0,2:2:0:0:
320,192,85755,1,0,2:2:0:0:
448,192,85834,1,0,2:2:0:0:
64,192,85834,128,0,86302:0:0:0:0:
448,192,86068,1,0,0:0:0:0:
192,192,86302,128,0,86771:0:0:0:0:
320,192,86302,1,2,0:0:0:0:
448,192,86302,1,2,0:0:0:0:
64,192,86537,1,0,0:0:0:0:
448,192,86771,1,2,0:0:0:0:
320,192,86771,128,0,87240:0:0:0:0:
64,192,86771,1,2,0:0:0:0:
448,192,87005,1,0,0:0:0:0:
64,192,87240,128,0,87591:0:0:0:0:
192,192,87240,1,2,0:0:0:0:
448,192,87240,1,2,0:0:0:0:
320,192,87474,1,0,0:0:0:0:
192,192,87591,128,0,87943:0:0:0:0:
448,192,87591,1,0,0:0:0:0:
320,192,87591,1,0,0:0:0:0:
448,192,87943,128,0,88060:0:0:0:0:
320,192,87943,1,0,0:0:0:0:
64,192,88060,128,0,88177:0:0:0:0:
192,192,88060,1,0,0:0:0:0:
320,192,88177,128,2,88412:0:0:0:0:
448,192,88177,1,2,0:0:0:0:
192,192,88412,128,0,88646:0:0:0:0:
64,192,88412,1,0,0:0:0:0:
448,192,88646,128,2,88880:0:0:0:0:
320,192,88646,1,2,0:0:0:0:
64,192,88880,1,0,0:0:0:0:
192,192,88998,1,0,0:0:0:0:
320,192,89115,1,0,0:0:0:0:
448,192,89115,1,0,0:0:0:0:
64,192,89115,1,0,0:0:0:0:
64,192,89349,1,0,0:0:0:0:
320,192,89349,1,0,0:0:0:0:
448,192,89466,128,0,89818:0:0:0:0:
192,192,89466,1,0,0:0:0:0:
64,192,89818,128,0,89935:0:0:0:0:
192,192,89818,1,0,0:0:0:0:
448,192,89935,128,0,90052:0:0:0:0:
320,192,89935,1,0,0:0:0:0:
192,192,90052,128,2,90287:0:0:0:0:
64,192,90052,1,2,0:0:0:0:
448,192,90287,128,0,90521:0:0:0:0:
64,192,90287,128,0,90521:0:0:0:0:
320,192,90287,1,0,0:0:0:0:
192,192,90521,1,2,0:0:0:0:
320,192,90521,128,2,90990:0:0:0:0:
64,192,90755,1,0,0:0:0:0:
448,192,90990,1,2,0:0:0:0:
64,192,90990,1,2,0:0:0:0:
320,192,91224,1,0,0:0:0:0:
448,192,91341,128,0,91693:0:0:0:0:
192,192,91341,128,0,91693:0:0:0:0:
320,192,91693,128,0,91810:0:0:0:0:
64,192,91810,128,0,91927:0:0:0:0:
448,192,91810,128,0,91927:0:0:0:0:
192,192,91927,128,0,92162:0:0:0:0:
448,192,92162,128,0,92396:0:0:0:0:
64,192,92396,128,0,92630:0:0:0:0:
192,192,92396,128,0,92630:0:0:0:0:
320,192,92630,1,2,0:0:0:0:
448,192,92630,1,0,0:0:0:0:
192,192,92748,1,2,0:0:0:0:
64,192,92748,1,0,0:0:0:0:
320,192,92865,1,2,0:0:0:0:
448,192,92865,1,0,0:0:0:0:
64,192,93099,1,0,0:0:0:0:
192,192,93099,1,0,0:0:0:0:
448,192,93099,1,0,0:0:0:0:
448,192,93334,128,2,93685:0:0:0:0:
320,192,93334,1,2,0:0:0:0:
64,192,93568,1,0,0:0:0:0:
192,192,93568,1,0,0:0:0:0:
448,192,93802,128,0,94154:0:0:0:0:
192,192,93802,1,2,0:0:0:0:
64,192,93802,1,2,0:0:0:0:
320,192,94037,1,0,0:0:0:0:
192,192,94271,128,0,94623:0:0:0:0:
320,192,94271,1,2,0:0:0:0:
448,192,94271,1,2,0:0:0:0:
64,192,94505,1,0,0:0:0:0:
192,192,94740,128,0,95091:0:0:0:0:
320,192,94740,1,2,0:0:0:0:
64,192,94740,1,2,0:0:0:0:
448,192,94974,1,0,0:0:0:0:
64,192,95091,128,0,95443:0:0:0:0:
320,192,95091,1,0,0:0:0:0:
448,192,95209,1,2,0:0:0:0:
192,192,95443,128,0,95501:0:0:0:0:
320,192,95443,1,0,0:0:0:0:
320,192,95677,128,0,95736:0:0:0:0:
64,192,95677,1,2,0:0:0:0:
448,192,95677,1,2,0:0:0:0:
64,192,95912,128,0,95970:0:0:0:0:
448,192,95912,1,0,0:0:0:0:
192,192,95912,1,0,0:0:0:0:
448,192,96146,128,0,96380:0:0:0:0:
192,192,96146,1,2,0:0:0:0:
320,192,96146,1,2,0:0:0:0:
64,192,96380,1,0,0:0:0:0:
64,192,96615,1,2,0:0:0:0:
192,192,96615,1,2,0:0:0:0:
448,192,96615,1,8,0:0:0:0:
320,192,96849,1,0,0:0:0:0:
192,192,96966,1,0,0:0:0:0:
64,192,97084,128,2,97318:0:0:0:0:
320,192,97084,1,2,0:0:0:0:
448,192,97318,128,0,97376:0:0:0:0:
320,192,97318,1,0,0:0:0:0:
192,192,97552,128,0,97611:0:0:0:0:
448,192,97552,1,2,0:0:0:0:
64,192,97552,1,2,0:0:0:0:
320,192,97787,128,0,97845:0:0:0:0:
64,192,97787,1,0,0:0:0:0:
448,192,97787,1,0,0:0:0:0:
64,192,98021,128,0,98490:0:0:0:0:
320,192,98021,1,2,0:0:0:0:
448,192,98021,1,2,0:0:0:0:
192,192,98490,1,0,0:0:0:0:
320,192,98490,1,2,0:0:0:0:
448,192,98490,1,2,0:0:0:0:
448,192,98841,128,0,98959:0:0:0:0:
64,192,98959,128,2,99193:0:0:0:0:
192,192,98959,1,2,0:0:0:0:
320,192,99193,128,0,99310:0:0:0:0:
192,192,99193,1,0,0:0:0:0:
448,192,99310,128,0,99427:0:0:0:0:
192,192,99310,1,0,0:0:0:0:
64,192,99427,128,2,99544:0:0:0:0:
320,192,99427,1,2,0:0:0:0:
320,192,99662,1,0,0:0:0:0:
448,192,99662,1,0,0:0:0:0:
192,192,99896,1,2,0:0:0:0:
64,192,99896,1,2,0:0:0:0:
448,192,99896,1,0,0:0:0:0:
320,192,100130,1,0,0:0:0:0:
192,192,100365,1,2,0:0:0:0:
448,192,100365,1,2,0:0:0:0:
448,192,100599,1,0,0:0:0:0:
64,192,100599,1,0,0:0:0:0:
448,192,100834,128,2,101068:0:0:0:0:
320,192,100834,1,2,0:0:0:0:
64,192,101068,1,0,0:0:0:0:
192,192,101068,1,0,0:0:0:0:
64,192,101302,128,2,101537:0:0:0:0:
320,192,101302,1,2,0:0:0:0:
192,192,101537,1,0,0:0:0:0:
448,192,101537,1,0,0:0:0:0:
320,192,101771,128,2,102005:0:0:0:0:
64,192,101771,1,2,0:0:0:0:
448,192,102005,1,0,0:0:0:0:
192,192,102005,1,0,0:0:0:0:
192,192,102240,128,2,102474:0:0:0:0:
448,192,102240,1,2,0:0:0:0:
64,192,102474,1,0,0:0:0:0:
320,192,102474,1,0,0:0:0:0:
448,192,102591,128,0,102943:0:0:0:0:
192,192,102591,1,0,0:0:0:0:
64,192,102943,128,0,103060:0:0:0:0:
192,192,102943,1,0,0:0:0:0:
448,192,103060,128,0,103177:0:0:0:0:
320,192,103060,1,0,0:0:0:0:
192,192,103177,128,2,103412:0:0:0:0:
64,192,103177,1,2,0:0:0:0:
448,192,103412,128,0,103646:0:0:0:0:
320,192,103412,1,0,0:0:0:0:
64,192,103646,128,2,103880:0:0:0:0:
192,192,103646,1,2,0:0:0:0:
320,192,103880,1,0,0:0:0:0:
192,192,104115,1,2,0:0:0:0:
64,192,104115,1,2,0:0:0:0:
448,192,104115,1,0,0:0:0:0:
320,192,104349,1,0,0:0:0:0:
320,192,104466,128,0,104818:0:0:0:0:
192,192,104584,1,2,0:0:0:0:
64,192,104818,128,0,104935:0:0:0:0:
192,192,104818,1,0,0:0:0:0:
448,192,104935,128,0,105052:0:0:0:0:
320,192,104935,1,0,0:0:0:0:
64,192,105052,1,2,0:0:0:0:
192,192,105052,128,2,105287:0:0:0:0:
448,192,105287,1,0,0:0:0:0:
320,192,105287,1,0,0:0:0:0:
192,192,105521,1,2,0:0:0:0:
64,192,105521,1,2,0:0:0:0:
320,192,105755,1,0,0:0:0:0:
64,192,105990,1,8,0:0:0:0:
448,192,105990,1,2,0:0:0:0:
320,192,106224,1,0,0:0:0:0:
448,192,106341,1,0,0:0:0:0:
64,192,106459,1,2,0:0:0:0:
192,192,106459,1,0,0:0:0:0:
320,192,106576,1,0,0:0:0:0:
448,192,106693,1,0,0:0:0:0:
192,192,106810,1,0,0:0:0:0:
64,192,106927,1,2,0:0:0:0:
448,192,106927,1,0,0:0:0:0:
320,192,107044,1,0,0:0:0:0:
192,192,107162,1,0,0:0:0:0:
448,192,107279,1,0,0:0:0:0:
64,192,107396,1,2,0:0:0:0:
192,192,107396,1,0,0:0:0:0:
320,192,107513,1,0,0:0:0:0:
64,192,107630,1,2,0:0:0:0:
448,192,107748,1,0,0:0:0:0:
192,192,107865,128,0,108334:0:0:0:0:
320,192,107865,1,0,0:0:0:0:
64,192,107865,1,2,0:0:0:0:
448,192,108099,1,0,0:0:0:0:
320,192,108334,1,2,0:0:0:0:
64,192,108334,1,2,0:0:0:0:
