osu file format v14

[General]
AudioFilename: audio.mp3
AudioLeadIn: 0
PreviewTime: 56113
Countdown: 0
SampleSet: Soft
StackLeniency: 0.7
Mode: 0
LetterboxInBreaks: 0
WidescreenStoryboard: 0

[Editor]
DistanceSpacing: 0.6
BeatDivisor: 6
GridSize: 8
TimelineZoom: 1

[Metadata]
Title:Smile Again
TitleUnicode:Smile Again
Artist:Hazuki Erino
ArtistUnicode:葉月絵理乃
Creator:ponbot
Version:Dekkai Shiawase -A-
Source:ARIA The NATURAL
Tags:japanese anime pop ending ed
BeatmapID:4499220
BeatmapSetID:2137880

[Difficulty]
HPDrainRate:4
CircleSize:4
OverallDifficulty:6
ApproachRate:7.5
SliderMultiplier:1.8
SliderTickRate:1

[Events]
//Background and Video events
0,0,"bg.jpg",0,0
//Break Periods
2,74781,82405
//Storyboard Layer 0 (Background)
//Storyboard Layer 1 (Fail)
//Storyboard Layer 2 (Pass)
//Storyboard Layer 3 (Foreground)
//Storyboard Layer 4 (Overlay)
//Storyboard Sound Samples

[TimingPoints]
1068,540.540540540541,4,2,0,35,1,0
1068,-125,4,2,0,35,0,0
9176,-100,4,2,0,35,0,0
26473,-83.3333333333333,4,2,0,35,0,0
27013,-100,4,2,0,35,0,0
42689,-125,4,2,0,30,0,0
43230,-100,4,2,0,35,0,0
43770,-83.3333333333333,4,2,0,40,0,0
44311,-71.4285714285714,4,2,0,45,0,0
44851,-100,4,2,0,45,0,0
55122,-83.3333333333333,4,2,0,45,0,0
57284,-83.3333333333333,4,2,0,55,0,0
83230,-100,4,2,0,35,0,0
99986,-83.3333333333333,4,2,0,35,0,0
100527,-100,4,2,0,35,0,0
116203,-125,4,2,0,30,0,0
116743,-100,4,2,0,35,0,0
117284,-83.3333333333333,4,2,0,40,0,0
117824,-71.4285714285714,4,2,0,45,0,0
118365,-100,4,2,0,45,0,0
128635,-83.3333333333333,4,2,0,45,0,0
130797,-83.3333333333333,4,2,0,55,0,0
148095,-100,4,2,0,40,0,0
163230,-83.3333333333333,4,2,0,40,0,0
165392,-83.3333333333333,4,2,0,55,0,0
182689,-83.3333333333333,4,2,0,60,0,0
199986,-100,4,2,0,50,0,0
202149,-83.3333333333333,4,2,0,50,0,0

[Colours]
Combo1 : 17,254,176
Combo2 : 173,255,95
Combo3 : 255,88,100
Combo4 : 255,94,55

[HitObjects]
144,152,1068,6,0,P|131:200|125:253,1,96,2|0,0:0|0:0,0:0:0:0:
105,266,1608,1,0,0:0:0:0:
186,316,1968,2,0,B|246:300|270:357|340:337,1,144,0|0,0:0|0:0,0:0:0:0:
348,322,2689,1,0,0:0:0:0:
430,270,3049,5,0,0:0:0:0:
430,270,3230,2,0,P|427:226|414:168,1,96,2|0,0:0|0:0,0:0:0:0:
433,152,3770,1,0,0:0:0:0:
296,197,4311,1,2,0:0:0:0:
229,136,4671,1,0,0:0:0:0:
229,136,4851,2,0,P|180:146|121:153,1,96
117,175,5392,6,0,P|71:162|66:106,1,96,2|0,0:0|0:0,0:0:0:0:
50,92,5932,1,0,0:0:0:0:
120,26,6293,2,0,B|165:55|231:5|271:37,1,144
282,50,7013,1,0,0:0:0:0:
371,13,7374,5,0,0:0:0:0:
371,13,7554,1,2,0:0:0:0:
426,98,7914,1,0,0:0:0:0:
426,98,8095,2,0,B|390:114|397:199|353:219,1,144,0|2,0:0|0:0,0:0:0:0:
280,279,8995,5,0,3:0:0:0:
280,279,9176,2,0,P|259:226|203:232,1,120,0|0,3:0|0:0,0:0:0:0:
188,258,9716,1,4,3:2:0:0:
105,152,10257,6,0,P|119:105|126:22,1,120
111,9,10797,1,2,0:0:0:0:
13,77,11158,1,0,0:0:0:0:
13,77,11338,2,0,B|-12:137|-6:197,1,120
12,218,11878,6,0,P|47:227|61:303,1,120,0|0,3:0|0:0,0:0:0:0:
44,324,12419,1,0,0:0:0:0:
136,380,12779,1,0,0:0:0:0:
136,380,12959,2,0,P|147:335|181:267,1,120,2|0,0:0|0:0,0:0:0:0:
214,258,13500,1,0,0:0:0:0:
181,160,13860,5,0,0:0:0:0:
181,160,14040,2,0,P|90:192|12:154,2,180,0|0|2,3:0|0:0|0:0,0:0:0:0:
167,57,15482,1,0,0:0:0:0:
167,57,15662,2,0,P|209:51|267:102,1,120
301,91,16203,6,0,P|303:121|267:208,1,120,0|0,3:0|0:0,0:0:0:0:
242,224,16743,1,0,0:0:0:0:
303,299,17104,1,0,0:0:0:0:
303,299,17284,2,0,P|359:269|427:255,1,120,2|0,0:0|0:0,0:0:0:0:
411,172,17824,2,0,P|471:152|496:98,1,120
496,68,18365,6,0,B|431:49|387:111|321:80,1,180,0|0,3:0|0:0,0:0:0:0:
238,18,19266,1,0,0:0:0:0:
238,18,19446,2,0,P|233:74|236:144,1,120,2|0,0:0|0:0,0:0:0:0:
266,156,19986,2,0,P|225:185|215:253,1,120
226,285,20527,1,0,3:0:0:0:
111,356,21068,6,0,P|95:315|13:304,1,120
3,270,21608,2,0,P|35:226|71:157,1,120,2|0,0:0|0:0,0:0:0:0:
60,132,22149,1,0,0:0:0:0:
20,37,22509,5,0,0:0:0:0:
20,37,22689,2,0,B|87:15|131:68|200:33,1,180,0|0,3:0|0:0,0:0:0:0:
256,104,23590,1,0,0:0:0:0:
256,104,23770,2,0,P|218:124|208:205,1,120,2|0,0:0|0:0,0:0:0:0:
203,231,24311,2,0,P|258:233|300:162,1,120
298,169,24851,6,0,P|283:216|270:294,1,120,0|8,3:0|3:0,0:0:0:0:
248,314,25392,1,0,3:0:0:0:
385,370,25752,1,8,3:0:0:0:
385,370,25932,2,0,P|394:330|370:252,1,120,0|8,3:0|3:0,0:0:0:0:
466,263,26473,6,0,P|447:212|372:159,1,143.999995605469,4|0,3:0|0:0,0:0:0:0:
341,159,27013,1,4,3:2:0:0:
261,63,27554,6,0,B|305:44|336:67|388:34,1,120
401,11,28095,1,2,0:0:0:0:
491,88,28455,1,0,0:0:0:0:
491,88,28635,2,0,P|456:142|435:204,1,120
454,233,29176,6,0,B|394:200|331:256|272:213,1,180,0|0,3:0|0:0,0:0:0:0:
197,165,30077,1,0,0:0:0:0:
197,165,30257,2,0,P|183:208|212:285,1,120,2|0,0:0|0:0,0:0:0:0:
197,312,30797,2,0,P|156:275|91:294,1,120
75,317,31338,6,0,B|90:234|44:229|66:131,1,180,0|0,3:0|0:0,0:0:0:0:
132,41,32239,1,0,0:0:0:0:
132,41,32419,2,0,P|176:35|210:103,1,120,2|0,0:0|0:0,0:0:0:0:
199,126,32959,1,0,0:0:0:0:
286,168,33320,5,0,0:0:0:0:
286,168,33500,2,0,P|303:110|330:43,1,120,0|0,3:0|0:0,0:0:0:0:
354,34,34040,1,0,0:0:0:0:
463,95,34401,1,0,0:0:0:0:
463,95,34581,2,0,P|414:98|388:160,1,120,2|0,0:0|0:0,0:0:0:0:
414,182,35122,2,0,P|372:188|354:257,1,120
377,282,35662,6,0,B|315:261|261:325|201:297,1,180,0|0,3:0|0:0,0:0:0:0:
127,357,36563,1,0,0:0:0:0:
127,357,36743,2,0,P|93:307|108:250,1,120,2|0,0:0|0:0,0:0:0:0:
97,217,37284,1,0,0:0:0:0:
195,172,37644,5,0,0:0:0:0:
195,172,37824,2,0,P|193:116|136:72,1,120,0|0,3:0|0:0,0:0:0:0:
154,39,38365,2,0,P|76:40|42:90,1,120
14,70,38905,1,2,0:0:0:0:
57,175,39266,1,0,0:0:0:0:
57,175,39446,2,0,B|102:199|132:161|187:188,1,120
198,210,39986,5,0,3:0:0:0:
280,139,40347,1,0,0:0:0:0:
280,139,40527,2,0,P|284:95|264:16,1,120
236,3,41068,1,2,0:0:0:0:
144,57,41428,1,0,0:0:0:0:
144,57,41608,1,4,0:0:0:0:
172,166,41968,1,0,0:0:0:0:
172,166,42148,1,0,1:0:0:0:
172,166,42689,6,0,P|211:182|237:239,1,96,2|0,0:0|0:0,0:0:0:0:
247,315,43230,6,0,P|300:285|324:231,1,120,6|0,3:2|0:0,0:0:0:0:
393,314,43770,6,0,P|411:275|398:178,1,143.999995605469,6|0,3:2|0:0,0:0:0:0:
503,273,44311,6,0,P|503:200|395:67,1,251.999992309571,4|0,3:1|0:0,0:0:0:0:
265,161,45212,5,0,0:0:0:0:
265,161,45392,2,0,P|303:139|298:63,1,120,2|0,0:0|0:0,0:0:0:0:
304,33,45932,1,0,0:0:0:0:
189,19,46293,5,0,0:0:0:0:
189,19,46473,2,0,B|141:32|133:64|81:65,1,120,0|0,3:0|0:0,0:0:0:0:
49,46,47013,2,0,P|62:117|49:170,1,120
33,194,47554,1,2,0:0:0:0:
123,240,47914,1,0,0:0:0:0:
122,240,48095,2,0,P|111:300|134:361,1,120
156,379,48635,6,0,B|218:341|259:391|335:374,1,180,0|0,3:0|0:0,0:0:0:0:
387,282,49536,1,0,0:0:0:0:
387,282,49716,2,0,P|336:272|266:276,1,120,2|0,0:0|0:0,0:0:0:0:
238,279,50257,1,0,0:0:0:0:
293,188,50617,5,0,0:0:0:0:
293,188,50797,2,0,P|365:176|414:218,1,120,0|0,3:0|0:0,0:0:0:0:
444,197,51338,2,0,P|473:151|439:95,1,120
420,72,51878,1,2,0:0:0:0:
312,30,52239,1,0,0:0:0:0:
312,30,52419,2,0,P|266:54|269:116,1,120
293,142,52959,6,0,B|214:119|181:175|101:141,1,180,0|4,3:0|0:0,0:0:0:0:
126,257,53860,1,0,0:0:0:0:
126,257,54040,2,0,B|79:201|27:245|-6:135,1,180,2|0,0:0|0:0,0:0:0:0:
69,47,54941,5,0,3:0:0:0:
69,47,55122,2,0,P|128:49|150:126,1,143.999995605469,8|8,3:0|3:0,0:0:0:0:
191,115,55662,2,0,P|192:168|125:221,1,143.999995605469,4|4,3:0|3:0,0:0:0:0:
82,228,56203,1,4,3:0:0:0:
51,258,56383,1,4,3:0:0:0:
42,300,56563,1,4,3:0:0:0:
51,342,56743,2,0,P|106:316|173:370,1,143.999995605469,4|4,3:0|3:0,3:0:0:0:
165,384,57284,6,0,B|208:351|262:390|310:355,1,143.999995605469,4|0,3:2|0:0,0:0:0:0:
325,331,57824,1,0,3:0:0:0:
278,231,58185,1,0,0:0:0:0:
278,231,58365,2,0,P|207:231|130:223,1,143.999995605469,2|0,3:2|0:0,0:0:0:0:
96,256,58905,2,0,P|113:194|76:126,1,143.999995605469,0|0,3:0|0:0,0:0:0:0:
45,110,59446,5,0,3:0:0:0:
121,25,59806,1,0,0:0:0:0:
121,25,59986,2,0,P|184:39|270:43,1,143.999995605469,0|0,3:0|0:0,0:0:0:0:
290,78,60527,6,0,P|237:77|209:156,1,143.999995605469,2|0,3:2|0:0,0:0:0:0:
252,177,61068,2,0,P|201:162|165:240,1,143.999995605469,0|0,3:0|0:0,0:0:0:0:
181,260,61608,5,0,3:0:0:0:
289,303,61968,1,0,0:0:0:0:
289,303,62149,2,0,B|316:244|354:265|383:179,1,143.999995605469,0|0,3:0|0:0,0:0:0:0:
399,163,62689,2,0,P|329:162|315:76,1,143.999995605469,2|0,3:2|0:0,0:0:0:0:
327,73,63230,1,0,3:0:0:0:
425,30,63590,5,0,0:0:0:0:
425,30,63770,1,0,3:0:0:0:
506,137,64131,1,0,0:0:0:0:
506,137,64311,1,0,3:0:0:0:
404,215,64671,1,0,0:0:0:0:
404,215,64851,1,2,3:2:0:0:
478,327,65212,1,0,0:0:0:0:
478,327,65392,2,0,P|406:310|386:368,1,143.999995605469,4|0,3:2|0:0,0:0:0:0:
405,384,65932,6,0,B|336:338|256:410|186:350,1,215.999993408203,0|0,3:0|3:0,0:0:0:0:
242,251,66833,1,0,0:0:0:0:
242,251,67013,2,0,P|315:241|382:208,1,143.999995605469,2|0,3:2|0:0,0:0:0:0:
377,175,67554,2,0,P|349:110|281:118,1,143.999995605469,0|0,3:0|0:0,0:0:0:0:
282,151,68095,6,0,B|397:134|376:97|484:82,2,215.999993408203,0|0|2,3:0|3:0|3:2,0:0:0:0:
223,45,69536,1,0,0:0:0:0:
223,45,69716,2,0,P|148:48|114:112,1,143.999995605469,0|0,3:0|0:0,0:0:0:0:
133,141,70257,6,0,P|89:116|64:196,1,143.999995605469,0|0,3:0|0:0,0:0:0:0:
86,211,70797,1,0,3:0:0:0:
222,156,71158,1,0,0:0:0:0:
222,156,71338,2,0,B|294:205|254:261|345:329,1,215.999993408203,2|0,3:2|0:0,0:0:0:0:
449,240,72239,5,0,0:0:0:0:
449,240,72419,2,0,P|395:245|372:170,1,143.999995605469,0|8,3:0|3:0,0:0:0:0:
401,150,72959,1,0,3:0:0:0:
336,55,73320,5,8,3:0:0:0:
326,74,73500,1,0,3:0:0:0:
226,69,73860,5,8,3:0:0:0:
229,83,74040,1,4,3:0:0:0:
152,122,74401,5,0,3:0:0:0:
158,126,74581,1,4,3:2:0:0:
188,134,83230,6,0,P|110:119|90:202,2,180,4|0|2,3:2|0:0|0:0,0:0:0:0:
203,256,84671,1,0,0:0:0:0:
203,256,84851,2,0,P|145:288|94:311,1,120
111,335,85392,2,0,P|182:343|211:391,1,120,0|0,3:0|0:0,0:0:0:0:
238,384,85932,1,0,0:0:0:0:
351,338,86293,5,0,0:0:0:0:
351,338,86473,2,0,P|336:273|300:221,1,120,2|0,0:0|0:0,0:0:0:0:
278,223,87013,2,0,P|324:184|320:130,1,120
301,106,87554,6,0,B|221:111|219:159|130:153,2,180,0|0|2,3:0|0:0|0:0,0:0:0:0:
376,13,88995,1,0,0:0:0:0:
376,13,89176,2,0,P|411:51|484:71,1,120
510,67,89716,6,0,P|449:135|452:226,1,180,0|0,3:0|0:0,0:0:0:0:
396,301,90617,1,0,0:0:0:0:
396,301,90797,2,0,P|343:268|289:298,1,120,2|0,0:0|0:0,0:0:0:0:
282,262,91338,2,0,P|238:311|244:367,1,120
220,383,91878,6,0,P|208:295|184:197,1,180,0|0,3:0|0:0,0:0:0:0:
101,252,92779,1,0,0:0:0:0:
101,252,92959,2,0,P|81:179|42:169,1,120,2|0,0:0|0:0,0:0:0:0:
16,162,93500,2,0,P|70:132|122:91,1,120
111,67,94040,6,0,P|190:110|276:143,2,180,0|0|2,3:0|0:0|0:0,0:0:0:0:
258,0,95662,1,0,0:0:0:0:
328,73,96022,5,0,0:0:0:0:
328,73,96203,2,0,P|289:114|305:176,1,120,0|0,3:0|0:0,0:0:0:0:
326,188,96743,1,0,0:0:0:0:
436,170,97104,1,0,0:0:0:0:
436,170,97284,2,0,P|463:224|422:291,1,120,2|0,0:0|0:0,0:0:0:0:
448,306,97824,2,0,P|387:334|333:302,1,120
336,284,98365,1,0,3:0:0:0:
234,348,98725,5,8,3:0:0:0:
234,348,98905,2,0,P|192:281|139:289,1,120,0|8,3:0|3:0,0:0:0:0:
180,244,99446,2,0,P|261:199|297:164,1,120,0|8,3:0|3:0,0:0:0:0:
358,198,99986,6,0,P|340:130|280:39,1,143.999995605469,4|0,3:0|0:0,0:0:0:0:
272,49,100527,1,4,3:2:0:0:
272,49,101068,6,0,P|209:70|136:85,1,120
144,109,101608,1,2,0:0:0:0:
44,83,101968,1,0,0:0:0:0:
44,83,102149,2,0,P|17:142|43:217,1,120
63,198,102689,6,0,P|16:268|40:364,1,180,0|0,3:0|0:0,0:0:0:0:
125,318,103590,1,0,0:0:0:0:
125,318,103770,2,0,B|178:314|186:340|245:336,1,120,2|0,0:0|0:0,0:0:0:0:
256,363,104311,2,0,P|258:292|294:254,1,120
318,252,104851,6,0,P|281:191|167:199,2,180,0|0|2,3:0|0:0|0:0,0:0:0:0:
396,316,106293,1,0,0:0:0:0:
396,316,106473,2,0,P|449:271|486:222,1,120
510,230,107013,6,0,P|478:150|437:147,1,120,0|0,3:0|0:0,0:0:0:0:
432,124,107554,1,0,0:0:0:0:
340,200,107914,1,0,0:0:0:0:
340,200,108095,2,0,P|294:168|293:97,1,120,2|0,0:0|0:0,0:0:0:0:
311,89,108635,2,0,P|251:65|183:26,1,120
175,51,109176,6,0,P|82:69|52:142,1,180,0|0,3:0|0:0,0:0:0:0:
123,224,110077,1,0,0:0:0:0:
123,224,110257,2,0,P|119:272|45:300,1,120,2|0,0:0|0:0,0:0:0:0:
37,322,110797,2,0,P|93:326|167:346,1,120
173,373,111338,6,0,P|229:342|279:255,1,120,0|0,3:0|0:0,0:0:0:0:
272,264,111878,1,0,0:0:0:0:
208,183,112239,1,0,0:0:0:0:
208,183,112419,2,0,P|208:111|259:78,1,120,2|0,0:0|0:0,0:0:0:0:
243,53,112959,2,0,P|304:43|351:82,1,120
377,70,113500,5,0,3:0:0:0:
336,173,113860,1,0,0:0:0:0:
336,173,114040,2,0,B|383:212|453:210,1,120
477,205,114581,1,2,0:0:0:0:
506,314,114941,1,0,0:0:0:0:
506,314,115122,1,4,0:0:0:0:
417,374,115482,1,0,0:0:0:0:
417,374,115662,1,0,1:0:0:0:
417,374,116203,6,0,P|391:316|356:293,1,96,2|0,0:0|0:0,0:0:0:0:
409,231,116743,6,0,P|358:242|295:214,1,120,6|0,3:2|0:0,0:0:0:0:
257,287,117284,6,0,P|204:239|191:168,1,143.999995605469,6|0,3:2|0:0,0:0:0:0:
109,191,117824,6,0,P|118:109|255:24,1,251.999992309571,4|0,3:1|0:0,0:0:0:0:
375,121,118725,5,0,0:0:0:0:
375,121,118905,2,0,P|321:121|294:183,1,120,2|0,0:0|0:0,0:0:0:0:
306,201,119446,1,0,0:0:0:0:
400,252,119806,5,0,0:0:0:0:
400,252,119986,2,0,B|358:339|325:305|275:387,2,180,0|0|2,3:0|0:0|0:0,0:0:0:0:
466,359,121428,1,0,0:0:0:0:
466,359,121608,2,0,P|442:325|361:338,1,120
347,357,122149,6,0,P|282:331|191:262,1,180,0|0,3:0|0:0,0:0:0:0:
106,326,123049,1,0,0:0:0:0:
106,326,123230,2,0,P|78:261|17:249,1,120,2|0,0:0|0:0,0:0:0:0:
14,225,123770,1,0,0:0:0:0:
66,145,124131,5,0,0:0:0:0:
66,145,124311,2,0,P|129:126|243:65,1,180,0|0,3:0|0:0,0:0:0:0:
315,150,125212,1,0,0:0:0:0:
315,150,125392,2,0,P|363:112|352:43,1,120,2|0,0:0|0:0,0:0:0:0:
344,26,125932,2,0,P|403:53|468:77,1,120
490,66,126473,1,0,3:0:0:0:
512,176,126833,5,0,0:0:0:0:
512,176,127013,2,0,P|452:189|431:245,1,120,4|0,0:0|0:0,0:0:0:0:
438,274,127554,1,2,0:0:0:0:
378,349,127914,1,0,0:0:0:0:
378,349,128095,2,0,B|349:301|313:318|276:266,1,120
250,266,128635,6,0,P|294:225|278:147,1,143.999995605469,8|8,3:0|3:0,0:0:0:0:
316,144,129176,2,0,P|273:100|190:109,1,143.999995605469,4|4,3:0|3:0,0:0:0:0:
171,141,129716,1,4,3:0:0:0:
134,164,129896,1,4,3:0:0:0:
90,165,130077,1,4,3:0:0:0:
56,137,130257,2,0,P|56:78|128:52,1,143.999995605469,4|4,3:0|3:0,0:0:0:0:
134,24,130797,6,0,B|191:16|221:49|282:35,1,143.999995605469,4|0,3:2|0:0,0:0:0:0:
308,17,131338,1,0,3:0:0:0:
423,47,131698,1,0,0:0:0:0:
423,47,131878,2,0,P|399:103|318:137,1,143.999995605469,2|0,3:2|0:0,0:0:0:0:
292,128,132419,2,0,P|278:213|287:277,1,143.999995605469,0|0,3:0|0:0,0:0:0:0:
300,303,132959,5,0,3:0:0:0:
416,333,133320,1,0,0:0:0:0:
416,333,133500,2,0,P|414:276|486:247,1,143.999995605469,0|0,3:0|0:0,0:0:0:0:
512,222,134040,1,2,3:2:0:0:
433,138,134401,1,0,0:0:0:0:
433,138,134581,2,0,P|361:156|265:171,1,143.999995605469,0|0,3:0|0:0,0:0:0:0:
267,203,135122,6,0,P|244:127|179:109,1,143.999995605469,0|0,3:0|0:0,0:0:0:0:
165,80,135662,1,0,3:0:0:0:
62,127,136022,1,0,0:0:0:0:
62,127,136203,2,0,P|57:205|59:294,1,143.999995605469,2|0,3:2|0:0,0:0:0:0:
37,300,136743,1,0,3:0:0:0:
131,375,137104,5,0,0:0:0:0:
131,375,137284,1,0,3:0:0:0:
220,281,137644,1,0,0:0:0:0:
220,281,137824,1,0,3:0:0:0:
331,356,138185,1,0,0:0:0:0:
331,356,138365,1,2,3:2:0:0:
425,267,138725,1,0,0:0:0:0:
425,267,138905,2,0,P|364:228|382:163,1,143.999995605469,4|0,3:2|0:0,0:0:0:0:
414,172,139446,6,0,P|337:166|197:143,2,215.999993408203,0|0|2,3:0|3:0|3:2,0:0:0:0:
478,78,140887,1,0,0:0:0:0:
478,78,141068,2,0,P|458:26|377:31,1,143.999995605469,0|0,3:0|0:0,0:0:0:0:
370,63,141608,2,0,P|284:48|211:23,1,143.999995605469,0|0,3:0|0:0,0:0:0:0:
209,1,142149,1,0,3:0:0:0:
124,79,142509,5,0,0:0:0:0:
124,79,142689,2,0,P|50:98|35:161,1,143.999995605469,2|0,3:2|0:0,0:0:0:0:
55,186,143230,2,0,B|131:173|117:221|195:195,1,143.999995605469,0|0,3:0|0:0,0:0:0:0:
222,219,143770,6,0,P|169:255|166:340,1,143.999995605469,0|0,3:0|0:0,0:0:0:0:
184,358,144311,1,0,3:0:0:0:
322,310,144671,1,0,0:0:0:0:
322,310,144851,2,0,B|344:214|301:183|332:87,1,215.999993408203,2|0,3:2|3:0,0:0:0:0:
453,165,145752,5,0,0:0:0:0:
453,165,145932,2,0,P|386:163|377:237,1,143.999995605469,0|8,3:0|3:0,0:0:0:0:
398,252,146473,1,0,3:0:0:0:
360,360,146833,5,8,3:0:0:0:
341,370,147013,1,0,3:0:0:0:
251,324,147374,5,8,3:0:0:0:
241,314,147554,1,4,3:0:0:0:
216,232,147914,5,0,3:0:0:0:
219,227,148095,1,4,3:2:0:0:
66,322,148635,6,0,B|44:250|86:212|62:143,2,180,0|2|0,0:0|0:0|0:0,0:0:0:0:
111,219,150077,1,0,0:0:0:0:
111,219,150257,2,0,B|108:132|75:120|97:38,1,180,0|0,3:0|0:0,0:0:0:0:
263,109,151338,2,0,P|213:111|200:174,1,120,2|0,0:0|0:0,0:0:0:0:
254,225,151878,2,0,P|309:218|318:163,1,120
357,95,152419,6,0,P|332:181|315:269,1,180,0|0,3:0|0:0,0:0:0:0:
215,335,153320,1,0,0:0:0:0:
215,335,153500,2,0,P|272:292|323:345,1,120,2|0,0:0|0:0,0:0:0:0:
339,340,154040,6,0,P|370:338|395:307,2,60
435,305,154581,2,0,P|442:274|420:241,2,60,0|0|0,3:0|0:0|0:0,0:0:0:0:
442,203,155122,2,0,P|376:189|321:169,1,120
290,151,155662,1,2,0:0:0:0:
303,35,156022,1,0,0:0:0:0:
303,35,156203,1,0,0:0:0:0:
188,25,156563,5,0,0:0:0:0:
188,25,156743,2,0,B|106:11|106:77|17:58,1,180,0|0,3:0|0:0,0:0:0:0:
75,169,157644,1,0,0:0:0:0:
75,169,157824,2,0,P|101:162|139:157,2,60,2|0|0,0:0|0:0|0:0,0:0:0:0:
110,193,158365,2,0,P|56:221|57:286,1,120
81,304,158905,6,0,B|150:278|187:350|256:293,1,180,0|0,3:0|0:0,0:0:0:0:
291,183,159806,1,0,0:0:0:0:
291,183,159986,2,0,P|262:125|208:119,1,120,2|0,0:0|0:0,0:0:0:0:
177,92,160527,2,0,P|250:78|305:62,1,120
313,28,161068,6,0,P|395:26|435:115,1,180,0|4,3:0|0:0,0:0:0:0:
363,200,161968,1,0,0:0:0:0:
363,200,162149,2,0,P|308:185|230:177,1,120,2|0,0:0|0:0,0:0:0:0:
215,206,162689,1,0,0:0:0:0:
197,328,163049,1,0,0:0:0:0:
197,328,163230,6,0,P|270:348|325:295,1,143.999995605469,8|8,3:0|3:0,0:0:0:0:
352,335,163770,2,0,P|392:281|373:200,1,143.999995605469,4|4,3:0|3:0,0:0:0:0:
369,166,164311,1,4,3:0:0:0:
330,145,164491,1,4,3:0:0:0:
286,147,164671,1,4,3:0:0:0:
250,171,164851,2,0,P|194:159|220:76,1,143.999995605469,4|4,3:0|3:0,0:0:0:0:
199,64,165392,6,0,P|118:97|31:113,1,143.999995605469,4|0,3:2|0:0,0:0:0:0:
26,143,165932,2,0,P|102:153|117:227,1,143.999995605469,0|0,3:0|0:0,0:0:0:0:
115,245,166473,1,2,3:2:0:0:
68,352,166833,1,0,0:0:0:0:
68,352,167013,2,0,B|122:323|153:360|219:319,1,143.999995605469,0|0,3:0|0:0,0:0:0:0:
237,346,167554,6,0,P|235:266|221:197,1,143.999995605469,0|0,3:0|0:0,0:0:0:0:
190,187,168095,1,0,3:0:0:0:
266,100,168455,1,0,0:0:0:0:
266,100,168635,2,0,P|269:41|355:26,1,143.999995605469,2|0,3:2|0:0,0:0:0:0:
374,1,169176,2,0,P|399:63|386:150,1,143.999995605469,0|0,3:0|0:0,0:0:0:0:
376,171,169716,5,0,3:0:0:0:
474,242,170077,1,0,0:0:0:0:
474,242,170257,2,0,P|416:255|407:335,1,143.999995605469,0|0,3:0|0:0,0:0:0:0:
431,354,170797,1,2,3:2:0:0:
337,384,171158,1,0,0:0:0:0:
337,384,171338,2,0,B|303:316|252:374|221:293,1,143.999995605469,0|0,3:0|0:0,0:0:0:0:
202,277,171878,1,0,3:0:0:0:
290,202,172239,5,0,0:0:0:0:
290,202,172419,1,0,3:0:0:0:
183,138,172779,1,0,0:0:0:0:
183,138,172959,1,2,3:2:0:0:
280,51,173320,1,0,0:0:0:0:
280,51,173500,1,0,3:0:0:0:
164,3,173860,5,0,0:0:0:0:
164,3,174040,2,0,P|95:63|-15:138,2,215.999993408203,0|0|2,3:0|3:0|3:2,0:0:0:0:
183,138,175482,1,0,0:0:0:0:
183,138,175662,2,0,P|111:110|68:159,1,143.999995605469,0|0,3:0|0:0,0:0:0:0:
68,188,176203,6,0,B|171:193|157:268|266:270,1,215.999993408203,0|0,3:0|3:0,0:0:0:0:
235,384,177104,1,0,0:0:0:0:
235,384,177284,2,0,P|304:348|375:369,1,143.999995605469,2|0,3:2|0:0,0:0:0:0:
394,384,177824,2,0,P|454:339|494:284,1,143.999995605469,0|0,3:0|0:0,0:0:0:0:
509,250,178365,6,0,P|476:190|417:247,1,143.999995605469,0|0,3:0|0:0,0:0:0:0:
420,253,178905,1,0,3:0:0:0:
293,195,179266,1,0,0:0:0:0:
293,195,179446,2,0,P|343:111|389:-6,1,215.999993408203,2|0,3:2|0:0,0:0:0:0:
269,49,180347,5,0,0:0:0:0:
269,49,180527,2,0,P|213:16|165:70,1,143.999995605469,0|8,3:0|3:0,0:0:0:0:
176,100,181068,1,0,3:0:0:0:
68,134,181428,1,8,3:0:0:0:
68,134,181608,1,0,3:0:0:0:
144,226,181968,1,8,3:0:0:0:
144,226,182149,1,4,3:0:0:0:
48,287,182509,5,0,3:0:0:0:
48,287,182689,2,0,P|113:303|144:377,1,143.999995605469,4|0,3:2|0:0,0:0:0:0:
177,383,183230,1,0,3:0:0:0:
256,300,183590,5,0,0:0:0:0:
256,300,183770,2,0,P|258:218|207:175,1,143.999995605469,2|0,3:2|0:0,0:0:0:0:
180,182,184311,2,0,P|211:107|226:23,1,143.999995605469,0|0,3:0|0:0,0:0:0:0:
230,10,184851,1,0,3:0:0:0:
332,75,185212,5,0,0:0:0:0:
332,75,185392,2,0,P|366:20|453:24,1,143.999995605469,0|0,3:0|0:0,0:0:0:0:
472,0,185932,2,0,P|484:63|448:144,1,143.999995605469,2|0,3:2|0:0,0:0:0:0:
464,178,186473,2,0,P|408:142|340:176,1,143.999995605469,0|0,3:0|0:0,0:0:0:0:
331,213,187013,5,0,3:0:0:0:
431,271,187374,1,0,0:0:0:0:
431,271,187554,2,0,P|387:338|309:321,1,143.999995605469,0|0,3:0|0:0,0:0:0:0:
308,374,188095,2,0,P|269:296|221:241,1,143.999995605469,2|0,3:2|0:0,0:0:0:0:
204,231,188635,1,0,3:0:0:0:
272,140,188995,5,0,0:0:0:0:
272,140,189176,1,0,3:0:0:0:
391,201,189536,1,0,0:0:0:0:
391,201,189716,1,0,3:0:0:0:
459,92,190077,1,0,0:0:0:0:
459,92,190257,1,2,3:2:0:0:
346,39,190617,1,0,0:0:0:0:
346,39,190797,1,0,3:0:0:0:
272,140,191158,5,0,0:0:0:0:
272,140,191338,2,0,B|189:103|150:188|61:139,2,215.999993408203,0|0|2,3:0|3:0|3:2,0:0:0:0:
234,251,192779,1,0,0:0:0:0:
234,251,192959,2,0,P|157:276|146:341,1,143.999995605469,0|0,3:0|0:0,0:0:0:0:
174,363,193500,6,0,B|271:346|289:390|403:355,1,215.999993408203,0|0,3:0|3:0,0:0:0:0:
451,263,194401,1,0,0:0:0:0:
451,263,194581,2,0,P|375:251|363:193,1,143.999995605469,2|0,3:2|0:0,0:0:0:0:
333,174,195122,2,0,P|399:137|456:69,1,143.999995605469,0|0,3:0|0:0,0:0:0:0:
444,51,195662,6,0,P|384:12|368:67,1,143.999995605469,0|0,3:0|0:0,0:0:0:0:
337,85,196203,1,0,3:0:0:0:
212,14,196563,1,0,0:0:0:0:
212,14,196743,2,0,P|149:82|42:158,1,215.999993408203,2|0,3:2|3:0,0:0:0:0:
142,231,197644,5,0,0:0:0:0:
142,231,197824,2,0,P|88:263|81:352,1,143.999995605469,0|0,3:0|0:0,0:0:0:0:
96,368,198365,1,0,3:0:0:0:
213,301,198725,1,0,0:0:0:0:
213,301,198905,2,0,P|271:304|361:291,1,143.999995605469,2|0,3:2|0:0,0:0:0:0:
385,315,199446,1,0,3:0:0:0:
474,243,199806,5,0,0:0:0:0:
474,243,199986,2,0,P|436:181|379:181,1,120,0|0,3:0|0:0,0:0:0:0:
363,194,200527,2,0,P|374:138|333:97,1,120
297,98,201068,1,2,0:0:0:0:
212,167,201428,1,0,3:0:0:0:
212,167,201608,1,0,3:0:0:0:
265,266,201968,1,0,0:0:0:0:
265,266,202149,6,0,P|195:260|178:327,1,143.999995605469,0|8,3:0|3:0,0:0:0:0:
160,367,202689,1,0,3:0:0:0:
54,322,203049,5,8,3:0:0:0:
65,303,203230,1,0,3:0:0:0:
49,204,203590,5,8,3:0:0:0:
63,202,203770,1,4,3:0:0:0:
104,125,204131,5,0,3:0:0:0:
110,129,204311,1,4,3:2:0:0:
