osu file format v14

[General]
AudioFilename: audio.mp3
AudioLeadIn: 0
PreviewTime: 129943
Countdown: 0
SampleSet: Soft
StackLeniency: 0.5
Mode: 0
LetterboxInBreaks: 0
WidescreenStoryboard: 1

[Editor]
Bookmarks: 8228,20777,33326,45875,55286,61561,89796,102345,114894,124306,130580,152541,177639,205875,224502
DistanceSpacing: 1.1
BeatDivisor: 4
GridSize: 32
TimelineZoom: 1.7

[Metadata]
Title:Zutto
TitleUnicode:ずっと
Artist:Hazuki
ArtistUnicode:葉月
Creator:Iceluin
Version:Normal
Source:RIDDLE JOKER
Tags:リドルジョーカー visual novel vn eroge arihara nanami japanese pop j-pop jpop ending ed yuzusoft ゆずソフト video game 在原 七海 在原七海 little sister imouto siscon ギャルゲー galgame エロゲー
BeatmapID:4073784
BeatmapSetID:1964088

[Difficulty]
HPDrainRate:4
CircleSize:3
OverallDifficulty:4
ApproachRate:5
SliderMultiplier:1
SliderTickRate:1

[Events]
//Background and Video events
0,0,"bg.jpg",0,0
//Break Periods
//Storyboard Layer 0 (Background)
//Storyboard Layer 1 (Fail)
//Storyboard Layer 2 (Pass)
//Storyboard Layer 3 (Foreground)
//Storyboard Layer 4 (Overlay)
//Storyboard Sound Samples

[TimingPoints]
385,392.156862745098,4,2,1,60,1,0
8228,392.156862745098,4,2,1,75,1,0
8228,-100,4,2,1,75,0,0
20777,-111.111111111111,4,2,1,50,0,0
33326,-99.9999999999999,4,2,1,70,0,0
45875,-111.111111111111,4,2,1,60,0,0
55286,392.156862745098,4,2,1,70,1,0
55286,-100,4,2,1,70,0,0
61560,-90.9090909090909,4,2,1,85,0,1
89795,392.156862745098,4,2,1,50,1,0
89795,-111.111111111111,4,2,1,50,0,0
102344,-100,4,2,1,70,0,0
114893,-111.111111111111,4,2,1,60,0,0
124304,392.156862745098,4,2,1,70,1,0
124304,-100,4,2,1,70,0,0
130578,-90.9090909090909,4,2,1,85,0,1
152539,392.156862745098,4,2,1,75,1,0
152539,-100,4,2,1,75,0,0
177048,-100,4,2,1,60,0,0
177637,-90.9090909090909,4,2,1,85,0,1
205872,392.156862745098,4,2,1,75,1,0
205872,-100,4,2,1,75,0,0
218421,-125,4,2,1,75,0,0
218470,-125,4,2,1,5,0,0
224499,-125,4,2,1,15,0,0

[Colours]
Combo1 : 210,210,210
Combo2 : 255,255,128
Combo3 : 255,128,128

[HitObjects]
160,64,7836,5,12,0:2:0:0:
96,141,8228,6,0,P|82:187|110:227,1,100,6|10,1:2|0:0,0:0:0:0:
153,262,8816,1,2,0:0:0:0:
153,262,9012,2,0,L|202:253,2,50,2|2|10,1:2|0:0|0:0,0:0:0:0:
133,307,9600,1,2,1:2:0:0:
215,363,9992,2,0,P|242:358|264:354,1,50,2|8,1:2|0:0,0:0:0:0:
306,381,10384,2,0,P|355:372|404:363,1,100,2|0,0:0|1:0,0:0:0:0:
439,328,10973,1,8,0:0:0:0:
498,247,11365,6,0,P|510:200|483:160,1,100,2|10,1:2|0:0,0:0:0:0:
443,129,11953,2,0,P|396:116|356:143,1,100,2|2,0:0|0:0,0:0:0:0:
341,193,12541,1,8,0:0:0:0:
341,193,12737,1,2,1:2:0:0:
256,139,13129,2,0,L|206:147,1,50,2|8,1:2|0:0,0:0:0:0:
173,186,13522,2,0,P|125:194|74:202,1,100,2|2,0:0|1:2,0:0:0:0:
31,176,14110,1,8,0:0:0:0:
56,79,14502,6,0,P|104:71|154:62,1,100,6|10,1:2|0:0,0:0:0:0:
198,98,15090,1,2,0:0:0:0:
198,98,15286,2,0,L|206:147,2,50,2|2|10,1:2|0:0|0:0,0:0:0:0:
239,69,15875,1,2,1:2:0:0:
315,4,16267,2,0,P|338:-1|358:13,1,50,2|8,1:2|0:0,0:0:0:0:
398,42,16659,2,0,P|389:91|380:140,1,100,2|0,0:0|1:0,0:0:0:0:
409,180,17248,1,8,0:0:0:0:
481,247,17639,6,0,P|493:294|465:333,1,100,6|10,1:2|0:0,0:0:0:0:
428,368,18228,2,0,P|378:360|329:352,1,100,6|10,1:2|0:0,0:0:0:0:
309,306,18816,2,0,B|210:286|152:276|152:276|100:319,1,200,6|8,1:2|0:0,0:0:0:0:
47,243,19992,1,6,0:0:0:0:
47,243,20188,1,6,0:0:0:0:
81,98,20777,5,4,1:2:0:0:
161,40,21169,2,0,P|203:29|239:53,1,89.9999972534181,2|2,1:2|1:2,0:0:0:0:
301,137,21953,1,2,1:2:0:0:
301,137,22149,2,0,P|289:203|278:270,1,134.999995880127,2|2,0:0|1:2,0:0:0:0:
272,319,22933,2,0,B|330:358|384:309|373:295|427:245|474:280,1,224.999993133545,2|0,0:0|1:0,0:0:0:0:
510,188,24306,6,0,P|473:163|431:174,1,89.9999972534181,2|2,1:2|1:2,0:0:0:0:
369,105,25090,1,2,1:2:0:0:
369,105,25286,2,0,P|303:117|236:128,1,134.999995880127,2|2,0:0|1:2,0:0:0:0:
191,105,26071,2,0,B|132:85|109:30|109:30|110:90|64:131,1,224.999993133545,2|0,0:0|1:0,0:0:0:0:
15,213,27443,5,2,1:2:0:0:
100,261,27835,2,0,P|91:303|84:349,1,89.9999972534181,2|2,1:2|1:2,0:0:0:0:
123,380,28424,2,0,P|189:367|259:356,1,134.999995880127,2|2,0:0|1:2,0:0:0:0:
304,348,29208,1,2,0:0:0:0:
380,284,29600,2,0,L|425:293,2,44.999998626709,2|2|2,0:0|1:2|0:0,0:0:0:0:
402,187,30384,2,0,L|447:195,2,44.999998626709,2|2|2,0:0|1:2|0:0,0:0:0:0:
363,101,31169,1,2,0:0:0:0:
363,101,31365,1,2,1:2:0:0:
265,84,31757,6,0,P|245:94|242:116,1,44.999998626709,6|8,1:2|0:0,0:0:0:0:
266,160,32149,2,0,P|274:204|281:248,1,89.9999972534181,8|8,0:0|0:0,0:0:0:0:
273,347,32933,1,8,0:0:0:0:
173,353,33326,6,0,P|124:344|74:335,1,100,4|10,1:2|0:0,0:0:0:0:
95,237,34110,2,0,L|144:245,2,50,2|2|10,1:2|0:0|0:0,0:0:0:0:
59,202,34698,2,0,P|46:157|79:117,1,100,2|0,0:0|0:0,0:0:0:0:
122,98,35286,1,10,0:0:0:0:
209,50,35678,2,0,L|258:58,1,50,0|0,1:0|1:0,0:0:0:0:
307,69,36071,1,8,0:0:0:0:
367,148,36463,6,0,P|357:197|348:246,1,100,0|10,1:0|0:0,0:0:0:0:
420,315,37247,2,0,B|411:364,2,50,2|2|10,1:2|0:0|0:0,0:0:0:0:
467,298,37835,2,0,P|494:257|475:208,1,100,2|0,0:0|0:0,0:0:0:0:
454,168,38424,1,10,0:0:0:0:
397,85,38816,2,0,L|347:93,1,50,0|0,1:0|1:0,0:0:0:0:
298,103,39208,1,10,0:0:0:0:
228,31,39600,6,0,P|176:40|112:51,1,100,2|10,1:2|0:0,0:0:0:0:
87,20,40188,2,0,P|65:4|41:10,1,50,2|2,0:0|1:2,0:0:0:0:
27,111,40777,1,10,0:0:0:0:
27,111,40973,2,0,L|37:160,1,50,2|0,0:0|1:0,0:0:0:0:
5,257,41561,1,10,0:0:0:0:
5,257,41757,2,0,P|54:247|103:239,1,100,2|2,1:2|1:2,0:0:0:0:
140,205,42345,1,10,0:0:0:0:
140,205,42541,1,2,0:0:0:0:
199,124,42933,6,0,L|189:74,2,50,2|10|2,0:0|0:0|1:2,0:0:0:0:
283,177,43718,2,0,L|332:168,1,50,2|10,1:2|0:0,0:0:0:0:
355,124,44110,2,0,P|395:96|444:116,1,100,6|0,1:2|1:0,0:0:0:0:
476,146,44698,1,8,0:0:0:0:
415,225,45090,1,8,0:0:0:0:
497,281,45482,1,8,0:0:0:0:
436,360,45875,6,0,P|392:351|347:344,1,89.9999972534181,6|8,1:2|0:0,0:0:0:0:
299,332,46463,1,8,1:3:0:0:
242,258,46855,1,8,0:3:0:0:
242,258,47051,2,0,L|249:213,2,44.999998626709,8|4|0,1:3|0:3|1:0,0:0:0:0:
160,311,47835,1,8,0:0:0:0:
160,311,48031,1,8,1:3:0:0:
99,239,48424,1,8,0:3:0:0:
99,239,48620,2,0,L|111:168,1,44.999998626709,0|8,1:0|0:3,0:0:0:0:
82,151,49012,6,0,P|69:109|97:76,1,89.9999972534181,0|8,1:0|0:0,0:0:0:0:
142,56,49600,1,8,1:3:0:0:
219,126,49992,1,8,0:3:0:0:
219,126,50188,2,0,L|211:170,2,44.999998626709,8|4|0,1:3|0:3|1:0,0:0:0:0:
304,73,50973,1,8,0:0:0:0:
304,73,51169,1,8,1:3:0:0:
374,150,51561,1,8,0:3:0:0:
374,150,51757,2,0,L|418:142,1,44.999998626709,0|8,1:0|0:3,0:0:0:0:
467,138,52149,6,0,P|460:183|451:226,1,89.9999972534181,0|8,1:0|0:0,0:0:0:0:
439,274,52737,1,8,1:3:0:0:
358,328,53129,1,8,0:3:0:0:
358,328,53326,2,0,L|349:372,2,44.999998626709,8|4|0,1:3|0:3|1:0,0:0:0:0:
295,250,54110,1,8,0:0:0:0:
295,250,54306,1,8,1:3:0:0:
212,301,54698,1,8,0:3:0:0:
212,301,54894,2,0,L|167:293,1,44.999998626709,0|8,1:0|0:0,0:0:0:0:
132,328,55286,6,0,P|82:319|33:312,1,100,6|10,1:2|0:0,0:0:0:0:
52,213,56070,2,0,L|101:221,1,50,2|0,1:2|1:0,0:0:0:0:
145,198,56462,1,10,0:0:0:0:
218,130,56854,2,0,P|209:80|200:31,1,100,0|10,1:0|0:0,0:0:0:0:
300,14,57638,2,0,L|308:63,1,50,2|0,1:2|1:0,0:0:0:0:
319,109,58031,1,10,0:0:0:0:
377,190,58423,6,0,L|426:182,2,50,6|0|0,1:2|1:0|1:0,0:0:0:0:
342,225,59011,2,0,L|349:274,2,50,4|0|0,1:2|1:0|1:0,0:0:0:0:
300,209,59599,1,8,0:0:0:0:
300,209,59795,1,6,1:2:0:0:
224,274,60187,2,0,L|174:265,1,50,0|8,1:0|0:0,0:0:0:0:
141,302,60580,2,0,P|94:315|55:286,1,100,4|2,1:2|1:2,0:0:0:0:
24,246,61168,2,0,L|33:196,1,50,10|8,0:0|0:0,0:0:0:0:
48,149,61560,5,6,1:2:0:0:
0,62,61952,1,10,0:0:0:0:
82,7,62344,2,0,P|135:16|190:26,1,110.000003356934,2|8,1:2|0:0,0:0:0:0:
234,3,62933,2,0,P|259:-4|281:12,1,55.0000016784668,2|0,0:0|1:0,0:0:0:0:
316,54,63325,1,2,0:0:0:0:
316,54,63521,2,0,L|305:107,1,55.0000016784668,10|2,0:0|0:0,0:0:0:0:
268,140,63913,2,0,P|278:194|287:248,1,110.000003356934,2|10,1:2|0:0,0:0:0:0:
228,328,64697,6,0,P|270:359|321:344,1,110.000003356934,2|10,1:2|0:0,0:0:0:0:
359,311,65286,2,0,P|413:320|467:330,1,110.000003356934,2|2,0:0|0:0,0:0:0:0:
510,303,65874,1,8,0:0:0:0:
510,303,66070,2,0,P|501:248|491:194,1,110.000003356934,2|0,0:0|0:0,0:0:0:0:
480,146,66658,1,8,0:0:0:0:
490,47,67050,2,0,L|436:57,1,55.0000016784668,0|2,1:0|1:2,0:0:0:0:
394,29,67442,1,10,0:0:0:0:
333,107,67835,5,2,1:2:0:0:
248,55,68227,1,10,0:0:0:0:
187,133,68619,2,0,P|132:123|78:114,1,110.000003356934,2|8,1:2|0:0,0:0:0:0:
39,145,69207,2,0,L|47:199,1,55.0000016784668,2|0,0:0|1:0,0:0:0:0:
97,223,69599,1,2,0:0:0:0:
97,223,69795,2,0,L|105:277,1,55.0000016784668,10|2,0:0|0:0,0:0:0:0:
115,325,70187,2,0,P|170:314|211:342,1,110.000003356934,2|10,1:2|0:0,0:0:0:0:
291,284,70972,6,0,P|345:293|399:303,1,110.000003356934,6|10,1:2|0:0,0:0:0:0:
432,266,71560,2,0,L|441:211,1,55.0000016784668,2|0,0:0|1:0,0:0:0:0:
412,171,71952,1,2,0:0:0:0:
345,98,72344,2,0,P|293:82|249:112,1,110.000003356934,6|0,1:2|1:0,0:0:0:0:
221,153,72933,1,10,0:0:0:0:
255,244,73325,1,0,1:2:0:0:
181,309,73717,1,8,0:0:0:0:
87,276,74109,6,0,P|76:221|67:167,1,110.000003356934,6|10,1:2|0:0,0:0:0:0:
30,134,74697,2,0,P|19:81|69:43,1,110.000003356934,2|2,0:0|0:0,0:0:0:0:
104,26,75286,1,8,0:0:0:0:
104,26,75482,2,0,P|158:36|212:45,1,110.000003356934,2|2,1:2|1:2,0:0:0:0:
256,22,76070,1,10,0:0:0:0:
335,80,76462,2,0,P|389:70|443:60,1,110.000003356934,2|8,1:2|0:0,0:0:0:0:
464,156,77246,6,0,P|409:165|355:175,1,110.000003356934,2|10,1:2|0:0,0:0:0:0:
329,217,77835,2,0,P|286:248|235:233,1,110.000003356934,2|2,0:0|1:2,0:0:0:0:
201,205,78423,1,8,0:0:0:0:
201,205,78619,2,0,P|191:150|181:96,1,110.000003356934,2|2,1:2|1:2,0:0:0:0:
177,51,79207,1,10,0:0:0:0:
177,51,79403,1,2,1:2:0:0:
82,61,79795,1,0,1:0:0:0:
82,61,79991,2,0,L|91:115,1,55.0000016784668,10|2,0:0|0:0,0:0:0:0:
59,152,80384,6,0,P|43:202|75:245,1,110.000003356934,6|8,1:2|0:0,0:0:0:0:
121,264,80972,2,0,P|175:254|229:246,1,110.000003356934,6|2,1:2|1:2,0:0:0:0:
281,239,81560,1,10,0:0:0:0:
281,239,81756,1,6,1:2:0:0:
388,341,82344,6,0,B|364:308|400:268|410:276|446:237|418:193,1,165.000005035401,6|0,0:0|1:0,0:0:0:0:
381,159,83129,1,8,0:0:0:0:
414,65,83521,6,0,P|362:51|318:82,1,110.000003356934,6|10,1:2|0:0,0:0:0:0:
290,122,84109,2,0,P|235:112|181:103,1,110.000003356934,2|0,0:0|1:0,0:0:0:0:
161,64,84697,1,10,0:0:0:0:
161,64,84893,2,0,P|117:33|65:46,1,110.000003356934,6|0,1:2|1:0,0:0:0:0:
33,84,85482,1,8,0:0:0:0:
97,159,85874,2,0,L|86:213,1,55.0000016784668,0|2,1:0|1:2,0:0:0:0:
79,261,86266,1,8,0:0:0:0:
175,281,86658,6,0,P|183:226|194:172,1,110.000003356934,6|10,1:2|0:0,0:0:0:0:
233,141,87246,2,0,P|287:149|341:160,1,110.000003356934,2|0,0:0|1:0,0:0:0:0:
384,134,87835,1,10,0:0:0:0:
384,134,88031,2,0,P|426:102|477:117,1,110.000003356934,6|0,1:2|1:0,0:0:0:0:
512,153,88619,2,0,L|502:207,1,55.0000016784668,8|0,0:0|1:0,0:0:0:0:
460,233,89011,2,0,L|450:287,1,55.0000016784668,8|0,0:0|1:0,0:0:0:0:
413,319,89403,1,8,0:0:0:0:
321,281,89795,5,4,1:2:0:0:
256,355,90187,2,0,P|213:346|167:339,1,89.9999972534181,2|2,1:2|1:2,0:0:0:0:
78,376,90971,1,10,0:2:0:0:
78,376,91167,1,2,0:0:0:0:
6,307,91559,2,0,L|13:262,1,44.999998626709,0|2,0:0|1:2,0:0:0:0:
24,214,91951,2,0,P|2:152|43:102,1,134.999995880127,2|8,0:0|0:0,0:0:0:0:
123,46,92932,5,0,1:0:0:0:
190,119,93324,2,0,P|234:112|278:105,1,89.9999972534181,2|2,1:2|1:2,0:0:0:0:
303,201,94108,2,0,L|258:208,1,44.999998626709,8|8,0:0|0:0,0:0:0:0:
210,220,94500,1,4,1:2:0:0:
66,180,95089,2,0,P|74:224|79:268,1,89.9999972534181,6|4,1:2|0:3,0:0:0:0:
91,316,95677,1,8,0:0:0:0:
176,365,96069,5,6,1:2:0:0:
252,302,96461,2,0,P|294:293|331:317,1,89.9999972534181,10|2,0:0|1:2,0:0:0:0:
368,350,97049,2,0,L|425:340,1,44.999998626709,2|10,0:0|0:0,0:0:0:0:
461,334,97442,1,2,0:0:0:0:
441,236,97834,2,0,L|396:243,2,44.999998626709,2|10|2,0:0|0:0|0:0,0:0:0:0:
474,199,98422,2,0,L|467:154,1,44.999998626709,0|2,1:0|1:2,0:0:0:0:
430,122,98814,1,10,0:0:0:0:
451,25,99206,6,0,P|408:14|372:38,1,89.9999972534181,6|10,1:2|0:0,0:0:0:0:
344,79,99795,1,2,0:0:0:0:
275,150,100187,2,0,L|282:194,2,44.999998626709,2|10|2,0:0|0:0|0:0,0:0:0:0:
234,120,100775,1,4,1:2:0:0:
166,192,101167,2,0,P|121:183|77:175,1,89.9999972534181,8|0,0:0|1:0,0:0:0:0:
40,207,101755,1,0,1:0:0:0:
40,207,101951,1,8,0:0:0:0:
46,316,102344,6,0,P|95:324|144:333,1,100,4|10,1:2|0:0,0:0:0:0:
236,294,103128,2,0,L|244:245,2,50,2|2|10,1:2|0:0|0:0,0:0:0:0:
260,337,103716,2,0,P|300:365|353:345,1,100,2|0,0:0|0:0,0:0:0:0:
386,323,104304,1,10,0:0:0:0:
466,263,104696,2,0,L|474:214,1,50,0|0,1:0|1:0,0:0:0:0:
481,163,105089,1,8,0:0:0:0:
419,83,105481,6,0,P|369:74|320:66,1,100,0|10,1:0|0:0,0:0:0:0:
238,124,106265,2,0,B|229:173,2,50,2|2|10,1:2|0:0|0:0,0:0:0:0:
209,82,106853,2,0,P|168:55|119:74,1,100,2|0,0:0|0:0,0:0:0:0:
87,105,107442,1,10,0:0:0:0:
25,183,107834,2,0,L|33:233,1,50,0|0,1:0|1:0,0:0:0:0:
41,281,108226,1,10,0:0:0:0:
117,345,108618,6,0,P|166:336|215:327,1,100,6|10,1:2|0:0,0:0:0:0:
237,285,109206,1,2,0:0:0:0:
237,285,109402,2,0,L|299:278,2,50,2|2|10,1:2|0:0|0:0,0:0:0:0:
203,247,109991,2,0,L|193:198,1,50,2|0,0:0|1:0,0:0:0:0:
253,119,110579,1,10,0:0:0:0:
253,119,110775,2,0,P|302:129|351:137,1,100,2|2,0:0|1:2,0:0:0:0:
392,108,111363,1,10,0:0:0:0:
481,152,111755,5,4,1:2:0:0:
435,242,112147,1,10,0:0:0:0:
435,242,112344,2,0,L|451:340,1,100,6|2,1:2|1:2,0:0:0:0:
420,380,112932,1,8,0:0:0:0:
420,380,113128,1,6,1:2:0:0:
335,336,113520,1,0,1:0:0:0:
335,336,113716,2,0,L|274:346,1,50,8|4,0:0|1:2,0:0:0:0:
245,314,114108,2,0,L|184:324,1,50,8|0,0:0|1:0,0:0:0:0:
152,298,114500,1,8,0:0:0:0:
67,350,114893,6,0,P|40:315|52:273,1,89.9999972534181,6|8,1:2|0:0,0:0:0:0:
83,236,115481,1,8,1:3:0:0:
171,188,115873,1,8,0:3:0:0:
171,188,116069,2,0,L|214:197,2,44.999998626709,8|4|0,1:3|0:3|1:0,0:0:0:0:
120,109,116853,1,8,0:0:0:0:
120,109,117049,1,8,1:3:0:0:
205,56,117442,1,8,0:3:0:0:
205,56,117638,2,0,L|276:68,1,44.999998626709,0|8,1:0|0:3,0:0:0:0:
285,29,118030,6,0,P|319:2|361:14,1,89.9999972534181,0|8,1:0|0:0,0:0:0:0:
395,50,118618,1,8,1:3:0:0:
468,124,119010,1,8,0:3:0:0:
468,124,119206,2,0,L|512:116,2,44.999998626709,8|4|0,1:3|0:3|1:0,0:0:0:0:
407,203,119991,1,8,0:0:0:0:
407,203,120187,1,8,1:3:0:0:
324,158,120579,1,8,0:3:0:0:
324,158,120775,2,0,L|279:164,1,44.999998626709,0|8,1:0|0:3,0:0:0:0:
236,139,121167,6,0,P|191:146|148:155,1,89.9999972534181,4|8,1:2|0:0,0:0:0:0:
120,196,121755,1,8,1:3:0:0:
38,149,122147,1,8,0:3:0:0:
38,149,122344,2,0,L|29:105,2,44.999998626709,8|4|0,1:3|0:3|1:0,0:0:0:0:
0,243,123128,1,8,0:0:0:0:
0,243,123324,1,8,1:3:0:0:
87,300,123716,1,8,0:3:0:0:
87,300,123912,2,0,L|95:345,1,44.999998626709,0|8,1:0|0:0,0:0:0:0:
142,372,124304,6,0,P|192:363|241:356,1,100,6|10,1:2|0:0,0:0:0:0:
305,279,125088,2,0,L|354:287,1,50,2|0,1:2|1:0,0:0:0:0:
408,296,125480,1,10,0:0:0:0:
419,196,125872,2,0,P|369:187|320:178,1,100,0|10,1:0|0:0,0:0:0:0:
226,211,126656,2,0,L|177:203,1,50,2|0,1:2|1:0,0:0:0:0:
122,193,127049,1,10,0:0:0:0:
75,104,127441,6,0,L|26:96,2,50,6|0|0,1:2|1:0|1:0,0:0:0:0:
112,70,128029,2,0,L|105:21,2,50,4|0|0,1:2|1:0|1:0,0:0:0:0:
162,93,128617,1,8,0:0:0:0:
162,93,128813,1,6,1:2:0:0:
243,34,129205,2,0,L|293:43,1,50,0|8,1:0|0:0,0:0:0:0:
333,14,129598,2,0,P|383:6|423:48,1,100,4|2,1:2|1:2,0:0:0:0:
450,74,130186,2,0,L|441:124,1,50,10|8,0:0|0:0,0:0:0:0:
431,171,130578,5,6,1:2:0:0:
480,256,130970,1,10,0:0:0:0:
404,319,131362,2,0,P|351:310|296:300,1,110.000003356934,2|8,1:2|0:0,0:0:0:0:
270,257,131951,2,0,P|248:240|222:247,1,55.0000016784668,2|0,0:0|1:0,0:0:0:0:
190,284,132343,1,2,0:0:0:0:
190,284,132539,2,0,L|137:273,1,55.0000016784668,10|2,0:0|0:0,0:0:0:0:
87,266,132931,2,0,P|77:212|68:158,1,110.000003356934,2|10,1:2|0:0,0:0:0:0:
35,63,133715,6,0,P|86:49|130:79,1,110.000003356934,2|10,1:2|0:0,0:0:0:0:
163,115,134304,2,0,P|217:104|271:95,1,110.000003356934,2|2,0:0|0:0,0:0:0:0:
324,93,134892,1,8,0:0:0:0:
324,93,135088,2,0,P|315:148|305:202,1,110.000003356934,2|0,0:0|0:0,0:0:0:0:
295,249,135676,1,8,0:0:0:0:
353,328,136068,2,0,L|407:318,1,55.0000016784668,0|2,1:0|1:2,0:0:0:0:
450,342,136460,1,10,0:0:0:0:
511,264,136853,5,2,1:2:0:0:
430,206,137245,1,10,0:0:0:0:
500,137,137637,2,0,P|513:85|480:42,1,110.000003356934,2|8,1:2|0:0,0:0:0:0:
440,15,138225,2,0,L|386:23,1,55.0000016784668,2|0,0:0|1:0,0:0:0:0:
360,67,138617,1,2,0:0:0:0:
360,67,138813,2,0,L|306:75,1,55.0000016784668,10|2,0:0|0:0,0:0:0:0:
270,40,139205,2,0,P|225:10|173:21,1,110.000003356934,2|10,1:2|0:0,0:0:0:0:
91,78,139990,6,0,P|101:132|110:186,1,110.000003356934,6|10,1:2|0:0,0:0:0:0:
152,211,140578,2,0,L|207:202,1,55.0000016784668,2|0,0:0|1:0,0:0:0:0:
248,228,140970,1,2,0:0:0:0:
301,144,141362,2,0,P|355:134|409:124,1,110.000003356934,6|0,1:2|1:0,0:0:0:0:
452,149,141951,1,10,0:0:0:0:
511,228,142343,1,0,1:2:0:0:
458,311,142735,1,8,0:0:0:0:
363,281,143127,6,0,P|308:292|254:301,1,110.000003356934,6|10,1:2|0:0,0:0:0:0:
223,339,143715,2,0,P|179:370|128:355,1,110.000003356934,2|2,0:0|0:0,0:0:0:0:
92,330,144304,1,8,0:0:0:0:
92,330,144500,2,0,P|82:276|73:222,1,110.000003356934,2|2,1:2|1:2,0:0:0:0:
62,172,145088,1,10,0:0:0:0:
136,106,145480,2,0,P|190:116|244:126,1,110.000003356934,2|8,1:2|0:0,0:0:0:0:
315,57,146264,6,0,P|358:25|409:40,1,110.000003356934,2|10,1:2|0:0,0:0:0:0:
449,69,146853,2,0,P|439:123|430:177,1,110.000003356934,2|2,0:0|1:2,0:0:0:0:
420,228,147441,1,8,0:0:0:0:
420,228,147637,2,0,P|365:218|311:208,1,110.000003356934,2|2,1:2|1:2,0:0:0:0:
267,200,148225,1,10,0:0:0:0:
267,200,148421,1,2,1:2:0:0:
193,142,148813,1,0,1:0:0:0:
193,142,149009,2,0,P|166:136|143:149,1,55.0000016784668,10|2,0:0|0:0,0:0:0:0:
111,187,149402,6,0,P|121:241|129:295,1,110.000003356934,6|8,1:2|0:0,0:0:0:0:
165,329,149990,2,0,P|219:318|273:310,1,110.000003356934,6|2,1:2|1:2,0:0:0:0:
318,343,150578,1,10,0:0:0:0:
318,343,150774,1,6,1:2:0:0:
443,262,151362,6,0,B|460:229|460:229|426:146|426:146|446:113,1,165.000005035401,6|0,0:0|1:0,0:0:0:0:
479,77,152147,1,8,0:0:0:0:
399,16,152539,6,0,P|352:3|312:31,1,100,6|8,1:2|0:0,0:0:0:0:
275,64,153127,2,0,P|225:54|176:45,1,100,2|0,0:0|0:0,0:0:0:0:
135,74,153715,1,10,0:0:0:0:
151,172,154107,2,0,P|188:177|224:184,2,75,2|2|2,1:2|0:0|0:0,0:0:0:0:
116,207,154891,2,0,P|78:201|42:194,2,75,2|2|2,1:2|0:0|0:0,0:0:0:0:
127,255,155676,6,0,B|261:278|261:278|284:303|284:303|415:325,1,300,2|10,1:2|0:0,0:0:0:0:
478,249,157244,2,0,B|443:197|486:149|499:159|543:111|512:70,1,200,2|0,1:2|1:0,0:0:0:0:
434,6,158421,2,0,P|410:1|391:17,1,50,10|2,0:0|0:0,0:0:0:0:
355,51,158813,2,0,P|257:34|158:16,1,200,6|0,1:2|1:0,0:0:0:0:
80,78,159989,2,0,L|88:127,1,50,10|2,0:0|0:0,0:0:0:0:
102,175,160382,2,0,P|200:192|298:209,1,200,2|0,1:2|1:0,0:0:0:0:
383,155,161558,1,8,0:0:0:0:
444,233,161950,6,0,P|468:206|505:206,2,75,6|2|2,1:2|0:0|0:0,0:0:0:0:
450,281,162735,2,0,P|486:279|511:305,2,75,2|2|2,1:2|0:0|0:0,0:0:0:0:
420,319,163519,2,0,P|446:343|446:380,2,75,2|2|2,1:2|0:0|0:0,0:0:0:0:
370,313,164303,1,0,1:0:0:0:
279,355,164695,1,8,0:0:0:0:
225,270,165088,6,0,P|174:278|107:290,1,100,6|10,1:2|0:0,0:0:0:0:
81,265,165676,2,0,B|64:246|64:246|73:223,1,50,2|0,0:0|1:0,0:0:0:0:
94,125,166264,2,0,P|144:116|211:104,1,100,10|2,0:0|1:2,0:0:0:0:
238,130,166852,2,0,B|254:148|254:148|245:171,1,50,2|8,0:0|0:0,0:0:0:0:
289,205,167244,1,2,0:0:0:0:
289,205,167440,2,0,L|338:196,1,50,0|0,1:0|1:0,0:0:0:0:
387,186,167833,1,8,0:0:0:0:
479,147,168225,6,0,L|451:105,1,50,12|0,0:2|1:0,0:0:0:0:
447,55,168617,2,0,L|398:44,1,50,8|0,0:0|1:0,0:0:0:0:
362,6,169009,2,0,L|320:33,1,50,8|0,0:0|1:0,0:0:0:0:
270,30,169401,1,8,0:0:0:0:
187,86,169793,6,0,L|176:134,1,50,8|0,0:0|1:0,0:0:0:0:
144,173,170186,2,0,L|171:214,1,50,8|0,0:0|1:0,0:0:0:0:
170,268,170578,2,0,L|218:278,1,50,8|0,0:0|1:0,0:0:0:0:
252,316,170970,1,8,0:0:0:0:
343,360,171362,5,12,0:0:0:0:
438,330,171754,5,8,0:0:0:0:
489,244,172146,5,8,0:0:0:0:
471,145,172539,5,8,0:0:0:0:
398,76,172931,6,0,B|332:32|272:86|285:102|225:157|173:118,1,250,6|0,1:2|1:0,0:0:0:0:
132,89,174107,1,8,0:0:0:0:
61,159,174499,1,4,0:0:0:0:
352,320,175872,6,0,P|401:310|450:300,1,100,4|4,0:2|0:2,0:0:0:0:
482,262,176460,1,4,0:2:0:0:
425,70,177244,1,4,1:2:0:0:
340,18,177637,6,0,P|289:2|246:33,1,110.000003356934,6|10,1:2|0:0,0:0:0:0:
216,73,178225,2,0,P|225:127|235:181,1,110.000003356934,2|2,0:0|0:0,0:0:0:0:
280,212,178813,1,8,0:0:0:0:
280,212,179009,2,0,P|289:267|299:321,1,110.000003356934,2|0,0:0|0:0,0:0:0:0:
274,363,179597,1,8,0:0:0:0:
184,321,179989,2,0,L|130:331,1,55.0000016784668,0|2,1:0|1:2,0:0:0:0:
81,341,180382,1,10,0:0:0:0:
1,281,180774,5,2,1:2:0:0:
72,211,181166,1,10,0:0:0:0:
0,143,181558,2,0,P|10:88|19:34,1,110.000003356934,2|8,1:2|0:0,0:0:0:0:
61,9,182146,2,0,P|86:1|108:16,1,55.0000016784668,2|0,0:0|1:0,0:0:0:0:
144,58,182539,1,2,0:0:0:0:
144,58,182735,2,0,L|198:50,1,55.0000016784668,10|2,0:0|0:0,0:0:0:0:
238,78,183127,2,0,P|292:68|346:59,1,110.000003356934,2|10,1:2|0:0,0:0:0:0:
444,46,183911,6,0,P|433:100|424:154,1,110.000003356934,6|8,1:2|0:0,0:0:0:0:
452,195,184499,2,0,L|443:250,1,55.0000016784668,2|0,0:0|1:0,0:0:0:0:
407,284,184891,1,2,0:0:0:0:
324,339,185284,2,0,P|272:355|228:325,1,110.000003356934,6|0,1:2|1:0,0:0:0:0:
195,289,185872,1,8,0:0:0:0:
117,351,186264,1,2,1:2:0:0:
26,310,186656,1,10,0:0:0:0:
34,211,187048,6,0,P|23:156|14:102,1,110.000003356934,6|10,1:2|0:0,0:0:0:0:
41,61,187637,2,0,P|85:31|141:55,1,110.000003356934,2|2,0:0|0:0,0:0:0:0:
180,79,188225,1,8,0:0:0:0:
180,79,188421,2,0,P|190:133|199:187,1,110.000003356934,2|2,1:2|1:2,0:0:0:0:
170,227,189009,1,10,0:0:0:0:
237,299,189401,2,0,P|291:289|345:279,1,110.000003356934,2|8,1:2|0:0,0:0:0:0:
422,340,190186,6,0,P|453:296|437:245,1,110.000003356934,2|10,1:2|0:0,0:0:0:0:
409,205,190774,2,0,P|417:150|427:96,1,110.000003356934,2|2,0:0|1:2,0:0:0:0:
405,59,191362,1,8,0:0:0:0:
405,59,191558,2,0,P|350:69|296:79,1,110.000003356934,2|2,1:2|1:2,0:0:0:0:
258,57,192146,1,10,0:0:0:0:
258,57,192342,1,2,1:2:0:0:
178,8,192735,1,0,1:0:0:0:
178,8,192931,2,0,L|124:17,1,55.0000016784668,10|2,0:0|0:0,0:0:0:0:
75,27,193323,6,0,P|59:77|90:119,1,110.000003356934,6|8,1:2|0:0,0:0:0:0:
129,151,193911,2,0,P|119:205|111:259,1,110.000003356934,6|2,1:2|1:2,0:0:0:0:
105,312,194499,1,10,0:0:0:0:
105,312,194695,1,6,1:2:0:0:
251,336,195284,6,0,B|275:317|275:317|294:212|294:212|278:190,1,165.000005035401,6|0,0:0|1:0,0:0:0:0:
245,152,196068,1,8,0:0:0:0:
294,65,196460,6,0,P|338:34|389:48,1,110.000003356934,6|10,1:2|0:0,0:0:0:0:
429,85,197048,1,2,1:2:0:0:
429,85,197244,2,0,L|419:139,1,55.0000016784668,0|0,1:0|1:0,0:0:0:0:
450,184,197637,1,8,0:0:0:0:
450,184,197833,1,2,1:2:0:0:
504,273,198225,1,0,1:0:0:0:
504,273,198421,2,0,L|493:327,1,55.0000016784668,8|0,0:0|1:0,0:0:0:0:
453,356,198813,2,0,L|399:345,1,55.0000016784668,8|0,0:0|1:0,0:0:0:0:
366,307,199205,1,8,0:0:0:0:
293,373,199597,6,0,P|239:362|184:352,1,110.000003356934,6|8,1:2|0:0,0:0:0:0:
157,311,200186,2,0,P|102:300|48:292,1,110.000003356934,6|2,1:2|1:2,0:0:0:0:
23,256,200774,1,10,0:0:0:0:
23,256,200970,1,6,1:2:0:0:
133,156,201558,6,0,P|119:104|150:60,1,110.000003356934,6|8,0:0|0:0,0:0:0:0:
198,43,202146,1,0,1:0:0:0:
198,43,202342,1,8,0:0:0:0:
287,86,202735,6,0,P|301:138|270:182,1,110.000003356934,6|10,1:2|0:0,0:0:0:0:
239,219,203323,2,0,P|249:274|258:328,1,110.000003356934,2|0,0:0|1:0,0:0:0:0:
306,353,203911,1,10,0:0:0:0:
306,353,204107,2,0,P|361:343|415:334,1,110.000003356934,2|0,1:2|1:0,0:0:0:0:
439,291,204695,2,0,L|428:237,1,55.0000016784668,8|8,0:0|0:0,0:0:0:0:
450,192,205088,2,0,L|439:138,1,55.0000016784668,8|8,0:0|0:0,0:0:0:0:
459,92,205480,1,8,0:0:0:0:
383,26,205872,6,0,P|336:13|296:41,1,100,6|10,1:2|0:0,0:0:0:0:
266,80,206460,1,2,0:0:0:0:
266,80,206656,2,0,L|275:129,2,50,2|2|10,1:2|0:0|0:0,0:0:0:0:
219,60,207244,1,2,1:2:0:0:
131,11,207636,2,0,P|108:6|88:20,1,50,2|8,1:2|0:0,0:0:0:0:
48,52,208028,2,0,P|58:105|66:150,1,100,2|0,0:0|1:0,0:0:0:0:
110,174,208617,1,8,0:0:0:0:
52,255,209009,6,0,P|92:282|139:270,1,100,2|10,1:2|0:0,0:0:0:0:
183,246,209597,2,0,P|231:254|281:263,1,100,2|2,0:0|0:0,0:0:0:0:
321,232,210185,1,8,0:0:0:0:
321,232,210381,1,2,1:2:0:0:
272,144,210773,2,0,L|280:94,1,50,2|8,1:2|0:0,0:0:0:0:
317,61,211166,2,0,P|364:49|405:76,1,100,2|2,0:0|1:2,0:0:0:0:
439,111,211754,1,8,0:0:0:0:
501,189,212146,6,0,P|492:238|483:287,1,100,6|10,1:2|0:0,0:0:0:0:
449,323,212734,1,2,0:0:0:0:
449,323,212930,2,0,L|457:372,2,50,2|2|10,1:2|0:0|0:0,0:0:0:0:
405,298,213519,1,2,1:2:0:0:
328,361,213911,2,0,L|278:352,1,50,2|8,1:2|0:0,0:0:0:0:
234,376,214303,2,0,P|185:367|136:358,1,100,2|0,0:0|1:0,0:0:0:0:
106,317,214892,1,8,0:0:0:0:
67,224,215283,6,0,P|54:176|81:136,1,100,6|10,1:2|0:0,0:0:0:0:
125,112,215872,2,0,P|175:120|224:128,1,100,6|10,1:2|0:0,0:0:0:0:
254,168,216460,2,0,P|352:184|416:197,1,150,6|0,1:2|1:0,0:0:0:0:
450,204,217244,1,8,0:0:0:0:
506,292,217636,1,6,0:0:0:0:
506,292,217832,1,6,0:0:0:0:
393,382,218421,6,0,B|348:355|316:287|330:206|399:170|455:191|500:83|456:-33|362:-64|232:-24|241:24|214:73|214:73|163:46|142:0|13:38|-44:115|-15:240|78:305|115:255|194:226|273:248|304:317,1,1240,6|0,1:2|0:0,0:0:0:0:
