osu file format v14

[General]
AudioFilename: audio.mp3
AudioLeadIn: 0
PreviewTime: 129943
Countdown: 0
SampleSet: Soft
StackLeniency: 0.5
Mode: 0
LetterboxInBreaks: 0
WidescreenStoryboard: 0

[Editor]
Bookmarks: 8228,20777,33326,45875,55286,61561,89796,102345,114894,124306,130580,152541,174502,177639,205875,224502
DistanceSpacing: 0.7
BeatDivisor: 3
GridSize: 32
TimelineZoom: 2.2

[Metadata]
Title:Zutto
TitleUnicode:ずっと
Artist:Hazuki
ArtistUnicode:葉月
Creator:Iceluin
Version:Nanami Smile
Source:RIDDLE JOKER
Tags:リドルジョーカー visual novel vn eroge arihara nanami japanese pop j-pop jpop ending ed yuzusoft ゆずソフト video game 在原 七海 在原七海 little sister imouto siscon ギャルゲー galgame エロゲー
BeatmapID:4072228
BeatmapSetID:1964088

[Difficulty]
HPDrainRate:6
CircleSize:4
OverallDifficulty:8
ApproachRate:8.8
SliderMultiplier:1.6
SliderTickRate:1

[Events]
//Background and Video events
0,0,"bg.jpg",0,0
//Break Periods
//Storyboard Layer 0 (Background)
//Storyboard Layer 1 (Fail)
//Storyboard Layer 2 (Pass)
//Storyboard Layer 3 (Foreground)
//Storyboard Layer 4 (Overlay)
//Storyboard Sound Samples

[TimingPoints]
385,392.156862745098,4,2,1,60,1,0
7836,-133.333333333333,4,2,1,60,0,0
8130,-133.333333333333,4,2,1,5,0,0
8228,392.156862745098,4,2,1,75,1,0
8228,-90.9090909090909,4,2,1,75,0,0
9894,-90.9090909090909,4,2,1,5,0,0
9992,-90.9090909090909,4,2,1,75,0,0
11267,-90.9090909090909,4,2,1,5,0,0
11365,-90.9090909090909,4,2,1,75,0,0
13031,-90.9090909090909,4,2,1,5,0,0
13129,-90.9090909090909,4,2,1,75,0,0
13816,-90.9090909090909,4,2,1,5,0,0
13914,-90.9090909090909,4,2,1,75,0,0
16169,-90.9090909090909,4,2,1,5,0,0
16267,-90.9090909090909,4,2,1,75,0,0
18522,-90.9090909090909,4,2,1,5,0,0
18620,-90.9090909090909,4,2,1,75,0,0
20777,-133.333333333333,4,2,1,50,0,0
33326,-100,4,2,1,70,0,0
33620,-100,4,2,1,5,0,0
33718,-100,4,2,1,70,0,0
36757,-100,4,2,1,5,0,0
36855,-100,4,2,1,70,0,0
39894,-100,4,2,1,5,0,0
39992,-100,4,2,1,70,0,0
45875,-111.111111111111,4,2,1,60,0,0
55286,392.156862745098,4,2,1,70,1,0
55286,-100,4,2,1,70,0,0
57148,-100,4,2,1,5,0,0
57246,-100,4,2,1,70,0,0
61560,-80,4,2,1,85,0,1
61854,-80,4,2,1,5,0,1
61952,-80,4,2,1,85,0,1
62246,-80,4,2,1,5,0,1
62344,-80,4,2,1,85,0,1
64991,-80,4,2,1,5,0,1
65089,-80,4,2,1,85,0,1
68129,-80,4,2,1,5,0,1
68227,-80,4,2,1,85,0,1
68521,-80,4,2,1,5,0,1
68619,-80,4,2,1,85,0,1
74403,-80,4,2,1,5,0,1
74501,-80,4,2,1,85,0,1
74991,-80,4,2,1,5,0,1
75089,-80,4,2,1,85,0,1
75776,-80,4,2,1,5,0,1
75874,-80,4,2,1,85,0,1
76364,-80,4,2,1,5,0,1
76462,-80,4,2,1,85,0,1
77148,-80,4,2,1,5,0,1
77246,-80,4,2,1,85,0,1
77540,-80,4,2,1,5,0,1
77638,-80,4,2,1,85,0,1
78129,-80,4,2,1,5,0,1
78227,-80,4,2,1,85,0,1
78913,-80,4,2,1,5,0,1
79011,-80,4,2,1,85,0,1
80384,-80,4,2,1,85,0,1
80972,-50,4,2,1,85,0,1
82344,-133.333333333333,4,2,1,85,0,1
83521,-80,4,2,1,85,0,1
89795,392.156862745098,4,2,1,50,1,0
89795,-133.333333333333,4,2,1,50,0,0
95089,-250,4,2,1,50,0,0
96069,-133.333333333333,4,2,1,50,0,0
101069,-133.333333333333,4,2,1,5,0,0
101167,-133.333333333333,4,2,1,50,0,0
102344,-100,4,2,1,70,0,0
102638,-100,4,2,1,5,0,0
102736,-100,4,2,1,70,0,0
105775,-100,4,2,1,5,0,0
105873,-100,4,2,1,70,0,0
111363,-250,4,2,1,70,0,0
111657,-250,4,2,1,5,0,0
111755,-100,4,2,1,70,0,0
112638,-100,4,2,1,5,0,0
112736,-100,4,2,1,70,0,0
114010,-100,4,2,1,5,0,0
114108,-100,4,2,1,70,0,0
114893,-111.111111111111,4,2,1,60,0,0
124304,392.156862745098,4,2,1,70,1,0
124304,-100,4,2,1,70,0,0
126166,-100,4,2,1,5,0,0
126264,-100,4,2,1,70,0,0
130578,-80,4,2,1,85,0,1
130872,-80,4,2,1,5,0,1
130970,-80,4,2,1,85,0,1
131264,-80,4,2,1,5,0,1
131362,-80,4,2,1,85,0,1
134009,-80,4,2,1,5,0,1
134107,-80,4,2,1,85,0,1
137147,-80,4,2,1,5,0,1
137245,-80,4,2,1,85,0,1
137539,-80,4,2,1,5,0,1
137637,-80,4,2,1,85,0,1
143421,-80,4,2,1,5,0,1
143519,-80,4,2,1,85,0,1
144009,-80,4,2,1,5,0,1
144107,-80,4,2,1,85,0,1
144794,-80,4,2,1,5,0,1
144892,-80,4,2,1,85,0,1
145382,-80,4,2,1,5,0,1
145480,-80,4,2,1,85,0,1
146166,-80,4,2,1,5,0,1
146264,-80,4,2,1,85,0,1
146558,-80,4,2,1,5,0,1
146656,-80,4,2,1,85,0,1
147147,-80,4,2,1,5,0,1
147245,-80,4,2,1,85,0,1
147931,-80,4,2,1,5,0,1
148029,-80,4,2,1,85,0,1
149402,-80,4,2,1,85,0,1
149990,-50,4,2,1,85,0,1
151362,-133.333333333333,4,2,1,85,0,1
152539,392.156862745098,4,2,1,75,1,0
152539,-90.9090909090909,4,2,1,75,0,0
154303,-90.9090909090909,4,2,1,5,0,0
154401,-90.9090909090909,4,2,1,75,0,0
154597,-90.9090909090909,4,2,1,5,0,0
154695,-90.9090909090909,4,2,1,75,0,0
155088,-90.9090909090909,4,2,1,5,0,0
155186,-90.9090909090909,4,2,1,75,0,0
155382,-90.9090909090909,4,2,1,5,0,0
155480,-90.9090909090909,4,2,1,75,0,0
157146,-90.9090909090909,4,2,1,5,0,0
157244,-90.9090909090909,4,2,1,75,0,0
162146,-90.9090909090909,4,2,1,5,0,0
162244,-90.9090909090909,4,2,1,75,0,0
162440,-90.9090909090909,4,2,1,5,0,0
162538,-90.9090909090909,4,2,1,75,0,0
162637,-90.9090909090909,4,2,1,5,0,0
162735,-90.9090909090909,4,2,1,75,0,0
162931,-90.9090909090909,4,2,1,5,0,0
163029,-90.9090909090909,4,2,1,75,0,0
163225,-90.9090909090909,4,2,1,5,0,0
163323,-90.9090909090909,4,2,1,75,0,0
163421,-90.9090909090909,4,2,1,5,0,0
163519,-90.9090909090909,4,2,1,75,0,0
163715,-90.9090909090909,4,2,1,5,0,0
163813,-90.9090909090909,4,2,1,75,0,0
164009,-90.9090909090909,4,2,1,5,0,0
164107,-90.9090909090909,4,2,1,75,0,0
164205,-90.9090909090909,4,2,1,5,0,0
164303,-90.9090909090909,4,2,1,75,0,0
165382,-90.9090909090909,4,2,1,5,0,0
165480,-90.9090909090909,4,2,1,75,0,0
166558,-90.9090909090909,4,2,1,5,0,0
166656,-90.9090909090909,4,2,1,75,0,0
168127,-90.9090909090909,4,2,1,5,0,0
168225,-90.9090909090909,4,2,1,75,0,0
172931,-250,4,2,1,75,0,0
174107,-90.9090909090909,4,2,1,75,0,0
175872,-66.6666666666667,4,2,1,75,0,0
176166,-66.6666666666667,4,2,1,5,0,0
176264,-66.6666666666667,4,2,1,75,0,0
176362,-66.6666666666667,4,2,1,5,0,0
176460,-66.6666666666667,4,2,1,75,0,0
176558,-66.6666666666667,4,2,1,5,0,0
177048,-66.6666666666667,4,2,1,60,0,0
177244,-133.333333333333,4,2,1,60,0,0
177538,-133.333333333333,4,2,1,60,0,0
177541,-133.333333333333,4,2,1,60,0,0
177637,-80,4,2,1,85,0,1
177931,-80,4,2,1,5,0,1
178029,-80,4,2,1,85,0,1
181068,-80,4,2,1,5,0,1
181166,-80,4,2,1,85,0,1
181460,-80,4,2,1,5,0,1
181558,-80,4,2,1,85,0,1
187342,-80,4,2,1,5,0,1
187440,-80,4,2,1,85,0,1
187931,-80,4,2,1,5,0,1
188029,-80,4,2,1,85,0,1
188715,-80,4,2,1,5,0,1
188813,-80,4,2,1,85,0,1
189303,-80,4,2,1,5,0,1
189401,-80,4,2,1,85,0,1
190088,-80,4,2,1,5,0,1
190186,-80,4,2,1,85,0,1
190480,-80,4,2,1,5,0,1
190578,-80,4,2,1,85,0,1
191068,-80,4,2,1,5,0,1
191166,-80,4,2,1,85,0,1
191852,-80,4,2,1,5,0,1
191950,-80,4,2,1,85,0,1
193323,-80,4,2,1,85,0,1
193911,-50,4,2,1,85,0,1
195284,-133.333333333333,4,2,1,85,0,1
196460,-79.9999999999999,4,2,1,85,0,1
199597,-80,4,2,1,85,0,1
200186,-50,4,2,1,85,0,1
201558,-80,4,2,1,85,0,1
201852,-80,4,2,1,5,0,1
201950,-80,4,2,1,85,0,1
205872,392.156862745098,4,2,1,75,1,0
205872,-90.9090909090909,4,2,1,75,0,0
207538,-90.9090909090909,4,2,1,5,0,0
207636,-90.9090909090909,4,2,1,75,0,0
208911,-90.9090909090909,4,2,1,5,0,0
209009,-90.9090909090909,4,2,1,75,0,0
210675,-90.9090909090909,4,2,1,5,0,0
210773,-90.9090909090909,4,2,1,75,0,0
211460,-90.9090909090909,4,2,1,5,0,0
211558,-90.9090909090909,4,2,1,75,0,0
213813,-90.9090909090909,4,2,1,5,0,0
213911,-90.9090909090909,4,2,1,75,0,0
216166,-90.9090909090909,4,2,1,5,0,0
216264,-90.9090909090909,4,2,1,75,0,0
218421,-333.333333333333,4,2,1,75,0,0
218470,-333.333333333333,4,2,1,5,0,0
224499,-333.333333333333,4,2,1,15,0,0

[Colours]
Combo1 : 210,210,210
Combo2 : 255,255,128
Combo3 : 255,128,128

[HitObjects]
128,224,7640,5,0,1:0:0:0:
128,224,7738,1,0,1:0:0:0:
128,224,7836,2,0,B|108:219|96:191|96:191|94:219|80:237,1,90.0000034332277,12|0,0:2|0:0,0:0:0:0:
34,324,8228,6,0,P|120:307|207:295,1,176.000005371094,6|10,1:2|0:0,0:0:0:0:
392,331,8816,1,2,0:0:0:0:
237,204,9012,1,2,1:2:0:0:
291,358,9208,2,0,P|298:314|305:271,1,88.000002685547,2|10,0:0|0:0,0:0:0:0:
499,143,9600,6,0,P|435:149|390:104,1,132.00000402832,2|0,1:2|0:0,0:0:0:0:
396,97,9992,2,0,P|425:128|426:171,1,88.000002685547,2|8,1:2|0:0,0:0:0:0:
484,56,10384,1,2,0:0:0:0:
321,154,10580,1,0,1:0:0:0:
321,154,10777,1,2,1:2:0:0:
233,6,10973,2,0,P|187:49|203:110,1,132.00000402832,8|0,0:0|0:0,0:0:0:0:
222,128,11365,6,0,P|308:113|395:96,1,176.000005371094,2|10,1:2|0:0,0:0:0:0:
442,274,11953,2,0,P|356:289|268:305,1,176.000005371094,2|2,0:0|0:0,0:0:0:0:
74,211,12541,1,8,0:0:0:0:
190,382,12737,6,0,P|178:317|167:252,1,132.00000402832,2|0,1:2|0:0,0:0:0:0:
156,248,13129,2,0,P|164:292|171:334,1,88.000002685547,2|8,1:2|0:0,0:0:0:0:
41,125,13522,2,0,P|87:168|152:157,1,132.00000402832,2|0,0:0|0:0,0:0:0:0:
162,151,13914,2,0,P|205:157|248:166,1,88.000002685547,2|8,1:2|0:0,0:0:0:0:
422,65,14306,5,0,1:0:0:0:
422,65,14404,1,8,0:0:0:0:
422,65,14502,2,0,P|438:151|454:240,1,176.000005371094,6|10,1:2|0:0,0:0:0:0:
298,349,15090,1,2,0:0:0:0:
454,238,15286,1,2,1:2:0:0:
394,378,15482,2,0,P|386:334|380:291,1,88.000002685547,2|10,0:0|0:0,0:0:0:0:
213,154,15875,6,0,P|170:199|193:257,1,132.00000402832,2|0,1:2|0:0,0:0:0:0:
204,267,16267,2,0,P|247:259|290:252,1,88.000002685547,2|8,1:2|0:0,0:0:0:0:
465,167,16659,1,2,0:0:0:0:
305,42,16855,1,0,1:0:0:0:
305,42,17051,1,2,1:2:0:0:
367,197,17247,2,0,P|374:153|382:110,1,88.000002685547,8|8,0:0|0:0,0:0:0:0:
384,100,17541,1,8,0:0:0:0:
386,90,17639,5,6,1:2:0:0:
290,251,17835,1,2,0:0:0:0:
479,80,18031,1,10,0:0:0:0:
280,261,18228,6,0,P|215:249|130:236,1,132.00000402832,6|0,1:2|0:0,0:0:0:0:
119,234,18620,1,10,0:0:0:0:
4,49,18816,2,0,P|104:128|231:109,1,264.000008056641,6|0,1:2|1:0,0:0:0:0:
421,220,19600,5,8,0:0:0:0:
325,165,19796,1,0,1:0:0:0:
483,86,19992,5,6,0:0:0:0:
262,298,20188,1,6,0:0:0:0:
248,312,20777,6,0,P|189:300|129:290,1,120.000004577637,4|2,1:2|1:2,0:0:0:0:
58,339,21365,1,0,0:0:0:0:
13,265,21561,2,0,P|3:237|21:215,1,60.0000022888184,2|2,1:2|0:0,0:0:0:0:
0,132,21953,5,2,1:2:0:0:
0,132,22149,2,0,P|40:173|99:168,1,120.000004577637,2|0,0:0|0:0,0:0:0:0:
150,99,22737,1,2,1:2:0:0:
228,139,22933,2,0,B|260:186|220:229|209:220|169:264|197:301,1,180.000006866455,2|0,0:0|1:0,0:0:0:0:
197,300,23914,6,0,P|255:288|314:277,1,120.000004577637,0|2,1:0|1:2,0:0:0:0:
386,330,24502,1,0,0:0:0:0:
435,257,24698,2,0,P|439:227|444:197,1,60.0000022888184,2|2,1:2|0:0,0:0:0:0:
476,116,25090,5,2,1:2:0:0:
476,116,25286,2,0,P|431:153|374:142,1,120.000004577637,2|0,0:0|0:0,0:0:0:0:
307,92,25875,1,2,1:2:0:0:
252,155,26071,2,0,B|204:186|218:273|282:290|311:256|300:244,1,180.000006866455,2|0,0:0|1:0,0:0:0:0:
301,246,27051,6,0,P|244:236|198:276,1,120.000004577637,0|2,1:0|1:2,0:0:0:0:
145,342,27639,1,0,0:0:0:0:
65,314,27835,2,0,P|58:284|52:253,1,60.0000022888184,2|2,1:2|0:0,0:0:0:0:
22,171,28228,5,2,1:2:0:0:
22,171,28424,2,0,P|66:208|123:198,1,120.000004577637,2|0,0:0|0:0,0:0:0:0:
90,120,29012,1,2,1:2:0:0:
148,56,29208,1,2,0:0:0:0:
148,56,29600,2,0,P|177:51|202:70,1,60.0000022888184,2|2,0:0|1:2,0:0:0:0:
266,115,29992,6,0,P|325:106|384:95,1,120.000004577637,2|2,0:0|0:0,0:0:0:0:
407,182,30580,1,2,1:2:0:0:
407,182,30777,2,0,P|347:190|288:201,1,120.000004577637,2|2,0:0|0:0,0:0:0:0:
207,248,31365,2,0,P|201:218|195:189,1,60.0000022888184,2|2,1:2|0:0,0:0:0:0:
287,293,31757,5,6,1:2:0:0:
116,235,31953,1,8,0:0:0:0:
270,119,32149,2,0,P|279:163|286:193,1,60.0000022888184,8|8,0:0|0:3,0:0:0:0:
285,190,32443,1,8,0:3:0:0:
288,201,32541,1,8,0:0:0:0:
197,64,32737,5,8,0:3:0:0:
364,137,32933,1,8,0:0:0:0:
202,263,33129,5,8,0:0:0:0:
209,254,33228,1,8,0:0:0:0:
218,246,33326,2,0,P|277:254|336:264,1,120,4|0,1:2|0:0,0:0:0:0:
343,273,33718,2,0,P|335:312|329:351,1,80,10|0,0:0|0:0,0:0:0:0:
425,217,34110,1,2,1:2:0:0:
282,94,34306,1,2,0:0:0:0:
425,217,34502,5,10,0:0:0:0:
479,137,34698,2,0,P|414:180|339:163,1,160,2|0,0:0|0:0,0:0:0:0:
413,9,35286,2,0,P|405:48|399:87,1,80,10|2,0:0|0:0,0:0:0:0:
251,180,35678,1,0,1:0:0:0:
251,180,35875,1,0,1:0:0:0:
115,93,36071,2,0,P|152:83|186:103,1,80,8|0,0:0|0:0,0:0:0:0:
19,42,36463,6,0,P|29:101|39:160,1,120,0|0,1:0|0:0,0:0:0:0:
23,172,36855,2,0,P|2:205|12:243,1,80,10|2,0:0|0:0,0:0:0:0:
62,304,37149,1,2,0:0:0:0:
70,297,37247,1,2,1:2:0:0:
215,241,37443,1,2,0:0:0:0:
118,199,37639,5,10,0:0:0:0:
155,351,37835,2,0,P|233:336|312:322,1,160,2|0,0:0|0:0,0:0:0:0:
463,219,38424,2,0,P|456:258|449:297,1,80,10|2,0:0|0:0,0:0:0:0:
369,251,38816,1,0,1:0:0:0:
369,251,39012,1,0,1:0:0:0:
462,97,39208,5,10,0:0:0:0:
476,99,39306,1,2,0:0:0:0:
488,109,39404,1,2,0:0:0:0:
495,123,39502,1,2,0:0:0:0:
495,137,39600,2,0,P|449:173|391:165,1,120,2|0,1:2|0:0,0:0:0:0:
374,157,39992,1,10,0:0:0:0:
204,61,40188,1,2,0:0:0:0:
307,0,40384,6,0,P|292:78|280:157,1,160,2|10,1:2|0:0,0:0:0:0:
147,250,40973,2,0,P|163:214|201:207,1,80,2|0,0:0|1:0,0:0:0:0:
40,356,41561,5,10,0:0:0:0:
221,297,41757,2,0,P|143:280|43:264,1,160,2|2,1:2|1:2,0:0:0:0:
196,123,42345,1,10,0:0:0:0:
98,98,42541,2,0,P|105:138|113:176,1,80,2|0,0:0|1:0,0:0:0:0:
151,370,42933,5,2,0:0:0:0:
233,312,43129,1,10,0:0:0:0:
315,254,43326,1,2,1:2:0:0:
326,264,43718,5,2,1:2:0:0:
201,169,43914,1,10,0:0:0:0:
77,74,44110,2,0,B|54:108|54:108|176:82,1,160,6|0,1:2|1:0,0:0:0:0:
299,172,44698,5,8,0:0:0:0:
415,57,44894,1,0,1:0:0:0:
392,225,45090,5,8,0:0:0:0:
322,4,45286,1,0,1:0:0:0:
512,111,45482,5,8,0:0:0:0:
505,119,45580,1,8,0:0:0:0:
498,128,45678,1,8,0:3:0:0:
349,306,45875,6,0,P|404:261|477:278,1,143.999995605469,6|8,1:2|0:0,0:0:0:0:
287,369,46463,2,0,P|215:356|143:344,1,143.999995605469,8|8,1:3|0:3,0:0:0:0:
0,243,47051,1,8,1:3:0:0:
160,168,47247,1,4,0:3:0:0:
101,253,47443,5,0,1:0:0:0:
472,78,47835,5,8,0:0:0:0:
369,24,48031,2,0,P|383:97|395:166,1,143.999995605469,8|8,1:3|0:3,0:0:0:0:
272,293,48620,1,0,1:0:0:0:
447,247,48816,5,8,0:3:0:0:
447,247,48914,1,8,0:3:0:0:
447,247,49012,2,0,P|392:203|323:216,1,143.999995605469,0|8,1:0|0:0,0:0:0:0:
165,95,49600,2,0,P|219:138|288:126,1,143.999995605469,8|8,1:3|0:3,0:0:0:0:
125,229,50188,1,8,1:3:0:0:
219,250,50384,2,0,P|213:214|207:178,1,71.9999978027344,4|0,0:3|1:0,0:0:0:0:
52,50,50777,5,2,0:0:0:0:
207,178,50973,1,10,0:0:0:0:
128,3,51169,2,0,B|147:30|147:30|128:139,1,143.999995605469,8|8,1:3|0:3,0:0:0:0:
90,317,51757,1,0,1:0:0:0:
43,240,51953,5,8,0:3:0:0:
43,240,52051,1,8,0:3:0:0:
43,240,52149,2,0,P|111:227|166:271,1,143.999995605469,0|8,1:0|0:0,0:0:0:0:
351,233,52737,2,0,P|337:303|324:374,1,143.999995605469,8|8,1:3|0:3,0:0:0:0:
253,282,53326,1,8,1:3:0:0:
429,185,53522,1,4,0:3:0:0:
369,122,53718,5,0,1:0:0:0:
77,325,54110,5,8,0:0:0:0:
153,369,54306,2,0,P|166:301|122:246,1,143.999995605469,8|8,1:3|0:3,0:0:0:0:
176,68,54894,1,0,1:0:0:0:
51,151,55090,5,8,0:0:0:0:
58,159,55188,1,8,0:0:0:0:
65,167,55286,2,0,P|104:160|143:152,1,80,6|0,1:2|0:0,0:0:0:0:
310,196,55678,2,0,P|270:202|231:210,1,80,10|0,0:0|0:0,0:0:0:0:
83,66,56070,1,2,1:2:0:0:
83,66,56266,1,0,1:0:0:0:
231,209,56462,2,0,P|237:170|245:130,1,80,10|2,0:0|0:0,0:0:0:0:
438,21,56854,6,0,P|399:65|341:66,1,120,0|0,1:0|0:0,0:0:0:0:
347,59,57246,2,0,P|385:66|413:96,1,80,10|0,0:0|0:0,0:0:0:0:
512,252,57638,1,2,1:2:0:0:
512,252,57835,1,0,1:0:0:0:
331,157,58031,1,10,0:0:0:0:
431,314,58227,5,0,1:0:0:0:
431,314,58325,1,8,0:0:0:0:
431,314,58423,1,6,1:2:0:0:
412,95,58619,1,0,1:0:0:0:
232,221,58815,1,0,1:0:0:0:
304,324,59011,5,4,1:2:0:0:
484,198,59207,1,0,1:0:0:0:
285,106,59403,1,0,1:0:0:0:
358,210,59599,5,8,0:0:0:0:
496,48,59795,2,0,P|419:62|360:12,1,160,6|0,1:2|1:0,0:0:0:0:
198,161,60384,1,8,0:0:0:0:
149,70,60580,2,0,P|226:56|285:106,1,160,4|2,1:2|1:2,0:0:0:0:
465,229,61168,5,10,0:0:0:0:
432,214,61266,1,8,0:0:0:0:
396,215,61364,1,8,0:0:0:0:
366,236,61462,1,8,0:0:0:0:
347,268,61560,6,0,P|359:194|374:121,1,150,6|0,1:2|0:0,0:0:0:0:
284,105,61952,2,0,P|272:179|258:252,1,150,10|0,0:0|0:0,0:0:0:0:
451,313,62344,6,0,P|355:299|279:359,1,200,2|8,1:2|0:0,0:0:0:0:
85,262,62933,2,0,P|134:268|172:238,1,100,2|0,0:0|1:0,0:0:0:0:
106,175,63325,1,2,0:0:0:0:
300,106,63521,5,10,0:0:0:0:
127,0,63717,1,2,0:0:0:0:
195,141,63913,2,0,P|205:91|212:42,1,100,2|0,1:2|1:0,0:0:0:0:
372,177,64305,2,0,P|362:226|355:275,1,100,10|0,0:0|1:0,0:0:0:0:
433,322,64599,5,8,0:0:0:0:
433,322,64697,2,0,P|362:303|302:344,1,150,2|0,1:2|0:0,0:0:0:0:
293,361,65089,1,10,0:0:0:0:
78,298,65286,2,0,P|127:289|176:279,1,100,2|0,0:0|1:0,0:0:0:0:
320,164,65678,2,0,P|299:120|252:106,1,100,2|8,0:0|0:0,0:0:0:0:
193,376,66070,6,0,B|163:336|208:287|220:297|265:249|229:196,1,200,2|0,0:0|0:0,0:0:0:0:
99,34,66658,1,8,0:0:0:0:
229,196,66854,1,0,0:0:0:0:
69,132,67050,2,0,P|118:124|167:116,1,100,0|2,1:0|1:2,0:0:0:0:
315,7,67442,1,10,0:0:0:0:
315,216,67638,5,0,1:0:0:0:
315,216,67736,1,8,0:0:0:0:
315,216,67835,2,0,P|358:158|338:89,1,150,2|0,1:2|0:0,0:0:0:0:
254,69,68227,2,0,P|208:125|228:195,1,150,10|0,0:0|0:0,0:0:0:0:
421,261,68619,6,0,P|325:247|249:307,1,200,2|8,1:2|0:0,0:0:0:0:
70,230,69207,2,0,P|60:279|52:328,1,100,2|0,0:0|1:0,0:0:0:0:
153,296,69599,1,2,0:0:0:0:
11,158,69795,5,10,0:0:0:0:
180,76,69991,1,2,0:0:0:0:
105,17,70187,2,0,P|78:58|89:105,1,100,2|0,1:2|1:0,0:0:0:0:
251,198,70580,2,0,P|259:144|267:99,1,100,10|0,0:0|1:0,0:0:0:0:
251,17,70874,5,8,0:0:0:0:
250,17,70972,2,0,B|290:-12|339:32|329:44|377:89|430:54,1,200,6|8,1:2|0:0,0:0:0:0:
267,99,71560,1,2,0:0:0:0:
402,242,71756,2,0,P|409:192|419:143,1,100,0|2,1:0|0:0,0:0:0:0:
322,174,72148,1,8,0:0:0:0:
479,330,72344,6,0,B|392:345|392:345|367:335|367:335|283:350,1,200,6|0,1:2|1:0,0:0:0:0:
121,222,72933,1,10,0:0:0:0:
283,349,73129,1,2,0:0:0:0:
178,380,73325,2,0,P|187:330|195:281,1,100,0|0,1:2|1:0,0:0:0:0:
372,113,73717,1,8,0:0:0:0:
173,10,73913,5,0,1:0:0:0:
173,10,74011,1,8,0:0:0:0:
173,10,74109,2,0,P|228:56|300:42,1,150,6|0,1:2|0:0,0:0:0:0:
316,31,74501,1,10,0:0:0:0:
464,187,74697,2,0,P|390:199|316:213,1,150,2|0,0:0|0:0,0:0:0:0:
302,220,75089,2,0,P|293:275|286:318,1,100,2|8,0:0|0:0,0:0:0:0:
64,351,75482,6,0,P|52:276|40:202,1,150,2|0,1:2|0:0,0:0:0:0:
37,184,75874,1,2,1:2:0:0:
209,39,76070,2,0,P|139:58|81:15,1,150,10|0,0:0|0:0,0:0:0:0:
91,11,76462,2,0,P|129:40|130:88,1,100,2|0,1:2|0:0,0:0:0:0:
11,283,76854,2,0,P|82:268|140:313,1,150,8|0,0:0|0:0,0:0:0:0:
207,364,77246,6,0,P|280:350|354:338,1,150,2|0,1:2|0:0,0:0:0:0:
373,348,77638,1,10,0:0:0:0:
498,172,77835,2,0,P|484:245|472:319,1,150,2|0,0:0|0:0,0:0:0:0:
459,317,78227,2,0,P|467:267|475:218,1,100,2|8,1:2|0:0,0:0:0:0:
512,0,78619,6,0,P|456:47|384:36,1,150,2|0,1:2|0:0,0:0:0:0:
371,23,79011,1,2,1:2:0:0:
216,180,79207,1,10,0:0:0:0:
100,68,79403,2,0,P|193:92|273:36,1,200,2|0,1:2|1:0,0:0:0:0:
439,173,79991,1,10,0:0:0:0:
273,35,80187,1,2,0:0:0:0:
287,263,80384,6,0,B|262:217|315:176|324:183|376:146|349:90,1,200,6|8,1:2|0:0,0:0:0:0:
370,311,80972,6,0,B|407:240|327:173|309:190|229:125|273:34,1,320,6|2,1:2|1:2,0:0:0:0:
438,173,81560,5,10,0:0:0:0:
208,368,81756,1,6,1:2:0:0:
208,368,82344,6,0,P|119:352|30:337,1,180.000006866455,6|0,0:0|1:0,0:0:0:0:
203,193,83129,1,8,0:0:0:0:
103,163,83325,5,8,0:0:0:0:
103,163,83423,1,8,0:0:0:0:
103,163,83521,2,0,P|112:214|120:261,1,100,6|0,1:2|0:0,0:0:0:0:
268,113,83913,1,10,0:0:0:0:
301,210,84109,2,0,P|251:201|202:192,1,100,2|0,0:0|1:0,0:0:0:0:
2,133,84501,1,0,1:0:0:0:
162,5,84697,1,10,0:0:0:0:
120,262,84893,6,0,P|103:163|86:64,1,200,6|0,1:2|1:0,0:0:0:0:
189,98,85482,1,8,0:0:0:0:
20,239,85678,1,2,1:2:0:0:
20,239,85776,1,8,0:0:0:0:
20,239,85874,1,0,1:0:0:0:
189,98,86070,1,2,1:2:0:0:
0,0,86266,1,8,0:0:0:0:
136,178,86462,5,0,1:0:0:0:
136,178,86560,1,8,0:0:0:0:
136,178,86658,2,0,P|175:205|222:194,1,100,6|0,1:2|0:0,0:0:0:0:
386,56,87050,1,10,0:0:0:0:
284,24,87246,2,0,P|291:73|300:122,1,100,2|0,0:0|1:0,0:0:0:0:
255,331,87638,1,0,1:0:0:0:
396,158,87835,1,10,0:0:0:0:
491,307,88031,6,0,B|448:333|403:284|414:273|357:224|314:255,1,200,6|0,1:2|1:0,0:0:0:0:
70,339,88619,5,8,0:0:0:0:
232,200,88815,1,0,1:0:0:0:
31,130,89011,5,8,0:0:0:0:
182,307,89207,1,0,1:0:0:0:
151,122,89403,5,8,0:0:0:0:
137,122,89501,1,8,0:0:0:0:
128,133,89599,1,8,0:3:0:0:
253,82,89795,6,0,P|241:141|231:201,1,120.000004577637,4|2,1:2|1:2,0:0:0:0:
280,274,90383,1,0,0:0:0:0:
350,217,90579,2,0,P|379:222|409:227,1,60.0000022888184,2|2,1:2|0:0,0:0:0:0:
507,96,90971,5,10,0:2:0:0:
507,96,91167,2,0,P|449:93|410:136,1,120.000004577637,2|0,0:0|0:0,0:0:0:0:
487,185,91755,2,0,P|493:216|497:244,1,60.0000022888184,2|2,1:2|0:0,0:0:0:0:
439,309,92147,2,0,P|382:299|320:288,1,120.000004577637,0|8,1:0|0:0,0:0:0:0:
320,288,92932,6,0,P|310:231|299:169,1,120.000004577637,0|2,1:0|1:2,0:0:0:0:
351,95,93520,1,0,0:0:0:0:
274,46,93716,2,0,P|245:39|221:56,1,60.0000022888184,2|2,1:2|0:0,0:0:0:0:
87,143,94108,1,8,0:0:0:0:
118,37,94304,1,8,0:0:0:0:
124,47,94402,1,8,0:0:0:0:
130,58,94500,1,4,1:2:0:0:
384,320,95089,6,0,L|448:308,1,64,6|4,1:2|0:3,0:0:0:0:
307,268,95677,1,8,0:0:0:0:
307,268,95775,1,8,0:0:0:0:
307,268,95873,1,8,0:3:0:0:
388,168,96069,6,0,P|331:178|285:138,1,120.000004577637,6|10,1:2|0:0,0:0:0:0:
433,36,96657,1,0,0:0:0:0:
344,29,96853,2,0,P|349:58|356:87,1,60.0000022888184,2|2,1:2|0:0,0:0:0:0:
286,140,97245,5,10,0:0:0:0:
286,140,97442,2,0,P|227:129|167:118,1,120.000004577637,2|2,0:0|0:0,0:0:0:0:
119,0,98030,2,0,P|101:23|110:51,1,60.0000022888184,10|2,0:0|0:0,0:0:0:0:
156,177,98422,1,0,1:0:0:0:
156,177,98618,2,0,P|161:145|167:118,1,60.0000022888184,2|10,1:2|0:0,0:0:0:0:
79,129,99010,1,2,0:0:0:0:
224,230,99206,6,0,P|167:220|121:260,1,120.000004577637,6|10,1:2|0:0,0:0:0:0:
146,341,99795,2,0,P|203:351|249:311,1,120.000004577637,2|2,0:0|0:0,0:0:0:0:
390,359,100383,2,0,P|394:330|399:299,1,60.0000022888184,10|2,0:0|0:0,0:0:0:0:
293,139,100775,6,0,P|284:184|277:227,1,90.0000034332277,4|0,1:2|0:0,0:0:0:0:
288,238,101167,2,0,P|316:233|347:228,1,60.0000022888184,8|0,0:0|0:0,0:0:0:0:
499,143,101559,1,0,1:0:0:0:
499,143,101755,1,0,1:0:0:0:
335,64,101951,1,8,0:0:0:0:
426,39,102147,5,0,1:0:0:0:
426,39,102245,1,8,0:0:0:0:
426,39,102344,2,0,P|415:98|407:157,1,120,4|0,1:2|0:0,0:0:0:0:
414,168,102736,2,0,P|439:197|431:235,1,80,10|0,0:0|0:0,0:0:0:0:
298,376,103128,1,2,1:2:0:0:
336,218,103324,1,2,0:0:0:0:
453,367,103520,5,10,0:0:0:0:
512,289,103716,2,0,P|438:270|371:314,1,160,2|0,0:0|0:0,0:0:0:0:
238,195,104304,2,0,P|246:234|252:273,1,80,10|2,0:0|0:0,0:0:0:0:
307,135,104696,1,0,1:0:0:0:
307,135,104893,1,0,1:0:0:0:
158,249,105089,2,0,P|119:241|80:235,1,80,8|0,0:0|0:0,0:0:0:0:
26,70,105481,6,0,P|85:80|144:90,1,120,0|0,1:0|0:0,0:0:0:0:
155,80,105873,2,0,P|194:87|233:93,1,80,10|2,0:0|0:0,0:0:0:0:
308,55,106167,1,2,0:0:0:0:
308,55,106265,1,2,1:2:0:0:
453,130,106461,1,2,0:0:0:0:
418,20,106657,5,10,0:0:0:0:
336,164,106853,2,0,P|351:242|365:321,1,160,2|0,0:0|0:0,0:0:0:0:
512,247,107442,2,0,P|481:223|443:229,1,80,10|2,0:0|0:0,0:0:0:0:
273,321,107834,1,0,1:0:0:0:
273,321,108030,1,0,1:0:0:0:
212,167,108226,5,10,0:0:0:0:
196,168,108324,1,2,0:0:0:0:
184,178,108422,1,2,0:0:0:0:
181,193,108520,1,2,0:0:0:0:
184,208,108618,2,0,P|258:227|323:184,1,160,6|10,1:2|0:0,0:0:0:0:
465,61,109206,1,2,0:0:0:0:
371,37,109402,2,0,P|377:75|385:120,1,80,2|2,1:2|0:0,0:0:0:0:
426,288,109795,1,10,0:0:0:0:
477,216,109991,2,0,P|448:191|410:200,1,80,2|0,0:0|1:0,0:0:0:0:
32,128,110579,5,10,0:0:0:0:
132,11,110775,2,0,P|124:53|118:89,1,80,2|0,0:0|1:0,0:0:0:0:
36,34,111167,1,2,1:2:0:0:
193,146,111363,6,0,L|241:137,1,48,10|0,0:0|0:0,0:0:0:0:
254,135,111755,6,0,P|247:174|240:213,1,80,4|2,1:2|0:0,0:0:0:0:
334,95,112147,1,10,0:0:0:0:
371,296,112344,2,0,P|380:236|391:177,1,120,6|0,1:2|0:0,0:0:0:0:
397,157,112736,5,2,1:2:0:0:
471,253,112932,1,8,0:0:0:0:
290,342,113128,2,0,P|366:328|424:378,1,160,6|0,1:2|1:0,0:0:0:0:
284,242,113716,5,8,0:0:0:0:
120,356,113912,2,0,L|80:349,1,40,4|0,1:2|0:0,0:0:0:0:
201,298,114108,5,8,0:0:0:0:
94,153,114304,1,0,1:0:0:0:
256,28,114500,5,8,0:0:0:0:
252,41,114598,1,8,0:0:0:0:
249,53,114696,1,8,0:3:0:0:
51,72,114893,6,0,P|104:116|173:104,1,143.999995605469,6|8,1:2|0:0,0:0:0:0:
354,0,115481,2,0,P|340:70|328:141,1,143.999995605469,8|8,1:3|0:3,0:0:0:0:
470,255,116069,1,8,1:3:0:0:
300,320,116265,1,4,0:3:0:0:
367,239,116461,5,0,1:0:0:0:
95,53,116853,5,8,0:0:0:0:
53,136,117049,2,0,P|104:89|172:103,1,143.999995605469,8|8,1:3|0:3,0:0:0:0:
88,267,117638,1,0,1:0:0:0:
273,211,117834,5,8,0:3:0:0:
273,211,117932,1,8,0:3:0:0:
273,211,118030,2,0,P|201:199|131:185,1,143.999995605469,0|8,1:0|0:0,0:0:0:0:
3,345,118618,2,0,P|74:356|144:370,1,143.999995605469,8|8,1:3|0:3,0:0:0:0:
313,299,119206,1,8,1:3:0:0:
220,279,119402,2,0,P|226:315|232:351,1,71.9999978027344,4|0,0:3|1:0,0:0:0:0:
283,211,119795,5,2,0:0:0:0:
453,324,119991,1,10,0:0:0:0:
350,379,120187,2,0,P|361:307|375:237,1,143.999995605469,8|8,1:3|0:3,0:0:0:0:
419,62,120775,1,0,1:0:0:0:
466,139,120971,5,8,0:3:0:0:
466,139,121069,1,8,0:3:0:0:
466,139,121167,2,0,P|398:152|343:108,1,143.999995605469,4|8,1:2|0:0,0:0:0:0:
193,223,121755,2,0,P|139:180|71:192,1,143.999995605469,8|8,1:3|0:3,0:0:0:0:
152,141,122344,1,8,1:3:0:0:
30,271,122540,1,4,0:3:0:0:
104,316,122736,5,0,1:0:0:0:
509,76,123128,5,8,0:0:0:0:
409,21,123324,2,0,P|422:91|434:162,1,143.999995605469,8|8,1:3|0:3,0:0:0:0:
334,328,123912,1,0,1:0:0:0:
480,251,124108,5,8,0:0:0:0:
473,259,124206,1,8,0:0:0:0:
466,267,124304,2,0,P|427:260|388:252,1,80,6|0,1:2|0:0,0:0:0:0:
219,150,124696,2,0,P|227:189|234:228,1,80,10|0,0:0|0:0,0:0:0:0:
288,88,125088,1,2,1:2:0:0:
288,88,125284,1,0,1:0:0:0:
145,246,125480,2,0,P|137:206|129:167,1,80,10|2,0:0|0:0,0:0:0:0:
57,336,125872,6,0,P|115:330|159:369,1,120,0|0,1:0|0:0,0:0:0:0:
167,379,126264,2,0,P|206:372|245:366,1,80,10|0,0:0|0:0,0:0:0:0:
439,262,126656,1,2,1:2:0:0:
439,262,126853,1,0,1:0:0:0:
263,151,127049,1,10,0:0:0:0:
373,382,127245,5,0,1:0:0:0:
373,382,127343,1,8,0:0:0:0:
373,382,127441,1,6,1:2:0:0:
195,258,127637,1,0,1:0:0:0:
379,161,127833,1,0,1:0:0:0:
318,267,128029,5,4,1:2:0:0:
500,156,128225,1,0,1:0:0:0:
313,54,128421,1,0,1:0:0:0:
379,161,128617,5,8,0:0:0:0:
251,365,128813,2,0,P|172:350|93:339,1,160,6|0,1:2|1:0,0:0:0:0:
274,164,129402,1,8,0:0:0:0:
169,100,129598,2,0,P|183:178|194:257,1,160,4|2,1:2|1:2,0:0:0:0:
399,378,130186,5,10,0:0:0:0:
368,358,130284,1,8,0:0:0:0:
356,324,130382,1,8,0:0:0:0:
370,290,130480,1,8,0:0:0:0:
398,272,130578,6,0,P|343:319|272:305,1,150,6|0,1:2|0:0,0:0:0:0:
227,383,130970,2,0,P|179:328|193:257,1,150,10|0,0:0|0:0,0:0:0:0:
303,108,131362,6,0,P|287:206|271:305,1,200,2|8,1:2|0:0,0:0:0:0:
117,163,131951,2,0,P|166:169|204:139,1,100,2|0,0:0|1:0,0:0:0:0:
140,72,132343,1,2,0:0:0:0:
287,208,132539,5,10,0:0:0:0:
462,114,132735,1,2,0:0:0:0:
377,49,132931,2,0,P|369:98|361:147,1,100,2|0,1:2|1:0,0:0:0:0:
491,345,133323,2,0,P|498:295|506:246,1,100,10|0,0:0|1:0,0:0:0:0:
436,203,133617,5,8,0:0:0:0:
436,203,133715,2,0,P|375:243|305:224,1,150,2|0,1:2|0:0,0:0:0:0:
287,208,134107,1,10,0:0:0:0:
98,114,134304,2,0,P|107:160|115:212,1,100,2|0,0:0|1:0,0:0:0:0:
222,370,134696,2,0,P|250:330|237:284,1,100,2|8,0:0|0:0,0:0:0:0:
10,181,135088,6,0,P|108:164|207:149,1,200,2|0,0:0|0:0,0:0:0:0:
391,122,135676,1,8,0:0:0:0:
203,56,135872,1,0,0:0:0:0:
308,182,136068,2,0,P|300:133|292:84,1,100,0|2,1:0|1:2,0:0:0:0:
391,122,136460,1,10,0:0:0:0:
238,246,136656,5,0,1:0:0:0:
238,246,136754,1,8,0:0:0:0:
238,246,136853,2,0,P|307:225|365:268,1,150,2|0,1:2|0:0,0:0:0:0:
442,316,137245,2,0,P|372:296|316:342,1,150,10|0,0:0|0:0,0:0:0:0:
181,167,137637,6,0,B|151:207|196:256|208:246|253:294|217:347,1,200,2|8,1:2|0:0,0:0:0:0:
36,334,138225,2,0,P|85:324|134:316,1,100,2|0,0:0|1:0,0:0:0:0:
68,236,138617,1,2,0:0:0:0:
218,347,138813,5,10,0:0:0:0:
350,155,139009,1,2,0:0:0:0:
282,97,139205,2,0,P|255:138|266:185,1,100,2|0,1:2|1:0,0:0:0:0:
395,318,139598,2,0,P|402:268|411:219,1,100,10|0,0:0|1:0,0:0:0:0:
350,155,139892,5,8,0:0:0:0:
350,155,139990,2,0,B|310:184|261:140|271:128|223:83|170:118,1,200,6|10,1:2|0:0,0:0:0:0:
13,5,140578,1,2,0:0:0:0:
73,152,140774,2,0,P|81:102|90:53,1,100,0|2,1:0|0:0,0:0:0:0:
170,117,141166,1,8,0:0:0:0:
18,307,141362,6,0,P|91:243|186:262,1,200,6|0,1:2|1:0,0:0:0:0:
371,336,141951,1,10,0:0:0:0:
240,183,142147,1,2,0:0:0:0:
269,367,142343,2,0,P|276:318|285:268,1,100,0|0,1:2|1:0,0:0:0:0:
436,123,142735,1,8,0:0:0:0:
225,43,142931,5,0,1:0:0:0:
225,43,143029,1,8,0:0:0:0:
225,43,143127,2,0,P|279:90|351:76,1,150,6|0,1:2|0:0,0:0:0:0:
366,63,143519,1,10,0:0:0:0:
494,228,143715,2,0,P|420:213|346:201,1,150,2|0,0:0|0:0,0:0:0:0:
339,211,144107,2,0,P|347:260|354:309,1,100,2|8,0:0|0:0,0:0:0:0:
122,370,144500,6,0,P|109:295|95:222,1,150,2|0,1:2|0:0,0:0:0:0:
105,210,144892,1,2,1:2:0:0:
257,27,145088,2,0,P|303:81|278:147,1,150,10|0,0:0|0:0,0:0:0:0:
267,160,145480,2,0,P|219:151|163:141,1,100,2|0,1:2|0:0,0:0:0:0:
55,309,145872,2,0,P|128:322|202:336,1,150,8|0,0:0|0:0,0:0:0:0:
284,348,146264,6,0,P|335:297|414:308,1,150,2|0,1:2|0:0,0:0:0:0:
421,313,146656,1,10,0:0:0:0:
512,138,146853,2,0,P|460:188|382:178,1,150,2|0,0:0|0:0,0:0:0:0:
379,174,147245,2,0,P|363:128|393:90,1,100,2|8,1:2|0:0,0:0:0:0:
240,250,147637,6,0,P|166:236|92:223,1,150,2|0,1:2|0:0,0:0:0:0:
81,237,148029,1,2,1:2:0:0:
271,164,148225,1,10,0:0:0:0:
151,338,148421,2,0,P|167:239|183:140,1,200,2|0,1:2|1:0,0:0:0:0:
349,22,149009,1,10,0:0:0:0:
183,140,149205,1,2,0:0:0:0:
364,283,149402,6,0,B|293:217|334:143|390:138|416:179|406:186,1,200,6|8,1:2|0:0,0:0:0:0:
150,337,149990,6,0,P|294:263|457:264,1,320,6|2,1:2|1:2,0:0:0:0:
383,371,150578,5,10,0:0:0:0:
146,211,150774,1,6,1:2:0:0:
146,211,151362,6,0,B|119:175|159:130|170:139|210:96|178:49,1,180.000006866455,6|0,0:0|1:0,0:0:0:0:
355,195,152147,1,8,0:0:0:0:
413,108,152343,5,8,0:0:0:0:
413,108,152441,1,8,0:0:0:0:
413,108,152539,2,0,P|344:159|258:148,1,176.000005371094,6|8,1:2|0:0,0:0:0:0:
89,292,153127,2,0,P|133:298|176:307,1,88.000002685547,2|0,0:0|1:0,0:0:0:0:
370,207,153519,5,2,0:0:0:0:
430,267,153715,1,10,0:0:0:0:
490,327,153911,1,2,0:0:0:0:
355,195,154107,6,0,P|363:150|371:108,1,88.000002685547,2|0,1:2|0:0,0:0:0:0:
290,90,154401,2,0,P|282:133|274:176,1,88.000002685547,2|0,0:0|0:0,0:0:0:0:
299,253,154695,1,2,0:0:0:0:
36,261,154891,6,0,P|44:304|51:347,1,88.000002685547,2|0,1:2|0:0,0:0:0:0:
177,324,155186,2,0,P|168:280|161:237,1,88.000002685547,2|0,0:0|0:0,0:0:0:0:
87,185,155480,1,2,0:0:0:0:
235,2,155676,6,0,P|302:57|388:40,1,176.000005371094,2|8,1:2|0:0,0:0:0:0:
384,42,156264,1,0,0:0:0:0:
497,209,156460,2,0,P|504:165|512:122,1,88.000002685547,0|0,1:0|0:0,0:0:0:0:
313,202,156852,2,0,P|351:150|415:147,1,132.00000402832,10|0,0:0|0:0,0:0:0:0:
309,221,157244,6,0,P|225:205|135:189,1,176.000005371094,2|8,1:2|0:0,0:0:0:0:
135,189,157833,1,0,0:0:0:0:
245,112,158029,1,0,1:0:0:0:
245,112,158225,1,2,1:2:0:0:
168,327,158421,5,10,0:0:0:0:
157,286,158552,5,2,0:0:0:0:
119,269,158682,5,2,0:0:0:0:
77,271,158813,6,0,P|161:285|226:230,1,176.000005371094,6|8,1:2|0:0,0:0:0:0:
226,229,159401,1,0,0:0:0:0:
118,102,159597,2,0,P|126:145|134:188,1,88.000002685547,0|2,1:0|0:0,0:0:0:0:
432,255,159989,5,10,0:0:0:0:
473,256,160120,5,2,0:0:0:0:
502,228,160250,5,2,0:0:0:0:
498,183,160382,6,0,P|482:269|469:356,1,176.000005371094,2|8,1:2|0:0,0:0:0:0:
468,356,160970,1,0,0:0:0:0:
282,268,161166,2,0,P|290:311|298:354,1,88.000002685547,0|0,1:0|0:0,0:0:0:0:
376,198,161558,1,8,0:0:0:0:
376,198,161950,6,0,P|386:156|359:121,1,88.000002685547,6|0,1:2|0:0,0:0:0:0:
343,42,162244,2,0,P|301:54|284:95,1,88.000002685547,2|0,0:0|0:0,0:0:0:0:
248,169,162539,2,0,L|291:176,1,44.0000013427735,2|0,0:0|0:0,0:0:0:0:
428,256,162735,6,0,P|397:285|354:280,1,88.000002685547,2|0,1:2|0:0,0:0:0:0:
356,363,163029,2,0,P|313:362|286:328,1,88.000002685547,2|0,0:0|0:0,0:0:0:0:
216,372,163323,2,0,P|201:356|203:335,1,44.0000013427735,2|0,0:0|0:0,0:0:0:0:
248,169,163519,6,0,P|240:212|232:255,1,88.000002685547,2|0,1:2|0:0,0:0:0:0:
169,154,163813,2,0,P|161:197|153:240,1,88.000002685547,2|0,0:0|0:0,0:0:0:0:
83,170,164107,2,0,L|76:214,1,44.0000013427735,2|0,0:0|0:0,0:0:0:0:
50,384,164303,5,0,1:0:0:0:
50,384,164499,1,0,1:0:0:0:
20,303,164695,2,0,P|62:294|101:316,1,88.000002685547,8|0,0:0|1:0,0:0:0:0:
163,377,164989,5,8,0:0:0:0:
163,377,165088,2,0,P|240:363|322:347,1,132.00000402832,6|0,1:2|0:0,0:0:0:0:
370,339,165480,1,10,0:0:0:0:
386,322,165578,1,2,0:0:0:0:
364,316,165676,1,2,0:0:0:0:
304,191,165872,2,0,P|280:226|291:267,1,88.000002685547,0|0,1:0|0:0,0:0:0:0:
467,358,166264,6,0,P|476:292|489:227,1,132.00000402832,10|0,0:0|0:0,0:0:0:0:
512,153,166656,1,2,1:2:0:0:
503,130,166754,1,2,0:0:0:0:
487,147,166852,1,2,0:0:0:0:
354,19,167048,1,8,0:0:0:0:
291,105,167244,5,2,0:0:0:0:
294,79,167342,1,2,0:0:0:0:
312,94,167440,1,2,1:2:0:0:
487,8,167637,1,0,1:0:0:0:
348,168,167833,2,0,P|282:156|217:147,1,132.00000402832,8|0,0:0|0:0,0:0:0:0:
202,146,168225,5,12,0:2:0:0:
22,235,168421,1,0,1:0:0:0:
189,152,168617,5,8,0:0:0:0:
79,318,168813,1,0,1:0:0:0:
183,164,169009,5,8,0:0:0:0:
171,363,169205,1,0,1:0:0:0:
184,176,169401,5,8,0:0:0:0:
273,356,169597,1,0,1:0:0:0:
190,187,169793,5,8,0:0:0:0:
357,297,169989,1,0,1:0:0:0:
202,193,170186,5,8,0:0:0:0:
402,205,170382,1,0,1:0:0:0:
215,192,170578,5,8,0:0:0:0:
393,102,170774,1,0,1:0:0:0:
182,18,170970,5,8,0:0:0:0:
194,38,171068,1,8,0:0:0:0:
208,60,171166,1,8,0:0:0:0:
221,82,171264,1,8,0:0:0:0:
231,100,171362,5,12,0:0:0:0:
308,52,171558,5,8,0:0:0:0:
401,89,171754,5,8,0:0:0:0:
439,197,171950,5,8,0:0:0:0:
373,335,172146,5,8,0:0:0:0:
193,365,172342,5,8,0:0:0:0:
2,215,172539,5,8,0:0:0:0:
34,205,172637,1,8,0:0:0:0:
67,215,172735,1,8,0:0:0:0:
90,241,172833,1,8,0:0:0:0:
99,269,172931,6,0,P|111:190|126:111,1,160,6|0,1:2|1:0,0:0:0:0:
34,57,174009,5,0,1:0:0:0:
34,57,174107,2,0,P|117:73|182:17,1,176.000005371094,8|4,0:0|0:0,0:0:0:0:
448,288,175872,6,0,P|359:302|270:319,1,180.000006866455,4|0,0:2|0:0,0:0:0:0:
210,265,176264,6,0,B|187:243|187:243|161:255,1,60.0000022888184,4|0,0:2|0:0,0:0:0:0:
147,336,176460,2,0,B|169:357|169:357|195:345,1,60.0000022888184,4|0,0:2|0:0,0:0:0:0:
384,64,177048,5,0,1:0:0:0:
384,64,177146,1,0,1:0:0:0:
384,64,177244,2,0,B|394:51|394:24|394:24|408:51|428:56,1,90.0000034332277,4|0,1:2|0:0,0:0:0:0:
499,134,177637,6,0,P|425:146|351:161,1,150,6|0,1:2|0:0,0:0:0:0:
334,165,178029,1,10,0:0:0:0:
161,1,178225,2,0,P|151:50|141:99,1,100,2|0,0:0|1:0,0:0:0:0:
298,271,178617,2,0,P|249:279|201:291,1,100,2|8,0:0|0:0,0:0:0:0:
44,158,179009,6,0,P|135:134|221:193,1,200,2|0,0:0|0:0,0:0:0:0:
56,43,179597,1,8,0:0:0:0:
218,189,179793,1,0,0:0:0:0:
106,321,179989,2,0,P|90:275|119:236,1,100,0|2,1:0|1:2,0:0:0:0:
280,107,180382,1,10,0:0:0:0:
512,245,180578,5,0,1:0:0:0:
512,245,180676,1,8,0:0:0:0:
512,245,180774,2,0,P|438:258|364:272,1,150,2|0,1:2|0:0,0:0:0:0:
291,325,181166,2,0,P|334:266|313:197,1,150,10|0,0:0|0:0,0:0:0:0:
357,45,181558,6,0,P|281:105|185:93,1,200,2|8,1:2|0:0,0:0:0:0:
102,265,182146,2,0,P|110:215|120:166,1,100,2|0,0:0|1:0,0:0:0:0:
21,197,182539,1,2,0:0:0:0:
204,231,182735,5,10,0:0:0:0:
45,98,182931,1,2,0:0:0:0:
204,231,183127,2,0,P|253:223|302:214,1,100,2|0,1:2|1:0,0:0:0:0:
430,44,183519,2,0,P|402:84|416:130,1,100,10|0,0:0|1:0,0:0:0:0:
487,183,183813,5,8,0:0:0:0:
487,183,183911,2,0,P|468:280|445:404,1,200,6|8,1:2|0:0,0:0:0:0:
302,213,184499,1,2,0:0:0:0:
358,365,184695,2,0,P|367:315|376:266,1,100,0|2,1:0|0:0,0:0:0:0:
272,305,185088,1,8,0:0:0:0:
487,183,185284,6,0,B|430:210|389:159|400:149|358:97|314:121,1,200,6|0,1:2|1:0,0:0:0:0:
141,229,185872,1,8,0:0:0:0:
314,121,186068,1,0,0:0:0:0:
213,88,186264,2,0,P|222:138|230:187,1,100,2|0,1:2|1:0,0:0:0:0:
286,27,186656,1,10,0:0:0:0:
90,147,186852,5,0,1:0:0:0:
90,147,186950,1,8,0:0:0:0:
90,147,187048,2,0,P|160:130|221:171,1,150,6|0,1:2|0:0,0:0:0:0:
230,186,187440,1,10,0:0:0:0:
384,49,187637,2,0,P|423:110|405:180,1,150,2|0,0:0|0:0,0:0:0:0:
415,183,188029,2,0,P|436:135|422:85,1,100,2|8,0:0|0:0,0:0:0:0:
462,323,188421,6,0,P|387:311|313:299,1,150,2|0,1:2|0:0,0:0:0:0:
304,289,188813,1,2,1:2:0:0:
102,380,189009,2,0,P|121:310|78:252,1,150,10|0,0:0|0:0,0:0:0:0:
74,262,189401,2,0,P|103:300|151:301,1,100,2|0,1:2|0:0,0:0:0:0:
377,382,189793,2,0,P|388:307|400:233,1,150,8|0,0:0|0:0,0:0:0:0:
450,156,190186,6,0,P|393:202|321:190,1,150,2|0,1:2|0:0,0:0:0:0:
308,176,190578,1,10,0:0:0:0:
149,15,190774,2,0,P|98:66|115:136,1,150,2|0,0:0|0:0,0:0:0:0:
129,145,191166,2,0,P|178:135|227:126,1,100,2|8,1:2|0:0,0:0:0:0:
476,8,191558,6,0,P|461:83|446:181,1,150,2|0,1:2|0:0,0:0:0:0:
447,173,191950,1,2,1:2:0:0:
268,347,192146,1,10,0:0:0:0:
512,318,192342,2,0,P|432:262|338:285,1,200,2|0,1:2|1:0,0:0:0:0:
130,158,192931,1,10,0:0:0:0:
338,284,193127,1,2,0:0:0:0:
264,105,193323,6,0,B|288:151|235:191|226:184|175:221|201:277,1,200,6|8,1:2|0:0,0:0:0:0:
194,36,193911,6,0,P|232:192|267:352,1,320,6|2,1:2|1:2,0:0:0:0:
121,322,194499,5,10,0:0:0:0:
339,61,194695,1,6,1:2:0:0:
339,61,195284,6,0,P|423:43|487:102,1,180.000006866455,6|0,0:0|1:0,0:0:0:0:
312,201,196068,1,8,0:0:0:0:
415,238,196264,5,8,0:0:0:0:
415,238,196362,1,8,0:0:0:0:
415,238,196460,2,0,P|407:188|398:140,1,100,6|0,1:2|0:0,0:0:0:0:
512,276,196852,1,10,0:0:0:0:
312,201,197048,1,2,1:2:0:0:
312,201,197146,1,8,0:0:0:0:
312,201,197244,1,0,1:0:0:0:
436,344,197440,1,0,1:0:0:0:
487,103,197637,1,8,0:0:0:0:
338,314,197833,6,0,P|241:296|140:280,1,200,2|0,1:2|1:0,0:0:0:0:
89,102,198421,5,8,0:0:0:0:
245,262,198617,1,0,1:0:0:0:
336,48,198813,5,8,0:0:0:0:
165,184,199009,1,0,1:0:0:0:
338,314,199205,5,8,0:0:0:0:
358,299,199303,1,8,0:0:0:0:
379,286,199401,1,8,0:0:0:0:
399,272,199499,1,8,0:0:0:0:
418,260,199597,6,0,B|462:246|485:191|485:191|475:249|507:285,1,200,6|8,1:2|0:0,0:0:0:0:
342,67,200186,6,0,B|305:138|385:205|403:188|483:253|439:344,1,320,6|2,1:2|1:2,0:0:0:0:
498,82,200774,5,10,0:0:0:0:
461,66,200872,1,8,0:0:0:0:
433,96,200970,1,6,1:2:0:0:
433,96,201558,6,0,P|351:80|285:69,1,150,6|0,0:0|0:0,0:0:0:0:
263,65,201950,5,8,0:0:0:0:
93,195,202146,1,0,1:0:0:0:
60,2,202342,1,8,0:0:0:0:
172,129,202539,5,8,0:0:0:0:
172,129,202637,1,8,0:0:0:0:
172,129,202735,2,0,P|163:79|152:27,1,100,6|0,1:2|0:0,0:0:0:0:
68,97,203127,1,10,0:0:0:0:
244,196,203323,2,0,P|294:187|346:176,1,100,2|0,0:0|1:0,0:0:0:0:
274,99,203715,1,0,1:0:0:0:
397,251,203911,1,10,0:0:0:0:
512,17,204107,6,0,B|545:68|500:115|487:106|443:154|471:196,1,200,2|0,1:2|1:0,0:0:0:0:
512,384,204695,5,8,0:0:0:0:
431,335,204891,5,8,0:0:0:0:
309,260,205088,5,8,0:0:0:0:
170,167,205284,5,8,0:0:0:0:
2,50,205480,5,8,0:0:0:0:
25,30,205578,1,8,0:0:0:0:
54,26,205676,1,8,0:0:0:0:
82,37,205774,1,8,0:0:0:0:
96,64,205872,6,0,P|79:149|63:250,1,176.000005371094,6|10,1:2|0:0,0:0:0:0:
195,376,206460,1,2,0:0:0:0:
64,237,206656,1,2,1:2:0:0:
223,283,206852,2,0,P|179:290|136:297,1,88.000002685547,2|10,0:0|0:0,0:0:0:0:
20,106,207244,6,0,P|65:151|128:144,1,132.00000402832,2|0,1:2|0:0,0:0:0:0:
144,131,207636,2,0,P|137:88|128:42,1,88.000002685547,2|8,1:2|0:0,0:0:0:0:
238,179,208028,1,2,0:0:0:0:
420,74,208224,1,0,1:0:0:0:
420,74,208421,1,2,1:2:0:0:
310,25,208617,2,0,P|322:89|333:154,1,132.00000402832,8|0,0:0|0:0,0:0:0:0:
340,175,209009,6,0,P|423:155|494:202,1,176.000005371094,2|10,1:2|0:0,0:0:0:0:
385,359,209597,2,0,P|301:378|230:331,1,176.000005371094,2|2,0:0|0:0,0:0:0:0:
82,187,210185,1,8,0:0:0:0:
131,380,210381,6,0,P|142:314|154:250,1,132.00000402832,2|0,1:2|0:0,0:0:0:0:
170,237,210773,2,0,P|205:213|246:224,1,88.000002685547,2|8,1:2|0:0,0:0:0:0:
443,122,211166,2,0,P|397:165|332:154,1,132.00000402832,2|0,0:0|0:0,0:0:0:0:
309,141,211558,2,0,P|316:99|324:54,1,88.000002685547,2|8,1:2|0:0,0:0:0:0:
113,13,211950,5,0,1:0:0:0:
113,13,212048,1,8,0:0:0:0:
113,13,212146,2,0,P|97:99|81:188,1,176.000005371094,6|10,1:2|0:0,0:0:0:0:
201,340,212734,1,2,0:0:0:0:
81,186,212930,1,2,1:2:0:0:
58,278,213126,2,0,P|99:288|135:265,1,88.000002685547,2|10,0:0|0:0,0:0:0:0:
290,376,213519,6,0,P|354:363|419:352,1,132.00000402832,2|0,1:2|0:0,0:0:0:0:
427,345,213911,2,0,P|434:301|442:258,1,88.000002685547,2|8,1:2|0:0,0:0:0:0:
288,132,214303,1,2,0:0:0:0:
482,63,214499,1,0,1:0:0:0:
482,63,214695,1,2,1:2:0:0:
396,2,214891,2,0,P|388:46|381:89,1,88.000002685547,8|8,0:0|0:0,0:0:0:0:
379,101,215185,1,8,0:0:0:0:
378,111,215283,5,6,1:2:0:0:
291,30,215479,1,2,0:0:0:0:
464,162,215675,1,10,0:0:0:0:
278,21,215872,6,0,P|212:31|147:43,1,132.00000402832,6|0,1:2|0:0,0:0:0:0:
133,47,216264,1,10,0:0:0:0:
47,260,216460,6,0,B|-62:194|-26:85|46:67|85:116|72:130,1,264.000008056641,6|0,1:2|1:0,0:0:0:0:
243,200,217244,5,8,0:0:0:0:
155,263,217440,1,0,1:0:0:0:
320,331,217636,5,6,0:0:0:0:
72,129,217832,1,6,0:0:0:0:
355,247,218224,5,8,0:3:0:0:
355,247,218322,1,8,0:3:0:0:
355,247,218421,2,0,B|373:192|416:169|463:177|483:209|542:174|567:100|534:51|458:22|443:50|411:64|411:64|397:33|405:2|328:-27|270:-12|239:58|261:124|296:114|336:139|348:184|345:223,1,743.999977294923,6|0,1:2|0:0,0:0:0:0:
