osu file format v14

[General]
AudioFilename: audio.mp3
AudioLeadIn: 0
PreviewTime: 129943
Countdown: 0
SampleSet: Soft
StackLeniency: 0.4
Mode: 0
LetterboxInBreaks: 0
WidescreenStoryboard: 1

[Editor]
Bookmarks: 8228,20777,33326,45875,55286,61561,89796,102345,114894,124306,130580,152541,177639,205875,224502
DistanceSpacing: 1.3
BeatDivisor: 4
GridSize: 32
TimelineZoom: 2.2

[Metadata]
Title:Zutto
TitleUnicode:ずっと
Artist:Hazuki
ArtistUnicode:葉月
Creator:Iceluin
Version:Hard
Source:RIDDLE JOKER
Tags:リドルジョーカー visual novel vn eroge arihara nanami japanese pop j-pop jpop ending ed yuzusoft ゆずソフト video game 在原 七海 在原七海 little sister imouto siscon ギャルゲー galgame エロゲー
BeatmapID:4075717
BeatmapSetID:1964088

[Difficulty]
HPDrainRate:5
CircleSize:3.5
OverallDifficulty:6
ApproachRate:7.5
SliderMultiplier:1.4
SliderTickRate:1

[Events]
//Background and Video events
0,0,"bg.jpg",0,0
//Break Periods
//Storyboard Layer 0 (Background)
//Storyboard Layer 1 (Fail)
//Storyboard Layer 2 (Pass)
//Storyboard Layer 3 (Foreground)
//Storyboard Layer 4 (Overlay)
//Storyboard Sound Samples

[TimingPoints]
385,392.156862745098,4,2,1,60,1,0
7836,-133.333333333333,4,2,1,60,0,0
8228,392.156862745098,4,2,1,75,1,0
8228,-100,4,2,1,75,0,0
20777,-133.333333333333,4,2,1,50,0,0
33326,-100,4,2,1,70,0,0
45875,-111.111111111111,4,2,1,60,0,0
55286,392.156862745098,4,2,1,70,1,0
55286,-100,4,2,1,70,0,0
61560,-86.9565217391304,4,2,1,85,0,1
89795,392.156862745098,4,2,1,50,1,0
89795,-133.333333333333,4,2,1,50,0,0
102344,-100,4,2,1,70,0,0
114893,-111.111111111111,4,2,1,60,0,0
124304,392.156862745098,4,2,1,70,1,0
124304,-100,4,2,1,70,0,0
130578,-86.9565217391304,4,2,1,85,0,1
152539,392.156862745098,4,2,1,75,1,0
152539,-100,4,2,1,75,0,0
172931,-133.333333333333,4,2,1,75,0,0
174107,-100,4,2,1,75,0,0
177048,-100,4,2,1,60,0,0
177244,-133.333333333333,4,2,1,60,0,0
177637,-86.9565217391304,4,2,1,85,0,1
205872,392.156862745098,4,2,1,75,1,0
205872,-100,4,2,1,75,0,0
218421,-250,4,2,1,75,0,0
218470,-250,4,2,1,5,0,0
224499,-250,4,2,1,15,0,0

[Colours]
Combo1 : 210,210,210
Combo2 : 255,255,128
Combo3 : 255,128,128

[HitObjects]
96,288,7640,5,0,1:0:0:0:
96,288,7738,1,0,1:0:0:0:
96,288,7836,2,0,P|133:281|163:305,1,78.7500030040742,12|0,0:2|0:0,0:0:0:0:
195,337,8228,6,0,P|263:323|332:312,1,140,6|10,1:2|0:0,0:0:0:0:
416,346,8816,1,2,0:0:0:0:
478,279,9012,2,0,P|484:244|490:210,1,70,2|2,1:2|0:0,0:0:0:0:
440,133,9404,1,10,0:0:0:0:
482,52,9600,6,0,P|429:95|362:84,1,140,2|2,1:2|1:2,0:0:0:0:
286,134,10188,2,0,P|251:127|217:121,1,70,8|2,0:0|0:0,0:0:0:0:
161,56,10580,1,0,1:0:0:0:
161,56,10777,1,2,1:2:0:0:
78,94,10973,2,0,P|88:146|97:198,1,105,8|0,0:0|0:0,0:0:0:0:
63,228,11365,6,0,P|21:281|56:345,1,140,2|10,1:2|0:0,0:0:0:0:
131,378,11953,2,0,P|199:365|268:353,1,140,2|2,0:0|0:0,0:0:0:0:
320,278,12541,1,8,0:0:0:0:
246,224,12737,6,0,P|237:172|226:120,1,105,2|0,1:2|0:0,0:0:0:0:
253,84,13129,2,0,P|287:80|316:102,1,70,2|8,1:2|0:0,0:0:0:0:
386,43,13522,2,0,P|437:53|489:62,1,105,2|0,0:0|0:0,0:0:0:0:
512,102,13914,2,0,P|505:136|499:170,1,70,2|8,1:2|0:0,0:0:0:0:
483,266,14306,5,0,1:0:0:0:
483,266,14404,1,8,0:0:0:0:
483,266,14502,2,0,P|415:252|346:241,1,140,6|10,1:2|0:0,0:0:0:0:
289,168,15090,1,2,0:0:0:0:
217,224,15286,2,0,P|223:258|228:292,1,70,2|2,1:2|0:0,0:0:0:0:
172,364,15678,1,10,0:0:0:0:
91,319,15875,6,0,P|80:249|65:181,1,140,2|2,1:2|1:2,0:0:0:0:
127,115,16463,2,0,P|161:122|195:127,1,70,8|2,0:0|0:0,0:0:0:0:
270,74,16855,1,0,1:0:0:0:
270,74,17051,1,2,1:2:0:0:
321,148,17247,2,0,P|353:153|389:160,1,70,8|8,0:0|0:0,0:0:0:0:
430,137,17541,5,8,0:0:0:0:
430,137,17639,1,6,1:2:0:0:
484,210,17835,1,2,0:0:0:0:
412,266,18031,1,10,0:0:0:0:
455,347,18228,6,0,P|402:304|335:314,1,140,6|10,1:2|0:0,0:0:0:0:
260,366,18816,2,0,P|156:346|53:328,1,210,6|0,1:2|1:0,0:0:0:0:
16,245,19600,1,8,0:0:0:0:
16,245,19796,1,0,1:0:0:0:
84,185,19992,5,6,0:0:0:0:
11,65,20188,1,6,0:0:0:0:
11,65,20777,6,0,P|63:57|114:48,1,105.000004005432,4|2,1:2|1:2,0:0:0:0:
174,113,21365,1,0,0:0:0:0:
249,65,21561,2,0,P|253:40|259:14,2,52.5000020027161,2|2|2,1:2|0:0|1:2,0:0:0:0:
313,127,22149,2,0,P|364:117|416:109,1,105.000004005432,2|0,0:0|0:0,0:0:0:0:
483,176,22737,1,2,1:2:0:0:
483,176,22933,2,0,P|468:253|455:331,1,157.500006008148,2|0,0:0|1:0,0:0:0:0:
455,330,23914,6,0,P|404:321|365:353,1,105.000004005432,0|2,1:0|1:2,0:0:0:0:
296,295,24502,1,0,0:0:0:0:
228,353,24698,2,0,P|200:358|169:364,2,52.5000020027161,2|2|2,1:2|0:0|1:2,0:0:0:0:
214,263,25286,2,0,P|162:273|110:283,1,105.000004005432,2|0,0:0|0:0,0:0:0:0:
43,233,25875,1,2,1:2:0:0:
43,233,26071,2,0,B|18:200|53:162|63:170|97:132|70:91,1,157.500006008148,2|0,0:0|1:0,0:0:0:0:
70,91,27051,6,0,P|122:81|174:71,1,105.000004005432,0|2,1:0|1:2,0:0:0:0:
249,117,27639,1,0,0:0:0:0:
194,187,27835,2,0,L|143:197,2,52.5000020027161,2|2|2,1:2|0:0|1:2,0:0:0:0:
274,225,28424,2,0,P|264:276|256:328,1,105.000004005432,2|0,0:0|0:0,0:0:0:0:
332,383,29012,1,2,1:2:0:0:
332,383,29208,1,2,0:0:0:0:
479,303,29600,6,0,L|489:251,1,52.5000020027161,2|2,0:0|1:2,0:0:0:0:
511,165,29992,2,0,P|461:154|420:193,1,105.000004005432,2|2,0:0|0:0,0:0:0:0:
349,136,30580,2,0,L|297:146,1,52.5000020027161,2|2,1:2|0:0,0:0:0:0:
136,67,31169,2,0,L|145:15,2,52.5000020027161,2|2|2,0:0|1:2|0:0,0:0:0:0:
61,119,31757,5,6,1:2:0:0:
61,119,31953,1,8,0:0:0:0:
112,192,32149,2,0,L|102:243,1,52.5000020027161,8|8,0:0|0:3,0:0:0:0:
99,291,32443,1,8,0:3:0:0:
99,291,32541,1,8,0:0:0:0:
159,356,32737,1,8,0:3:0:0:
232,305,32933,1,8,0:0:0:0:
305,373,33129,5,8,0:0:0:0:
305,373,33228,1,8,0:0:0:0:
305,373,33326,2,0,P|373:360|442:349,1,140,4|10,1:2|0:0,0:0:0:0:
492,272,33914,1,0,0:0:0:0:
418,217,34110,2,0,P|423:183|430:148,1,70,2|2,1:2|0:0,0:0:0:0:
507,100,34502,1,10,0:0:0:0:
448,30,34698,6,0,P|382:13|326:52,1,140,2|0,0:0|0:0,0:0:0:0:
253,105,35286,1,10,0:0:0:0:
185,44,35482,1,2,0:0:0:0:
112,98,35678,2,0,L|124:166,1,70,0|0,1:0|1:0,0:0:0:0:
99,255,36071,2,0,P|96:305|137:334,1,105,8|0,0:0|0:0,0:0:0:0:
179,317,36463,6,0,P|248:327|316:342,1,140,0|10,1:0|0:0,0:0:0:0:
387,284,37051,1,2,0:0:0:0:
395,278,37149,1,2,0:0:0:0:
403,273,37247,2,0,P|409:239|414:204,2,70,2|2|10,1:2|0:0|0:0,0:0:0:0:
490,296,37835,6,0,B|506:183|506:183|491:161,1,140,2|0,0:0|0:0,0:0:0:0:
438,87,38424,1,10,0:0:0:0:
360,134,38620,2,0,L|290:116,1,70,2|0,0:0|1:0,0:0:0:0:
219,171,39012,1,0,1:0:0:0:
263,250,39208,2,0,L|249:291,3,35,10|2|2|2,0:0|0:0|0:0|0:0,0:0:0:0:
239,302,39600,6,0,P|169:313|101:325,1,140,2|10,1:2|0:0,0:0:0:0:
24,274,40188,1,2,0:0:0:0:
75,199,40384,2,0,P|68:164|62:130,1,70,2|0,1:2|0:0,0:0:0:0:
155,115,40777,1,10,0:0:0:0:
155,115,40973,2,0,P|161:150|167:183,1,70,2|0,0:0|1:0,0:0:0:0:
304,303,41561,5,10,0:0:0:0:
230,358,41757,2,0,P|296:342|353:379,1,140,2|2,1:2|1:2,0:0:0:0:
434,335,42345,1,10,0:0:0:0:
434,335,42541,2,0,P|441:301|423:272,1,70,2|0,0:0|1:0,0:0:0:0:
348,220,42933,5,2,0:0:0:0:
416,159,43129,1,10,0:0:0:0:
485,99,43326,1,2,1:2:0:0:
485,99,43718,5,2,1:2:0:0:
405,53,43914,1,10,0:0:0:0:
328,7,44110,2,0,P|258:18|190:31,1,140,6|0,1:2|1:0,0:0:0:0:
131,100,44698,2,0,P|137:134|141:169,1,70,8|0,0:0|1:0,0:0:0:0:
73,229,45090,2,0,P|79:263|83:298,1,70,8|0,0:0|1:0,0:0:0:0:
175,347,45482,1,8,0:0:0:0:
175,347,45580,1,8,0:0:0:0:
175,347,45678,1,8,0:3:0:0:
233,272,45875,6,0,P|295:283|357:293,1,125.999996154785,6|8,1:2|0:0,0:0:0:0:
425,359,46463,2,0,P|405:301|444:251,1,125.999996154785,8|8,1:3|0:3,0:0:0:0:
511,189,47051,1,8,1:3:0:0:
511,189,47247,1,4,0:3:0:0:
463,107,47443,1,0,1:0:0:0:
324,238,47835,5,8,0:0:0:0:
283,152,48031,2,0,P|342:136|391:171,1,125.999996154785,8|8,1:3|0:3,0:0:0:0:
441,252,48620,1,0,1:0:0:0:
381,326,48816,5,8,0:3:0:0:
381,326,48914,1,8,0:3:0:0:
381,326,49012,2,0,P|318:335|256:347,1,125.999996154785,0|8,1:0|0:0,0:0:0:0:
187,283,49600,2,0,P|124:292|62:304,1,125.999996154785,8|8,1:3|0:3,0:0:0:0:
0,237,50188,1,8,1:3:0:0:
0,237,50384,1,4,0:3:0:0:
68,171,50580,5,0,1:0:0:0:
0,104,50777,2,0,P|-8:72|15:48,1,62.9999980773926,2|8,0:0|0:0,0:0:0:0:
92,6,51169,2,0,P|154:16|216:26,1,125.999996154785,8|8,1:3|0:3,0:0:0:0:
275,100,51757,1,0,1:0:0:0:
355,47,51953,5,8,0:3:0:0:
355,47,52051,1,8,0:3:0:0:
355,47,52149,2,0,P|402:10|463:27,1,125.999996154785,0|8,1:0|0:0,0:0:0:0:
512,107,52737,2,0,P|500:168|489:230,1,125.999996154785,8|8,1:3|0:3,0:0:0:0:
413,285,53326,1,8,1:3:0:0:
413,285,53522,1,4,0:3:0:0:
351,212,53718,1,0,1:0:0:0:
202,330,54110,5,8,0:0:0:0:
146,253,54306,2,0,B|172:233|172:233|264:249,1,125.999996154785,8|8,1:3|0:3,0:0:0:0:
351,212,54894,1,0,1:0:0:0:
292,142,55090,5,8,0:0:0:0:
292,142,55188,1,8,0:0:0:0:
292,142,55286,2,0,L|304:73,1,70,6|0,1:2|0:0,0:0:0:0:
236,12,55678,2,0,P|203:2|175:21,1,70,10|0,0:0|0:0,0:0:0:0:
103,76,56070,1,2,1:2:0:0:
103,76,56266,1,0,1:0:0:0:
35,14,56462,2,0,P|9:36|10:70,1,70,10|2,0:0|0:0,0:0:0:0:
46,154,56854,6,0,P|30:235|21:291,1,140,0|10,1:0|0:0,0:0:0:0:
80,361,57442,1,0,0:0:0:0:
157,313,57638,2,0,L|225:325,1,70,2|0,1:2|1:0,0:0:0:0:
305,281,58031,1,10,0:0:0:0:
368,345,58227,6,0,L|359:395,2,35,0|8|6,1:0|0:0|1:2,0:0:0:0:
445,296,58619,1,0,1:0:0:0:
445,296,58815,1,0,1:0:0:0:
379,233,59011,1,4,1:2:0:0:
454,180,59207,1,0,1:0:0:0:
454,180,59403,1,0,1:0:0:0:
399,104,59599,1,8,0:0:0:0:
442,23,59795,6,0,P|389:66|323:53,1,140,6|0,1:2|1:0,0:0:0:0:
246,4,60384,1,8,0:0:0:0:
190,76,60580,2,0,P|202:144|215:213,1,140,4|2,1:2|1:2,0:0:0:0:
287,270,61168,1,10,0:0:0:0:
300,294,61266,1,8,0:0:0:0:
299,321,61364,1,8,0:0:0:0:
283,344,61462,1,8,0:0:0:0:
254,358,61560,6,0,P|194:346|135:336,1,120.750002303124,6|0,1:2|0:0,0:0:0:0:
94,355,61952,2,0,P|58:309|75:253,1,120.750002303124,10|0,0:0|0:0,0:0:0:0:
104,220,62344,2,0,L|89:140,1,80.5000015354157,2|0,1:2|0:0,0:0:0:0:
15,84,62736,1,8,0:0:0:0:
69,9,62933,6,0,P|139:22|254:43,1,161.000003070831,2|2,0:0|0:0,0:0:0:0:
312,1,63521,2,0,P|351:7|391:14,1,80.5000015354157,10|2,0:0|0:0,0:0:0:0:
454,89,63913,1,2,1:2:0:0:
454,89,64109,1,0,1:0:0:0:
374,135,64305,2,0,P|381:174|387:214,1,80.5000015354157,10|0,0:0|1:0,0:0:0:0:
400,263,64599,5,8,0:0:0:0:
400,263,64697,2,0,P|325:240|262:286,1,161.000003070831,2|10,1:2|0:0,0:0:0:0:
184,336,65286,2,0,L|104:321,1,80.5000015354157,2|0,0:0|1:0,0:0:0:0:
48,248,65678,2,0,P|36:211|58:179,1,80.5000015354157,2|8,0:0|0:0,0:0:0:0:
137,129,66070,6,0,B|170:103|209:139|201:149|239:183|281:156,1,161.000003070831,2|0,0:0|0:0,0:0:0:0:
348,219,66658,1,8,0:0:0:0:
428,173,66854,2,0,L|441:93,1,80.5000015354157,0|0,0:0|1:0,0:0:0:0:
383,22,67246,1,2,1:2:0:0:
304,70,67442,1,10,0:0:0:0:
184,13,67638,5,0,1:0:0:0:
184,13,67736,1,8,0:0:0:0:
184,13,67835,2,0,P|124:24|65:34,1,120.750002303124,2|0,1:2|0:0,0:0:0:0:
32,68,68227,2,0,P|43:127|53:186,1,120.750002303124,10|0,0:0|0:0,0:0:0:0:
25,222,68619,2,0,P|2:256|12:292,1,80.5000015354157,2|0,1:2|0:0,0:0:0:0:
66,366,69011,1,8,0:0:0:0:
143,315,69207,6,0,P|222:328|301:343,1,161.000003070831,2|2,0:0|0:0,0:0:0:0:
384,299,69795,1,10,0:0:0:0:
384,299,69991,1,2,0:0:0:0:
327,222,70187,2,0,P|333:182|340:142,1,80.5000015354157,2|0,1:2|1:0,0:0:0:0:
249,126,70580,2,0,P|242:165|235:205,1,80.5000015354157,10|0,0:0|1:0,0:0:0:0:
203,237,70874,5,8,0:0:0:0:
203,237,70972,2,0,P|123:222|44:208,1,161.000003070831,6|8,1:2|0:0,0:0:0:0:
0,127,71560,2,0,P|-9:89|15:59,1,80.5000015354157,2|0,0:0|1:0,0:0:0:0:
91,6,71952,2,0,L|170:21,1,80.5000015354157,2|8,0:0|0:0,0:0:0:0:
227,93,72344,6,0,P|306:78|385:64,1,161.000003070831,6|0,1:2|1:0,0:0:0:0:
460,117,72933,1,10,0:0:0:0:
410,195,73129,1,2,0:0:0:0:
485,249,73325,2,0,L|471:328,1,80.5000015354157,0|0,1:2|1:0,0:0:0:0:
391,375,73717,1,8,0:0:0:0:
275,298,73913,5,0,1:0:0:0:
275,298,74011,1,8,0:0:0:0:
275,298,74109,2,0,L|116:329,1,161.000003070831,6|10,1:2|0:0,0:0:0:0:
32,383,74697,2,0,L|18:303,1,80.5000015354157,2|0,0:0|1:0,0:0:0:0:
85,240,75089,2,0,L|71:160,1,80.5000015354157,2|8,0:0|0:0,0:0:0:0:
13,82,75482,6,0,P|76:126|152:106,1,161.000003070831,2|2,1:2|1:2,0:0:0:0:
228,159,76070,2,0,P|287:147|346:137,1,120.750002303124,10|0,0:0|0:0,0:0:0:0:
391,125,76462,2,0,L|404:45,1,80.5000015354157,2|0,1:2|0:0,0:0:0:0:
495,63,76854,2,0,P|483:122|473:181,1,120.750002303124,8|0,0:0|0:0,0:0:0:0:
462,226,77246,6,0,P|384:214|324:264,1,161.000003070831,2|10,1:2|0:0,0:0:0:0:
265,336,77835,2,0,P|229:289|236:231,1,120.750002303124,2|0,0:0|0:0,0:0:0:0:
262,192,78227,2,0,L|248:112,1,80.5000015354157,2|8,1:2|0:0,0:0:0:0:
319,53,78619,6,0,P|273:15|216:25,1,120.750002303124,2|0,1:2|0:0,0:0:0:0:
179,52,79011,1,2,1:2:0:0:
97,7,79207,1,10,0:0:0:0:
36,77,79403,2,0,P|50:156|63:235,1,161.000003070831,2|0,1:2|1:0,0:0:0:0:
9,310,79991,1,10,0:0:0:0:
89,356,80187,1,2,0:0:0:0:
194,276,80384,6,0,B|227:302|266:266|258:256|296:222|338:249,1,161.000003070831,6|8,1:2|0:0,0:0:0:0:
369,337,80972,2,0,P|383:257|398:178,1,161.000003070831,6|2,1:2|1:2,0:0:0:0:
474,127,81560,1,10,0:0:0:0:
417,54,81756,1,6,1:2:0:0:
417,54,82344,6,0,B|367:93|308:38|320:23|263:-27|200:13,1,241.500004606247,6|0,0:0|1:0,0:0:0:0:
134,78,83129,1,8,0:0:0:0:
7,20,83325,5,8,0:0:0:0:
7,20,83423,1,8,0:0:0:0:
7,20,83521,2,0,P|20:99|33:178,1,161.000003070831,6|10,1:2|0:0,0:0:0:0:
107,234,84109,2,0,P|146:227|186:220,1,80.5000015354157,2|0,0:0|1:0,0:0:0:0:
245,149,84501,1,0,1:0:0:0:
323,198,84697,1,10,0:0:0:0:
385,129,84893,6,0,B|414:150|414:150|431:273,1,161.000003070831,6|0,1:2|1:0,0:0:0:0:
374,347,85482,1,8,0:0:0:0:
300,299,85678,1,2,1:2:0:0:
300,299,85776,1,8,0:0:0:0:
300,299,85874,2,0,L|221:313,1,80.5000015354157,0|2,1:0|1:2,0:0:0:0:
156,379,86266,1,8,0:0:0:0:
78,336,86462,5,0,1:0:0:0:
78,336,86560,1,8,0:0:0:0:
78,336,86658,2,0,P|64:256|50:177,1,161.000003070831,6|10,1:2|0:0,0:0:0:0:
142,168,87246,2,0,L|155:247,1,80.5000015354157,2|0,0:0|1:0,0:0:0:0:
220,313,87638,1,0,1:0:0:0:
295,259,87834,1,10,0:0:0:0:
354,330,88030,6,0,P|433:315|512:302,1,161.000003070831,6|0,1:2|1:0,0:0:0:0:
482,214,88619,2,0,L|397:228,1,80.5000015354157,8|0,0:0|1:0,0:0:0:0:
385,136,89011,2,0,L|469:121,1,80.5000015354157,8|0,0:0|1:0,0:0:0:0:
409,40,89403,1,8,0:0:0:0:
409,40,89501,1,8,0:0:0:0:
409,40,89599,1,8,0:3:0:0:
320,71,89795,6,0,P|268:63|217:54,1,105.000004005432,4|2,1:2|1:2,0:0:0:0:
145,2,90383,1,0,0:0:0:0:
99,79,90579,2,0,L|108:131,1,52.5000020027161,2|2,1:2|0:0,0:0:0:0:
140,219,90971,1,10,0:2:0:0:
140,219,91167,2,0,P|130:268|117:341,1,105.000004005432,2|0,0:0|0:0,0:0:0:0:
37,307,91755,1,2,1:2:0:0:
37,307,91951,2,0,P|46:257|59:184,1,105.000004005432,2|0,0:0|0:0,0:0:0:0:
107,130,92540,1,8,0:0:0:0:
107,130,92932,6,0,P|158:121|201:155,1,105.000004005432,0|2,1:0|1:2,0:0:0:0:
252,221,93520,1,0,0:0:0:0:
324,169,93716,2,0,P|329:141|335:110,1,52.5000020027161,2|2,1:2|0:0,0:0:0:0:
421,131,94108,2,0,P|416:159|410:190,1,52.5000020027161,8|8,0:0|0:0,0:0:0:0:
432,227,94402,1,8,0:0:0:0:
432,227,94500,1,4,1:2:0:0:
256,352,95089,6,0,P|204:342|152:333,1,105.000004005432,6|4,1:2|0:3,0:0:0:0:
78,376,95677,1,8,0:0:0:0:
78,376,95775,1,8,0:0:0:0:
78,376,95873,1,8,0:3:0:0:
11,302,96069,6,0,P|21:250|31:198,1,105.000004005432,6|10,1:2|0:0,0:0:0:0:
108,154,96657,1,0,0:0:0:0:
169,218,96853,2,0,L|220:208,1,52.5000020027161,2|2,1:2|0:0,0:0:0:0:
261,129,97245,1,10,0:0:0:0:
333,181,97442,2,0,P|384:171|436:163,1,105.000004005432,2|2,0:0|0:0,0:0:0:0:
484,89,98030,1,10,0:0:0:0:
484,89,98226,1,2,0:0:0:0:
407,43,98422,2,0,L|355:53,1,52.5000020027161,0|2,1:0|1:2,0:0:0:0:
274,16,98814,1,10,0:0:0:0:
274,16,99206,6,0,P|225:2|182:30,1,105.000004005432,6|10,1:2|0:0,0:0:0:0:
128,101,99795,2,0,P|77:91|26:81,1,105.000004005432,2|2,0:0|0:0,0:0:0:0:
4,167,100383,2,0,L|59:179,1,52.5000020027161,10|2,0:0|0:0,0:0:0:0:
142,196,100775,2,0,P|135:234|129:273,1,78.7500030040742,4|0,1:2|0:0,0:0:0:0:
161,303,101167,2,0,L|212:293,1,52.5000020027161,8|0,0:0|0:0,0:0:0:0:
293,341,101559,1,0,1:0:0:0:
293,341,101755,1,0,1:0:0:0:
343,267,101951,1,8,0:0:0:0:
438,308,102147,5,0,1:0:0:0:
438,308,102245,1,8,0:0:0:0:
438,308,102344,2,0,P|448:238|462:170,1,140,4|10,1:2|0:0,0:0:0:0:
414,92,102932,1,0,0:0:0:0:
339,144,103128,2,0,P|304:137|270:132,1,70,2|2,1:2|0:0,0:0:0:0:
210,63,103520,1,10,0:0:0:0:
134,113,103716,6,0,P|95:167|120:234,1,140,2|0,0:0|0:0,0:0:0:0:
180,296,104304,1,10,0:0:0:0:
252,241,104500,1,2,0:0:0:0:
328,289,104696,2,0,L|316:357,1,70,0|0,1:0|1:0,0:0:0:0:
404,379,105089,2,0,L|421:275,1,105,8|0,0:0|0:0,0:0:0:0:
458,249,105481,6,0,P|480:185|441:130,1,140,0|10,1:0|0:0,0:0:0:0:
355,100,106069,1,2,0:0:0:0:
345,98,106167,1,2,0:0:0:0:
336,103,106265,2,0,P|342:137|347:172,2,70,2|2|10,1:2|0:0|0:0,0:0:0:0:
246,118,106853,6,0,P|256:187|267:256,1,140,2|0,0:0|0:0,0:0:0:0:
223,336,107442,1,10,0:0:0:0:
145,288,107638,2,0,L|76:301,1,70,2|0,0:0|1:0,0:0:0:0:
4,245,108030,1,0,1:0:0:0:
52,167,108226,2,0,L|43:121,3,35,10|2|2|2,0:0|0:0|0:0|0:0,0:0:0:0:
39,109,108618,6,0,P|104:92|160:130,1,140,6|10,1:2|0:0,0:0:0:0:
219,201,109206,1,2,0:0:0:0:
295,151,109402,2,0,P|301:116|307:82,1,70,2|2,1:2|0:0,0:0:0:0:
402,100,109795,1,10,0:0:0:0:
402,100,109991,2,0,P|395:134|389:168,1,70,2|0,0:0|1:0,0:0:0:0:
462,340,110579,5,10,0:0:0:0:
462,340,110775,2,0,P|427:346|393:353,1,70,2|0,0:0|1:0,0:0:0:0:
311,313,111167,1,2,1:2:0:0:
241,371,111363,2,0,P|210:330|225:282,1,105,10|0,0:0|0:0,0:0:0:0:
255,248,111755,6,0,L|245:178,1,70,4|2,1:2|0:0,0:0:0:0:
297,103,112147,1,10,0:0:0:0:
227,44,112344,2,0,P|186:13|138:28,1,105,6|0,1:2|0:0,0:0:0:0:
101,54,112736,1,2,1:2:0:0:
26,106,112932,1,8,0:0:0:0:
85,175,113128,6,0,P|68:276|58:345,1,140,6|0,1:2|1:0,0:0:0:0:
126,379,113716,1,8,0:0:0:0:
202,329,113912,2,0,L|236:335,1,35,4|0,1:2|0:0,0:0:0:0:
268,367,114108,2,0,P|302:360|337:355,1,70,8|0,0:0|1:0,0:0:0:0:
405,295,114500,1,8,0:0:0:0:
405,295,114598,1,8,0:0:0:0:
405,295,114696,1,8,0:3:0:0:
487,330,114893,6,0,P|497:267|508:205,1,125.999996154785,6|8,1:2|0:0,0:0:0:0:
448,132,115481,2,0,P|388:117|342:160,1,125.999996154785,8|8,1:3|0:3,0:0:0:0:
301,243,116069,1,8,1:3:0:0:
301,243,116265,1,4,0:3:0:0:
215,203,116461,1,0,1:0:0:0:
79,334,116853,5,8,0:0:0:0:
164,375,117049,2,0,P|180:316|145:267,1,125.999996154785,8|8,1:3|0:3,0:0:0:0:
64,215,117638,1,0,1:0:0:0:
126,145,117834,5,8,0:3:0:0:
126,145,117932,1,8,0:3:0:0:
126,145,118030,2,0,P|117:82|105:20,1,125.999996154785,0|8,1:0|0:0,0:0:0:0:
198,6,118618,2,0,P|207:69|219:131,1,125.999996154785,8|8,1:3|0:3,0:0:0:0:
305,179,119206,1,8,1:3:0:0:
305,179,119402,1,4,0:3:0:0:
357,100,119598,5,0,1:0:0:0:
438,149,119795,2,0,L|427:211,1,62.9999980773926,2|8,0:0|0:0,0:0:0:0:
499,273,120187,2,0,P|439:259|388:293,1,125.999996154785,8|8,1:3|0:3,0:0:0:0:
328,366,120775,1,0,1:0:0:0:
251,331,120971,5,8,0:3:0:0:
251,331,121069,1,8,0:3:0:0:
251,331,121167,2,0,P|214:284|231:223,1,125.999996154785,4|8,1:2|0:0,0:0:0:0:
291,152,121755,2,0,P|353:162|414:175,1,125.999996154785,8|8,1:3|0:3,0:0:0:0:
490,116,122344,1,8,1:3:0:0:
490,116,122540,1,4,0:3:0:0:
438,36,122736,1,0,1:0:0:0:
291,152,123128,5,8,0:0:0:0:
250,67,123324,2,0,P|309:51|358:86,1,125.999996154785,8|8,1:3|0:3,0:0:0:0:
409,166,123912,1,0,1:0:0:0:
350,243,124108,5,8,0:0:0:0:
350,243,124206,1,8,0:0:0:0:
350,243,124304,2,0,L|362:312,1,70,6|0,1:2|0:0,0:0:0:0:
293,372,124696,2,0,L|224:360,1,70,10|0,0:0|0:0,0:0:0:0:
184,284,125088,1,2,1:2:0:0:
184,284,125284,1,0,1:0:0:0:
113,340,125480,2,0,P|79:348|51:329,1,70,10|2,0:0|0:0,0:0:0:0:
2,252,125872,6,0,P|13:182|27:114,1,140,0|10,1:0|0:0,0:0:0:0:
100,60,126460,1,0,0:0:0:0:
156,131,126656,2,0,P|190:124|224:118,1,70,2|0,1:2|1:0,0:0:0:0:
294,178,127049,1,10,0:0:0:0:
251,258,127245,6,0,L|216:264,2,35,0|8|6,1:0|0:0|1:2,0:0:0:0:
334,306,127637,1,0,1:0:0:0:
334,306,127833,1,0,1:0:0:0:
373,224,128029,1,4,1:2:0:0:
294,178,128225,1,0,1:0:0:0:
294,178,128421,1,0,1:0:0:0:
335,96,128617,1,8,0:0:0:0:
255,51,128813,6,0,P|329:37|408:22,1,140,6|0,1:2|1:0,0:0:0:0:
471,72,129402,1,8,0:0:0:0:
417,145,129598,2,0,P|429:212|442:282,1,140,4|2,1:2|1:2,0:0:0:0:
383,352,130186,1,10,0:0:0:0:
358,338,130284,1,8,0:0:0:0:
330,339,130382,1,8,0:0:0:0:
306,354,130480,1,8,0:0:0:0:
294,378,130578,6,0,P|234:366|175:356,1,120.750002303124,6|0,1:2|0:0,0:0:0:0:
136,381,130970,2,0,P|76:369|17:359,1,120.750002303124,10|0,0:0|0:0,0:0:0:0:
0,315,131362,2,0,L|15:235,1,80.5000015354157,2|0,1:2|0:0,0:0:0:0:
84,174,131754,1,8,0:0:0:0:
31,97,131951,6,0,P|92:145|169:133,1,161.000003070831,2|2,0:0|0:0,0:0:0:0:
246,81,132539,2,0,P|285:88|325:95,1,80.5000015354157,10|2,0:0|0:0,0:0:0:0:
404,46,132931,1,2,1:2:0:0:
404,46,133127,1,0,1:0:0:0:
456,121,133323,2,0,P|450:160|442:200,1,80.5000015354157,10|0,0:0|1:0,0:0:0:0:
436,249,133617,5,8,0:0:0:0:
435,249,133715,2,0,B|402:275|363:239|371:229|333:195|291:222,1,161.000003070831,2|10,1:2|0:0,0:0:0:0:
216,279,134304,2,0,P|224:321|231:359,1,80.5000015354157,2|0,0:0|1:0,0:0:0:0:
139,374,134696,2,0,P|131:332|124:294,1,80.5000015354157,2|8,0:0|0:0,0:0:0:0:
42,252,135088,6,0,P|-3:188|20:114,1,161.000003070831,2|0,0:0|0:0,0:0:0:0:
79,43,135676,1,8,0:0:0:0:
155,95,135872,2,0,L|235:82,1,80.5000015354157,0|0,0:0|1:0,0:0:0:0:
309,136,136264,1,2,1:2:0:0:
258,213,136460,1,10,0:0:0:0:
357,312,136656,5,0,1:0:0:0:
357,312,136754,1,8,0:0:0:0:
357,312,136853,2,0,P|417:301|476:291,1,120.750002303124,2|0,1:2|0:0,0:0:0:0:
499,251,137245,2,0,P|488:192|478:133,1,120.750002303124,10|0,0:0|0:0,0:0:0:0:
504,94,137637,2,0,P|513:56|490:24,1,80.5000015354157,2|0,1:2|0:0,0:0:0:0:
410,70,138029,1,8,0:0:0:0:
344,4,138225,6,0,P|264:17|185:32,1,161.000003070831,2|2,0:0|0:0,0:0:0:0:
101,6,138813,1,10,0:0:0:0:
101,6,139009,1,2,0:0:0:0:
30,66,139205,2,0,P|36:105|42:145,1,80.5000015354157,2|0,1:2|1:0,0:0:0:0:
117,200,139598,2,0,P|139:231|132:270,1,80.5000015354157,10|0,0:0|1:0,0:0:0:0:
113,314,139892,5,8,0:0:0:0:
113,314,139990,2,0,P|189:295|253:339,1,161.000003070831,6|8,1:2|0:0,0:0:0:0:
335,295,140578,2,0,L|414:310,1,80.5000015354157,2|0,0:0|1:0,0:0:0:0:
491,259,140970,2,0,P|500:221|475:190,1,80.5000015354157,2|8,0:0|0:0,0:0:0:0:
512,100,141362,6,0,P|460:159|380:152,1,161.000003070831,6|0,1:2|1:0,0:0:0:0:
308,99,141951,1,10,0:0:0:0:
233,154,142147,1,2,0:0:0:0:
263,243,142343,2,0,L|249:322,1,80.5000015354157,0|0,1:2|1:0,0:0:0:0:
179,382,142735,1,8,0:0:0:0:
57,318,142931,5,0,1:0:0:0:
57,318,143029,1,8,0:0:0:0:
57,318,143127,2,0,P|43:238|30:159,1,161.000003070831,6|10,1:2|0:0,0:0:0:0:
12,68,143715,2,0,P|49:58|82:79,1,80.5000015354157,2|0,0:0|1:0,0:0:0:0:
163,125,144107,2,0,L|243:111,1,80.5000015354157,2|8,0:0|0:0,0:0:0:0:
287,29,144500,6,0,P|362:8|426:52,1,161.000003070831,2|2,1:2|1:2,0:0:0:0:
494,115,145088,2,0,P|482:174|472:233,1,120.750002303124,10|0,0:0|0:0,0:0:0:0:
497,272,145480,2,0,P|519:304|510:342,1,80.5000015354157,2|0,1:2|0:0,0:0:0:0:
426,381,145872,2,0,P|367:369|308:359,1,120.750002303124,8|0,0:0|0:0,0:0:0:0:
261,352,146264,6,0,P|276:268|290:183,1,161.000003070831,2|10,1:2|0:0,0:0:0:0:
321,106,146853,2,0,P|275:143|217:133,1,120.750002303124,2|0,0:0|0:0,0:0:0:0:
182,103,147245,2,0,L|102:117,1,80.5000015354157,2|8,1:2|0:0,0:0:0:0:
40,48,147637,6,0,P|2:94|12:151,1,120.750002303124,2|0,1:2|0:0,0:0:0:0:
44,183,148029,1,2,1:2:0:0:
99,257,148225,1,10,0:0:0:0:
19,309,148421,2,0,P|94:288|158:332,1,161.000003070831,2|0,1:2|1:0,0:0:0:0:
237,380,149009,1,10,0:0:0:0:
297,310,149205,1,2,0:0:0:0:
430,370,149402,6,0,P|443:290|458:211,1,161.000003070831,6|8,1:2|0:0,0:0:0:0:
508,130,149990,2,0,P|447:179|371:165,1,161.000003070831,6|2,1:2|1:2,0:0:0:0:
295,112,150578,1,10,0:0:0:0:
353,40,150774,1,6,1:2:0:0:
353,40,151362,6,0,P|332:144|308:287,1,241.500004606247,6|0,0:0|1:0,0:0:0:0:
235,334,152147,1,8,0:0:0:0:
170,265,152343,5,8,0:0:0:0:
170,265,152441,1,8,0:0:0:0:
170,265,152539,2,0,P|103:275|31:288,1,140,6|8,1:2|0:0,0:0:0:0:
18,198,153127,2,0,P|85:188|156:174,1,140,2|2,0:0|0:0,0:0:0:0:
240,208,153715,1,10,0:0:0:0:
294,135,153911,1,2,0:0:0:0:
374,177,154107,6,0,P|408:171|443:165,1,70,2|0,1:2|0:0,0:0:0:0:
487,154,154401,2,0,P|481:119|475:84,1,70,2|0,0:0|0:0,0:0:0:0:
465,40,154695,1,2,0:0:0:0:
385,0,154891,2,0,P|350:5|315:11,1,70,2|0,1:2|0:0,0:0:0:0:
272,23,155186,2,0,P|277:57|283:92,1,70,2|0,0:0|0:0,0:0:0:0:
294,137,155479,1,2,0:0:0:0:
374,177,155676,6,0,P|415:234|391:298,1,140,2|8,1:2|0:0,0:0:0:0:
338,367,156264,1,0,0:0:0:0:
256,326,156460,2,0,L|187:338,1,70,0|0,1:0|0:0,0:0:0:0:
108,383,156852,2,0,P|84:337|110:292,1,105,10|0,0:0|0:0,0:0:0:0:
139,261,157244,6,0,P|125:183|108:100,1,140,2|8,1:2|0:0,0:0:0:0:
35,75,157833,1,0,0:0:0:0:
97,8,158029,2,0,P|131:15|180:23,1,70,0|2,1:0|1:2,0:0:0:0:
224,97,158421,5,10,0:0:0:0:
224,97,158617,1,2,0:0:0:0:
224,97,158813,2,0,P|290:112|347:74,1,140,6|8,1:2|0:0,0:0:0:0:
426,29,159401,1,0,0:0:0:0:
483,99,159597,2,0,L|471:168,1,70,0|0,1:0|0:0,0:0:0:0:
458,264,159989,5,10,0:0:0:0:
458,264,160185,1,2,0:0:0:0:
458,264,160382,2,0,P|388:274|319:286,1,140,2|8,1:2|0:0,0:0:0:0:
265,360,160970,1,0,0:0:0:0:
189,308,161166,2,0,L|177:238,1,70,0|0,1:0|0:0,0:0:0:0:
239,171,161558,1,8,0:0:0:0:
239,171,161950,6,0,P|273:165|308:159,1,70,6|0,1:2|0:0,0:0:0:0:
352,151,162244,2,0,P|386:145|421:139,1,70,2|0,0:0|0:0,0:0:0:0:
465,132,162538,1,2,0:0:0:0:
465,40,162735,2,0,P|431:34|396:28,1,70,2|0,1:2|0:0,0:0:0:0:
351,19,163029,2,0,P|317:13|282:7,1,70,2|0,0:0|0:0,0:0:0:0:
236,1,163323,1,2,0:0:0:0:
155,44,163519,6,0,P|124:60|113:92,1,70,2|0,1:2|0:0,0:0:0:0:
67,96,163813,2,0,P|57:128|71:159,1,70,2|0,0:0|0:0,0:0:0:0:
60,203,164107,1,2,0:0:0:0:
126,272,164303,1,0,1:0:0:0:
126,272,164499,1,0,1:0:0:0:
201,221,164695,2,0,L|278:233,1,70,8|0,0:0|1:0,0:0:0:0:
302,200,164989,5,8,0:0:0:0:
302,200,165088,2,0,P|340:167|388:183,1,105,6|0,1:2|0:0,0:0:0:0:
421,214,165480,2,0,L|415:248,2,35,10|2|2,0:0|0:0|0:0,0:0:0:0:
510,228,165872,2,0,L|496:296,1,70,0|0,1:0|0:0,0:0:0:0:
433,361,166264,2,0,P|378:350|329:341,1,105,10|0,0:0|0:0,0:0:0:0:
298,308,166656,6,0,L|304:273,2,35,2|2|2,1:2|0:0|0:0,0:0:0:0:
226,364,167048,1,8,0:0:0:0:
174,289,167244,2,0,L|180:254,2,35,2|2|2,0:0|0:0|1:2,0:0:0:0:
104,348,167637,1,0,1:0:0:0:
48,275,167833,1,8,0:0:0:0:
48,275,168225,6,0,P|49:240|74:218,1,70,12|0,0:2|1:0,0:0:0:0:
17,146,168617,2,0,P|41:122|75:125,1,70,8|0,0:0|1:0,0:0:0:0:
88,35,169009,2,0,P|122:36|144:61,1,70,8|0,0:0|1:0,0:0:0:0:
215,5,169401,2,0,P|238:29|235:63,1,70,8|0,0:0|1:0,0:0:0:0:
326,76,169794,2,0,P|324:110|299:132,1,70,8|0,0:0|1:0,0:0:0:0:
356,203,170186,2,0,P|331:226|297:223,1,70,8|0,0:0|1:0,0:0:0:0:
287,314,170578,2,0,P|252:312|230:287,1,70,8|0,0:0|1:0,0:0:0:0:
143,260,170970,2,0,P|141:242|152:229,3,35,8|8|8|8,0:0|0:0|0:0|0:0,0:0:0:0:
173,213,171362,5,12,0:0:0:0:
238,149,171558,1,8,0:0:0:0:
224,59,171754,1,8,0:0:0:0:
135,38,171950,1,8,0:0:0:0:
75,107,172146,2,0,P|68:140|91:165,1,70,8|8,0:0|0:0,0:0:0:0:
173,213,172539,1,8,0:0:0:0:
196,222,172637,1,8,0:0:0:0:
211,242,172735,1,8,0:0:0:0:
214,267,172833,1,8,0:0:0:0:
203,290,172931,6,0,B|258:247|322:306|309:322|371:378|440:334,1,262.500010013581,6|0,1:2|1:0,0:0:0:0:
484,321,174009,1,0,1:0:0:0:
484,321,174107,2,0,P|515:261|484:201,1,140,8|4,0:0|0:0,0:0:0:0:
128,64,175872,6,0,L|108:175,1,105,4|0,0:2|0:0,0:0:0:0:
100,212,176264,1,4,0:2:0:0:
32,272,176460,1,4,0:2:0:0:
288,352,177048,5,0,1:0:0:0:
288,352,177146,1,0,1:0:0:0:
288,352,177244,2,0,P|318:328|356:330,1,78.7500030040742,4|0,1:2|0:0,0:0:0:0:
397,352,177637,6,0,P|408:288|424:192,1,161.000003070831,6|10,1:2|0:0,0:0:0:0:
351,134,178226,2,0,P|313:124|281:147,1,80.5000015354157,2|0,0:0|1:0,0:0:0:0:
219,215,178617,2,0,L|139:200,1,80.5000015354157,2|8,0:0|0:0,0:0:0:0:
47,213,179010,6,0,B|21:180|57:141|67:149|101:111|74:69,1,161.000003070831,2|0,0:0|0:0,0:0:0:0:
142,3,179598,1,8,0:0:0:0:
220,52,179794,2,0,L|300:39,1,80.5000015354157,0|0,0:0|1:0,0:0:0:0:
371,96,180186,1,2,1:2:0:0:
426,22,180382,1,10,0:0:0:0:
512,129,180578,5,0,1:0:0:0:
512,129,180676,1,8,0:0:0:0:
512,129,180775,2,0,P|501:189|491:248,1,120.750002303124,2|0,1:2|0:0,0:0:0:0:
473,290,181167,2,0,P|414:281|368:317,1,120.750002303124,10|0,0:0|0:0,0:0:0:0:
339,353,181559,2,0,P|298:345|251:337,1,80.5000015354157,2|0,1:2|0:0,0:0:0:0:
177,380,181951,1,8,0:0:0:0:
110,315,182147,6,0,P|96:235|81:156,1,161.000003070831,2|2,0:0|0:0,0:0:0:0:
12,102,182735,1,10,0:0:0:0:
12,102,182931,1,2,0:0:0:0:
62,24,183127,2,0,P|101:31|141:37,1,80.5000015354157,2|0,1:2|1:0,0:0:0:0:
232,20,183520,2,0,P|242:57|220:89,1,80.5000015354157,10|0,0:0|1:0,0:0:0:0:
191,126,183814,5,8,0:0:0:0:
191,126,183912,2,0,P|206:206|220:285,1,161.000003070831,6|8,1:2|0:0,0:0:0:0:
298,333,184500,2,0,P|337:325|377:319,1,80.5000015354157,2|0,0:0|1:0,0:0:0:0:
441,253,184891,2,0,P|433:213|427:173,1,80.5000015354157,2|8,0:0|0:0,0:0:0:0:
477,88,185284,6,0,P|417:138|340:124,1,161.000003070831,6|0,1:2|1:0,0:0:0:0:
287,47,185873,1,8,0:0:0:0:
206,93,186069,1,0,0:0:0:0:
131,38,186265,2,0,L|52:52,1,80.5000015354157,2|0,1:2|1:0,0:0:0:0:
3,130,186657,1,10,0:0:0:0:
121,199,186853,5,0,1:0:0:0:
121,199,186951,1,8,0:0:0:0:
121,199,187049,2,0,L|90:358,1,161.000003070831,6|10,1:2|0:0,0:0:0:0:
185,376,187637,2,0,L|199:296,1,80.5000015354157,2|0,0:0|1:0,0:0:0:0:
270,237,188029,2,0,P|277:198|257:164,1,80.5000015354157,2|8,0:0|0:0,0:0:0:0:
170,122,188422,6,0,P|247:129|303:74,1,161.000003070831,2|2,1:2|1:2,0:0:0:0:
380,125,189010,2,0,P|425:87|483:95,1,120.750002303124,10|0,0:0|0:0,0:0:0:0:
511,132,189402,2,0,P|503:171|497:211,1,80.5000015354157,2|0,1:2|0:0,0:0:0:0:
476,301,189794,2,0,P|417:289|358:279,1,120.750002303124,8|0,0:0|0:0,0:0:0:0:
328,242,190186,6,0,P|250:230|190:280,1,161.000003070831,2|10,1:2|0:0,0:0:0:0:
124,345,190775,2,0,P|65:352|18:316,1,120.750002303124,2|0,0:0|0:0,0:0:0:0:
2,272,191167,2,0,L|16:192,1,80.5000015354157,2|8,1:2|0:0,0:0:0:0:
98,150,191559,6,0,P|160:159|233:173,1,120.750002303124,2|0,1:2|0:0,0:0:0:0:
248,203,191951,1,2,1:2:0:0:
308,273,192147,1,10,0:0:0:0:
383,220,192342,2,0,B|356:178|390:140|400:148|436:109|410:76,1,161.000003070831,2|0,1:2|1:0,0:0:0:0:
352,2,192931,1,10,0:0:0:0:
279,60,193127,1,2,0:0:0:0:
152,3,193323,6,0,P|137:84|119:188,1,161.000003070831,6|8,1:2|0:0,0:0:0:0:
39,202,193911,2,0,P|117:190|177:240,1,161.000003070831,6|2,1:2|1:2,0:0:0:0:
226,317,194500,1,10,0:0:0:0:
307,273,194696,1,6,1:2:0:0:
307,273,195284,6,0,B|360:289|387:356|387:356|375:286|414:242,1,241.500004606247,6|0,0:0|1:0,0:0:0:0:
339,184,196069,1,8,0:0:0:0:
441,81,196265,5,8,0:0:0:0:
441,81,196363,1,8,0:0:0:0:
441,81,196461,2,0,P|363:92|302:44,1,161.000003070831,6|10,1:2|0:0,0:0:0:0:
229,96,197048,1,2,1:2:0:0:
229,96,197146,1,8,0:0:0:0:
229,96,197244,2,0,P|180:86|135:78,1,80.5000015354157,0|0,1:0|1:0,0:0:0:0:
93,6,197637,1,8,0:0:0:0:
19,62,197833,6,0,P|35:143|48:220,1,161.000003070831,2|0,1:2|1:0,0:0:0:0:
126,270,198421,2,0,L|205:256,1,80.5000015354157,8|0,0:0|1:0,0:0:0:0:
253,177,198813,2,0,P|291:168|323:190,1,80.5000015354157,8|0,0:0|1:0,0:0:0:0:
425,268,199205,1,8,0:0:0:0:
418,295,199303,1,8,0:0:0:0:
411,322,199401,1,8,0:0:0:0:
404,349,199499,1,8,0:0:0:0:
397,376,199597,6,0,P|316:361|212:343,1,161.000003070831,6|8,1:2|0:0,0:0:0:0:
152,313,200185,2,0,P|91:362|14:350,1,161.000003070831,6|2,1:2|1:2,0:0:0:0:
67,267,200774,1,10,0:0:0:0:
67,267,200872,1,8,0:0:0:0:
67,267,200970,1,6,1:2:0:0:
67,267,201558,6,0,P|53:187|38:108,1,161.000003070831,6|8,0:0|0:0,0:0:0:0:
93,34,202146,1,0,1:0:0:0:
170,84,202343,1,8,0:0:0:0:
280,17,202539,5,8,0:0:0:0:
280,17,202637,1,8,0:0:0:0:
280,17,202735,2,0,P|359:30|438:43,1,161.000003070831,6|10,1:2|0:0,0:0:0:0:
494,117,203323,2,0,P|487:156|479:196,1,80.5000015354157,2|0,0:0|1:0,0:0:0:0:
404,250,203715,1,0,1:0:0:0:
460,322,203911,1,10,0:0:0:0:
378,366,204107,6,0,P|299:353|220:340,1,161.000003070831,2|0,1:2|1:0,0:0:0:0:
134,379,204696,1,8,0:0:0:0:
56,325,204891,1,8,0:0:0:0:
63,230,205088,1,8,0:0:0:0:
148,188,205284,1,8,0:0:0:0:
227,241,205480,1,8,0:0:0:0:
246,215,205578,1,8,0:0:0:0:
274,202,205676,1,8,0:0:0:0:
306,208,205774,1,8,0:0:0:0:
327,226,205872,6,0,P|395:212|464:201,1,140,6|10,1:2|0:0,0:0:0:0:
512,122,206460,1,2,0:0:0:0:
431,71,206656,2,0,P|396:77|362:82,1,70,2|2,1:2|0:0,0:0:0:0:
289,28,207048,1,10,0:0:0:0:
236,102,207244,6,0,P|183:59|116:69,1,140,2|2,1:2|1:2,0:0:0:0:
50,133,207832,2,0,P|57:168|63:202,1,70,8|2,0:0|0:0,0:0:0:0:
12,278,208224,1,0,1:0:0:0:
12,278,208421,1,2,1:2:0:0:
87,328,208617,2,0,P|139:318|191:309,1,105,8|0,0:0|0:0,0:0:0:0:
235,302,209009,6,0,P|289:342|354:323,1,140,2|10,1:2|0:0,0:0:0:0:
433,279,209597,2,0,P|446:210|458:141,1,140,2|2,0:0|0:0,0:0:0:0:
407,65,210185,1,8,0:0:0:0:
327,108,210381,6,0,P|318:160|307:212,1,105,2|0,1:2|0:0,0:0:0:0:
270,238,210773,2,0,P|235:232|201:225,1,70,2|8,1:2|0:0,0:0:0:0:
125,277,211166,2,0,P|75:288|33:258,1,105,2|0,0:0|0:0,0:0:0:0:
4,223,211558,2,0,P|11:188|17:154,1,70,2|8,1:2|0:0,0:0:0:0:
90,99,211950,5,0,1:0:0:0:
90,99,212048,1,8,0:0:0:0:
90,99,212146,2,0,B|126:122|159:92|152:84|186:52|215:75,1,140,6|10,1:2|0:0,0:0:0:0:
283,136,212734,1,2,0:0:0:0:
357,84,212930,2,0,P|390:76|419:94,1,70,2|2,1:2|0:0,0:0:0:0:
477,164,213322,1,10,0:0:0:0:
404,219,213519,6,0,P|418:290|429:356,1,140,2|2,1:2|1:2,0:0:0:0:
340,375,214107,2,0,P|334:340|327:306,1,70,8|2,0:0|0:0,0:0:0:0:
252,255,214499,1,0,1:0:0:0:
309,184,214695,1,2,1:2:0:0:
233,133,214891,2,0,P|201:138|165:145,1,70,8|8,0:0|0:0,0:0:0:0:
134,118,215185,5,8,0:0:0:0:
134,118,215283,1,6,1:2:0:0:
49,83,215479,1,2,0:0:0:0:
1,160,215675,1,10,0:0:0:0:
60,229,215872,6,0,P|16:283|48:347,1,140,6|10,1:2|0:0,0:0:0:0:
124,376,216460,2,0,P|228:356|331:338,1,210,6|0,1:2|1:0,0:0:0:0:
417,379,217244,1,8,0:0:0:0:
417,379,217440,1,0,1:0:0:0:
463,300,217636,5,6,0:0:0:0:
381,260,217832,1,6,0:0:0:0:
224,323,218224,5,8,0:3:0:0:
224,323,218322,1,8,0:3:0:0:
224,323,218421,2,0,B|212:238|143:211|87:221|63:259|-6:217|-35:130|3:72|93:37|111:70|148:87|148:87|165:50|156:14|247:-20|315:-2|352:80|326:158|285:146|237:176|221:223|223:239,1,868,6|0,1:2|0:0,0:0:0:0:
