osu file format v14

[General]
AudioFilename: audio.mp3
AudioLeadIn: 0
PreviewTime: 61130
Countdown: 0
SampleSet: Soft
StackLeniency: 0.7
Mode: 0
LetterboxInBreaks: 0
WidescreenStoryboard: 1

[Editor]
Bookmarks: 8483,11522,11718,11816,11914,12110,12209,12307,21032,32012,46130,58679,70443,74365,80640,105738,115149,122012,137110
DistanceSpacing: 1.5
BeatDivisor: 4
GridSize: 32
TimelineZoom: 2.700005

[Metadata]
Title:Zutto (Game Ver.)
TitleUnicode:ずっと (Game Ver.)
Artist:Hazuki
ArtistUnicode:葉月
Creator:tomatas95
Version:Normal
Source:リドルジョーカー
Tags:eroge riddle joker visual arihara nanami novel japanese pop j-pop jpop character ending ed yuzusoft ゆずソフト video game 在原七海 Inohara Satoru 猪原悟
BeatmapID:2935683
BeatmapSetID:1294301

[Difficulty]
HPDrainRate:3
CircleSize:3
OverallDifficulty:5
ApproachRate:5.5
SliderMultiplier:1.1
SliderTickRate:1

[Events]
//Background and Video events
0,0,"hmphbaka.jpg",0,0
//Break Periods
//Storyboard Layer 0 (Background)
//Storyboard Layer 1 (Fail)
//Storyboard Layer 2 (Pass)
//Storyboard Layer 3 (Foreground)
//Storyboard Layer 4 (Overlay)
//Storyboard Sound Samples

[TimingPoints]
640,392.156862745098,4,2,1,50,1,0
7895,-100,4,2,1,55,0,0
8483,-100,4,2,3,70,0,0
8679,-100,4,2,1,70,0,0
8875,-100,4,2,1,70,0,0
9856,-100,4,2,2,70,0,0
10052,-100,4,2,1,70,0,0
10248,-100,4,2,1,70,0,0
11620,-100,4,2,2,70,0,0
11816,-100,4,2,1,70,0,0
12012,-100,4,2,1,70,0,0
12993,-100,4,2,2,70,0,0
13189,-100,4,2,1,70,0,0
13385,-100,4,2,1,70,0,0
14758,-100,4,2,3,70,0,0
14954,-100,4,2,1,70,0,0
15150,-100,4,2,1,70,0,0
16130,-100,4,2,2,70,0,0
16326,-100,4,2,1,70,0,0
16522,-100,4,2,1,70,0,0
17895,-100,4,2,3,70,0,0
18091,-100,4,2,1,70,0,0
18483,-100,4,2,2,70,0,0
18679,-100,4,2,1,70,0,0
18875,-100,4,2,1,70,0,0
19071,-100,4,2,3,70,0,0
19659,-100,4,2,1,65,0,0
20248,-100,4,2,1,75,0,0
21032,-100,4,2,1,55,0,0
21228,-100,4,2,1,55,0,0
21424,-100,4,2,1,55,0,0
23973,-100,4,2,1,55,0,0
24169,-100,4,2,1,55,0,0
27110,-100,4,2,1,55,0,0
27307,-100,4,2,1,55,0,0
32012,-100,4,2,1,60,0,0
36522,-100,4,2,1,60,0,0
36718,-100,4,2,1,60,0,0
39659,-100,4,2,1,60,0,0
39856,-100,4,2,1,60,0,0
46130,-100,4,2,2,60,0,0
46326,-100,4,2,1,60,0,0
46522,-100,4,2,1,60,0,0
47895,-100,4,2,1,60,0,0
48091,-100,4,2,1,60,0,0
53189,-100,4,2,1,60,0,0
53581,-100,4,2,1,60,0,0
55542,-100,4,2,2,65,0,0
55738,-100,4,2,1,65,0,0
55934,-100,4,2,1,65,0,0
58679,-100,4,2,3,75,0,0
58875,-100,4,2,1,75,0,0
60052,-100,4,2,2,75,0,0
60248,-100,4,2,1,75,0,0
60444,-100,4,2,1,75,0,0
60836,-100,4,2,3,75,0,0
61130,-100,4,2,1,75,0,0
61228,-100,4,2,1,75,0,0
61816,-90.9090909090909,4,2,2,85,0,1
62012,-90.9090909090909,4,2,1,85,0,1
62208,-90.9090909090909,4,2,1,85,0,1
64954,-90.9090909090909,4,2,2,85,0,1
65150,-90.9090909090909,4,2,1,85,0,1
65346,-90.9090909090909,4,2,1,85,0,1
68091,-90.9090909090909,4,2,3,85,0,1
68483,-90.9090909090909,4,2,1,85,0,1
71228,-90.9090909090909,4,2,2,85,0,1
71424,-90.9090909090909,4,2,1,85,0,1
71620,-90.9090909090909,4,2,1,85,0,1
72601,-90.9090909090909,4,2,3,85,0,1
72993,-90.9090909090909,4,2,1,85,0,1
74365,-90.9090909090909,4,2,2,85,0,1
74561,-90.9090909090909,4,2,1,85,0,1
74757,-90.9090909090909,4,2,1,85,0,1
75738,-90.9090909090909,4,2,3,85,0,1
76130,-90.9090909090909,4,2,1,85,0,1
77503,-90.9090909090909,4,2,2,85,0,1
77699,-90.9090909090909,4,2,1,85,0,1
77895,-90.9090909090909,4,2,1,85,0,1
78875,-90.9090909090909,4,2,3,85,0,1
79267,-90.9090909090909,4,2,1,85,0,1
80640,-90.9090909090909,4,2,3,85,0,1
81032,-90.9090909090909,4,2,1,85,0,1
81228,-90.9090909090909,4,2,2,85,0,1
81424,-90.9090909090909,4,2,1,85,0,1
81620,-90.9090909090909,4,2,1,85,0,1
82012,-90.9090909090909,4,2,3,85,0,1
82404,-90.9090909090909,4,2,1,85,0,1
82601,-90.9090909090909,4,2,2,85,0,1
82797,-90.9090909090909,4,2,1,85,0,1
82993,-90.9090909090909,4,2,1,85,0,1
83777,-100,4,2,3,70,0,0
84169,-100,4,2,1,70,0,0
84365,-100,4,2,1,70,0,0
84757,-100,4,2,1,70,0,0
104365,-100,4,2,1,70,0,0
105738,-100,4,2,1,70,0,0
107110,-100,4,2,2,60,0,0
107307,-100,4,2,1,60,0,0
107502,-100,4,2,1,60,0,0
108483,-100,4,2,99,70,0,0
108679,-100,4,2,99,70,0,0
108875,-90.9090909090909,4,2,3,85,0,1
109071,-90.9090909090909,4,2,1,85,0,1
109267,-90.9090909090909,4,2,1,85,0,1
112012,-90.9090909090909,4,2,2,85,0,1
112208,-90.9090909090909,4,2,1,85,0,1
112405,-90.9090909090909,4,2,1,85,0,1
115150,-90.9090909090909,4,2,3,85,0,1
115346,-90.9090909090909,4,2,1,85,0,1
115542,-90.9090909090909,4,2,1,85,0,1
116522,-90.9090909090909,4,2,2,85,0,1
116914,-90.9090909090909,4,2,1,85,0,1
118287,-90.9090909090909,4,2,2,85,0,1
118482,-90.9090909090909,4,2,1,85,0,1
118679,-90.9090909090909,4,2,1,85,0,1
119659,-90.9090909090909,4,2,3,85,0,1
120051,-90.9090909090909,4,2,1,85,0,1
121424,-90.9090909090909,4,2,2,85,0,1
121620,-90.9090909090909,4,2,1,85,0,1
121816,-90.9090909090909,4,2,1,85,0,1
122797,-90.9090909090909,4,2,3,85,0,1
123189,-90.9090909090909,4,2,1,85,0,1
124561,-90.9090909090909,4,2,3,85,0,1
124758,-90.9090909090909,4,2,1,85,0,1
124953,-90.9090909090909,4,2,1,85,0,1
125150,-90.9090909090909,4,2,2,85,0,1
125346,-90.9090909090909,4,2,1,85,0,1
125542,-90.9090909090909,4,2,1,85,0,1
125934,-90.9090909090909,4,2,3,85,0,1
126326,-90.9090909090909,4,2,1,85,0,1
126522,-90.9090909090909,4,2,2,85,0,1
126718,-90.9090909090909,4,2,1,85,0,1
126914,-90.9090909090909,4,2,1,85,0,1
127698,-100,4,2,3,75,0,0
127895,-100,4,2,1,75,0,0
128091,-100,4,2,1,75,0,0
129071,-100,4,2,2,75,0,0
129267,-100,4,2,1,75,0,0
129463,-100,4,2,1,75,0,0
130836,-100,4,2,3,75,0,0
131032,-100,4,2,1,75,0,0
131228,-100,4,2,1,75,0,0
131424,-100,4,2,2,75,0,0
131620,-100,4,2,1,75,0,0
131816,-100,4,2,1,75,0,0
132209,-100,4,2,3,75,0,0
132797,-100,4,2,2,75,0,0
132993,-100,4,2,2,75,0,0
133189,-100,4,2,1,75,0,0
133973,-100,4,2,3,75,0,0
134169,-100,4,2,1,75,0,0
134365,-100,4,2,1,75,0,0
135346,-100,4,2,2,75,0,0
135738,-100,4,2,1,75,0,0
137110,-100,4,2,3,75,0,0
137306,-100,4,2,1,70,0,0
137503,-100,4,2,1,70,0,0
138483,-100,4,2,2,70,0,0
138679,-100,4,2,1,70,0,0
138875,-100,4,2,1,70,0,0
140248,-100,4,2,2,70,0,0
140443,-100,4,2,1,70,0,0
140640,-100,4,2,1,70,0,0
141620,-100,4,2,2,70,0,0
141816,-100,4,2,1,70,0,0
142012,-100,4,2,1,70,0,0
143385,-100,4,2,3,70,0,0
143581,-100,4,2,1,70,0,0
143777,-100,4,2,1,70,0,0
144758,-100,4,2,2,70,0,0
144953,-100,4,2,1,70,0,0
145150,-100,4,2,1,70,0,0
146522,-100,4,2,3,70,0,0
146718,-100,4,2,1,70,0,0
147110,-100,4,2,2,70,0,0
147306,-100,4,2,1,70,0,0
147502,-100,4,2,1,70,0,0
147699,-100,4,2,3,70,0,0
148287,-100,4,2,1,65,0,0
148875,-100,4,2,1,75,0,0
149659,-100,4,2,2,70,0,0
150443,-100,4,2,2,60,0,0
151228,-100,4,2,2,50,0,0
152012,-100,4,2,2,40,0,0
152796,-100,4,2,2,30,0,0
153973,-100,4,2,2,20,0,0
155149,-100,4,2,2,15,0,0

[Colours]
Combo1 : 255,153,51
Combo2 : 228,243,44
Combo3 : 117,180,255
Combo4 : 248,129,147

[HitObjects]
47,33,7895,6,0,L|41:109,1,55,0|8,3:0|0:0,0:0:0:0:
35,197,8483,6,0,P|87:181|154:208,1,110,6|10,3:2|0:0,0:0:0:0:
174,245,9071,1,2,0:0:0:0:
174,245,9267,2,0,L|165:322,2,55,2|2|10,3:2|0:0|0:0,0:0:0:0:
221,217,9856,1,6,3:2:0:0:
208,107,10248,2,0,L|201:52,1,55,2|8,3:2|0:0,0:0:0:0:
236,10,10640,2,0,P|283:-1|361:28,1,110,2|2,0:0|3:2,0:0:0:0:
382,51,11228,1,8,0:0:0:0:
488,23,11620,6,0,L|476:152,1,110,6|10,3:2|0:0,0:0:0:0:
438,171,12209,2,0,L|450:300,1,110,2|2,0:0|3:2,0:0:0:0:
458,339,12797,1,8,0:0:0:0:
458,339,12993,1,6,3:2:0:0:
353,372,13385,2,0,L|346:307,1,55,2|8,3:2|0:0,0:0:0:0:
332,264,13777,2,0,P|296:281|223:262,1,110,2|2,0:0|3:2,0:0:0:0:
215,214,14365,2,0,L|221:149,1,55,8|8,0:0|0:0,0:0:0:0:
198,108,14758,5,6,3:2:0:0:
101,66,15150,1,10,0:0:0:0:
101,66,15346,2,0,P|101:41|88:-3,2,55,2|2|2,0:0|3:2|0:0,0:0:0:0:
73,115,15934,1,10,0:0:0:0:
73,115,16130,1,6,3:2:0:0:
32,213,16522,2,0,L|38:277,1,55,2|8,3:2|0:0,0:0:0:0:
32,322,16914,2,0,P|64:311|151:342,1,110,2|2,0:0|3:2,0:0:0:0:
181,359,17503,1,8,0:0:0:0:
258,280,17895,6,0,B|289:278|289:278|326:289,2,55,6|2|10,3:2|0:0|0:0,0:0:0:0:
205,264,18483,2,0,P|190:214|205:156,1,110,6|8,3:2|0:0,0:0:0:0:
234,113,19071,1,6,3:2:0:0:
377,204,19659,1,0,3:0:0:0:
377,204,19856,2,0,L|456:198,1,55,8|0,0:0|3:0,0:0:0:0:
484,177,20248,1,10,0:0:0:0:
484,177,20444,1,10,0:0:0:0:
433,19,21032,5,4,3:1:0:0:
323,8,21424,2,0,L|311:124,1,110,2|2,3:2|3:2,0:0:0:0:
317,172,22012,1,2,0:0:0:0:
365,270,22404,2,0,P|319:283|251:258,1,110,2|2,0:0|0:0,0:0:0:0:
228,228,22992,1,2,3:2:0:0:
228,228,23189,2,0,B|222:193|184:177|184:177|122:246|172:334,1,220,2|0,0:0|0:0,0:0:0:0:
139,365,24169,5,0,3:0:0:0:
29,371,24561,2,0,L|20:246,1,110,2|2,3:2|3:2,0:0:0:0:
15,206,25149,1,2,0:0:0:0:
17,95,25542,2,0,P|57:83|140:118,1,110,2|2,0:0|0:0,0:0:0:0:
155,150,26130,1,2,3:2:0:0:
155,150,26326,2,0,P|194:162|216:24,1,220,2|0,0:0|0:0,0:0:0:0:
181,24,27306,5,0,3:0:0:0:
71,36,27698,2,0,L|56:150,1,110,2|2,3:2|3:2,0:0:0:0:
35,256,28483,1,2,3:2:0:0:
35,256,28679,2,0,P|84:245|142:267,1,110,2|2,0:0|0:0,0:0:0:0:
164,313,29267,2,0,L|218:317,1,55,2|2,3:2|0:0,0:0:0:0:
319,362,29855,2,0,L|373:357,1,55,2|2,0:0|3:2,0:0:0:0:
428,358,30247,1,2,0:0:0:0:
479,260,30639,6,0,L|424:255,1,55,2|2,0:0|3:2,0:0:0:0:
369,248,31032,2,0,P|324:263|256:235,1,110,2|2,0:0|0:0,0:0:0:0:
234,199,31620,1,2,3:2:0:0:
296,108,32012,2,0,L|304:45,1,55,6|8,3:2|0:0,0:0:0:0:
347,20,32405,1,8,0:0:0:0:
456,27,32797,2,0,L|464:90,1,55,8|0,0:0|3:0,0:0:0:0:
491,128,33189,2,0,L|483:191,1,55,8|8,0:0|0:0,0:0:0:0:
481,237,33581,5,6,3:2:0:0:
445,341,33973,2,0,P|393:356|331:333,1,110,10|2,0:0|3:2,0:0:0:0:
292,313,34561,2,0,L|303:237,1,55,2|10,0:0|0:0,0:0:0:0:
308,204,34953,1,2,0:0:0:0:
361,107,35345,2,0,L|350:31,1,55,2|10,0:0|0:0,0:0:0:0:
300,36,35738,2,0,B|273:52|239:34|239:34|208:48|227:139,1,165,2|8,0:0|0:0,0:0:0:0:
217,237,36718,5,0,3:0:0:0:
147,324,37110,2,0,P|104:342|37:322,1,110,10|2,0:0|3:2,0:0:0:0:
29,274,37699,2,0,P|31:243|19:198,1,55,2|10,0:0|0:0,0:0:0:0:
12,166,38090,1,2,0:0:0:0:
20,56,38483,2,0,P|50:53|96:66,1,55,2|10,0:0|0:0,0:0:0:0:
119,89,38875,2,0,B|160:105|188:74|188:74|230:44|293:77,1,165,2|8,0:0|0:0,0:0:0:0:
378,100,39856,5,0,3:0:0:0:
336,201,40248,2,0,L|262:194,1,55,10|2,0:0|0:0,0:0:0:0:
236,227,40640,1,2,3:2:0:0:
247,340,41032,1,10,0:0:0:0:
247,340,41228,2,0,L|321:347,1,55,2|0,0:0|3:0,0:0:0:0:
415,344,41816,1,10,0:0:0:0:
415,344,42012,2,0,P|425:291|397:225,1,110,2|2,3:2|3:2,0:0:0:0:
370,198,42601,1,10,0:0:0:0:
370,198,42796,5,2,0:0:0:0:
314,102,43189,2,0,L|319:39,1,55,2|10,0:0|0:0,0:0:0:0:
369,26,43581,2,0,P|412:25|474:65,1,110,2|2,3:2|3:2,0:0:0:0:
481,116,44169,1,10,0:0:0:0:
481,116,44365,2,0,B|481:150|481:150|493:181|493:181|488:246,1,110,4|0,3:1|3:0,0:0:0:0:
488,278,44954,1,8,0:0:0:0:
402,346,45346,1,8,0:0:0:0:
402,346,45542,2,0,L|342:350,1,55,2|10,3:2|0:0,0:0:0:0:
292,351,45934,1,10,0:0:0:0:
245,321,46130,6,0,B|246:271|246:271|220:194,2,110,6|8|2,3:2|0:0|0:0,0:0:0:0:
144,358,47307,1,2,3:2:0:0:
144,358,47502,2,0,P|103:362|42:307,1,110,2|0,3:2|0:0,0:0:0:0:
30,271,48091,2,0,L|24:203,1,55,8|0,0:0|3:2,0:0:0:0:
39,107,48679,2,0,P|69:113|112:108,1,55,2|2,3:2|3:2,0:0:0:0:
150,103,49071,1,2,3:2:0:0:
150,103,49267,6,0,P|140:161|142:221,2,110,2|10|2,3:2|0:0|0:0,0:0:0:0:
237,34,50444,1,2,3:2:0:0:
237,34,50640,2,0,P|274:23|348:45,1,110,2|2,3:2|0:0,0:0:0:0:
389,67,51228,2,0,L|393:121,1,55,10|2,0:0|3:2,0:0:0:0:
425,226,51816,2,0,P|398:222|363:230,1,55,2|2,3:2|3:2,0:0:0:0:
326,257,52209,1,2,3:2:0:0:
326,257,52405,6,0,P|315:302|337:379,2,110,2|8|0,3:2|0:0|0:0,0:0:0:0:
349,149,53581,2,0,L|340:82,1,55,2|2,3:2|3:2,0:0:0:0:
339,39,53973,1,0,3:0:0:0:
452,29,54365,1,10,0:0:0:0:
452,29,54561,2,0,L|466:137,1,110,0|2,3:0|0:0,0:0:0:0:
474,192,55150,2,0,L|483:259,1,55,2|8,3:2|0:0,0:0:0:0:
485,301,55541,5,6,3:2:0:0:
388,355,55934,1,10,0:0:0:0:
289,306,56326,2,0,P|257:310|225:298,2,55,2|0|10,3:2|3:0|0:0,0:0:0:0:
318,260,56914,1,2,0:0:0:0:
318,260,57110,1,2,3:2:0:0:
325,149,57503,1,10,0:0:0:0:
236,84,57894,2,0,L|169:79,1,55,2|0,3:2|3:0,0:0:0:0:
128,97,58287,1,10,0:0:0:0:
56,180,58679,6,0,B|35:210|35:210|39:296,1,110,6|0,3:2|3:0,0:0:0:0:
88,317,59267,1,14,0:0:0:0:
88,317,59463,2,0,L|81:383,2,55,0|0|8,3:0|3:0|0:0,0:0:0:0:
132,284,60051,1,6,3:2:0:0:
235,245,60444,2,0,B|263:249|263:249|296:242,1,55,8|10,3:0|0:0,0:0:0:0:
340,225,60836,1,6,3:2:0:0:
302,127,61228,1,0,3:2:0:0:
302,127,61424,2,0,B|275:121|275:121|233:128,1,55,10|8,0:2|0:0,0:0:0:0:
193,152,61816,5,6,3:2:0:0:
124,251,62208,1,8,0:0:0:0:
12,205,62600,2,0,P|13:159|2:69,1,121.000003692627,2|8,3:2|0:0,0:0:0:0:
40,34,63189,2,0,P|89:19|164:42,1,121.000003692627,2|2,0:0|0:0,0:0:0:0:
200,75,63777,2,0,L|277:69,1,60.5000018463135,10|2,0:0|0:0,0:0:0:0:
313,98,64169,1,2,3:2:0:0:
410,26,64561,2,0,P|444:19|489:39,1,60.5000018463135,10|0,0:0|3:0,0:0:0:0:
492,80,64954,6,0,B|492:114|492:114|507:141|507:141|501:209,1,121.000003692627,6|10,3:2|0:0,0:0:0:0:
498,256,65541,1,2,0:0:0:0:
430,357,65934,2,0,P|395:362|356:352,1,60.5000018463135,2|10,0:0|0:0,0:0:0:0:
326,316,66326,2,0,B|318:280|318:280|322:257|322:257|314:175,1,121.000003692627,2|0,0:0|3:0,0:0:0:0:
300,138,66914,1,8,0:0:0:0:
284,17,67307,2,0,P|312:21|349:16,2,60.5000018463135,0|2|10,3:0|3:2|0:0,0:0:0:0:
227,23,67895,1,8,0:0:0:0:
227,23,68090,5,6,3:2:0:0:
106,13,68483,1,10,0:0:0:0:
62,125,68875,2,0,L|48:254,1,121.000003692627,2|8,3:2|0:0,0:0:0:0:
32,303,69463,2,0,P|80:288|154:322,1,121.000003692627,2|2,0:0|0:0,0:0:0:0:
180,360,70052,2,0,L|240:353,1,60.5000018463135,10|2,0:0|0:0,0:0:0:0:
299,359,70443,1,2,3:2:0:0:
420,359,70836,2,0,L|413:299,1,60.5000018463135,10|0,0:0|3:0,0:0:0:0:
383,246,71228,6,0,B|381:214|381:214|365:171|365:171|374:100,2,121.000003692627,6|8|0,3:2|0:0|3:0,0:0:0:0:
420,359,72405,1,8,0:0:0:0:
478,342,72601,2,0,P|474:287|497:206,1,121.000003692627,6|0,3:2|3:0,0:0:0:0:
499,163,73189,1,8,0:0:0:0:
415,75,73581,2,0,P|416:47|411:14,2,60.5000018463135,2|0|10,3:2|3:0|0:0,0:0:0:0:
382,125,74169,1,0,3:0:0:0:
382,125,74365,6,0,B|330:109|330:109|247:129,1,121.000003692627,6|10,3:2|0:0,0:0:0:0:
230,174,74954,1,2,0:0:0:0:
109,178,75346,2,0,L|100:102,1,60.5000018463135,2|8,0:0|0:0,0:0:0:0:
79,61,75738,2,0,B|109:58|109:58|147:38|147:38|214:39,1,121.000003692627,6|2,3:2|3:2,0:0:0:0:
254,30,76326,1,10,0:0:0:0:
310,136,76718,2,0,P|326:176|311:260,1,121.000003692627,2|8,3:2|0:0,0:0:0:0:
273,365,77503,6,0,B|331:379|331:379|409:358,1,121.000003692627,6|10,3:2|0:0,0:0:0:0:
441,330,78091,2,0,L|450:261,1,60.5000018463135,2|0,0:0|3:0,0:0:0:0:
470,213,78483,2,0,L|461:144,1,60.5000018463135,2|8,3:2|0:0,0:0:0:0:
456,92,78875,1,6,3:2:0:0:
362,13,79267,2,0,L|353:82,1,60.5000018463135,2|10,3:2|0:0,0:0:0:0:
345,132,79659,1,2,3:2:0:0:
228,143,80052,1,0,3:0:0:0:
228,143,80248,2,0,L|219:74,1,60.5000018463135,10|2,0:0|0:0,0:0:0:0:
214,22,80640,6,0,B|168:24|168:24|148:38|148:38|81:37,1,121.000003692627,6|8,3:2|0:0,0:0:0:0:
38,52,81228,1,6,3:2:0:0:
27,172,81620,2,0,L|20:231,1,60.5000018463135,2|10,3:2|0:0,0:0:0:0:
18,292,82012,1,6,3:2:0:0:
188,354,82600,2,0,B|180:282,1,60.5000018463135,6|0,3:2|0:0,0:0:0:0:
177,233,82993,2,0,P|206:238|252:226,2,60.5000018463135,2|2|10,0:0|3:2|0:0,0:0:0:0:
148,186,83581,1,10,0:0:0:0:
148,186,83777,5,6,3:2:0:0:
110,88,84169,1,8,0:0:0:0:
110,88,84365,2,0,P|153:74|227:98,1,110,2|2,0:0|0:1,0:0:0:0:
253,127,84954,1,10,2:1:0:0:
359,154,85346,2,0,L|368:35,1,110,2|8,3:1|0:0,0:0:0:0:
416,17,85934,1,2,0:1:0:0:
416,17,86130,2,0,P|446:33|481:118,1,110,2|8,3:1|0:0,0:0:0:0:
481,207,86914,6,0,B|434:182|385:211|385:211|351:180|344:137|344:137|304:132|261:173,1,275,6|2,3:1|0:1,0:0:0:0:
230,212,88091,1,10,2:1:0:0:
220,321,88483,2,0,B|283:301|325:354|325:354|352:304|428:323,1,220,2|0,3:1|3:0,0:0:0:0:
466,308,89463,1,2,3:1:0:0:
493,204,89855,1,2,0:1:0:0:
493,204,90052,6,0,B|521:126|459:72|459:72|401:90|413:138,1,220,6|0,3:1|3:0,0:0:0:0:
360,143,91032,2,0,L|285:134,1,55,2|8,0:1|0:1,0:0:0:0:
224,61,91620,2,2,B|180:14|106:52|106:52|83:116|192:157|112:260,1,330,2|8,3:1|0:0,0:1:0:0:
164,344,93189,6,0,P|126:356|46:323,1,110,6|8,3:1|0:0,0:0:0:0:
20,299,93777,1,2,0:1:0:0:
21,244,93973,2,0,L|31:108,1,110,2|8,3:1|0:0,0:0:0:0:
108,57,94758,2,0,L|118:193,1,110,2|8,3:1|0:0,0:0:0:0:
133,218,95346,2,0,P|207:239|281:184,1,165,2|8,0:1|0:0,0:0:0:0:
248,86,96326,6,0,B|297:70|297:70|355:90,1,110,6|10,3:1|2:1,0:0:0:0:
377,137,96914,2,0,L|388:272,1,110,2|2,0:1|0:1,0:0:0:0:
385,301,97503,1,10,2:1:0:0:
492,343,97895,1,2,3:1:0:0:
492,343,98091,2,0,L|503:208,1,110,2|2,0:1|0:1,0:0:0:0:
500,178,98679,1,2,3:1:0:0:
471,71,99071,1,8,0:0:0:0:
365,48,99463,5,12,3:2:0:0:
365,48,99659,2,0,B|324:46|324:46|285:59|285:59|234:60,1,110,0|0,3:0|3:0,0:0:0:0:
202,51,100248,1,10,2:1:0:0:
93,33,100640,2,0,L|81:96,1,55,10|2,2:0|3:1,0:0:0:0:
53,133,101032,2,0,L|65:196,1,55,10|2,2:0|3:1,0:0:0:0:
47,239,101424,1,10,2:0:0:0:
65,347,101816,2,0,B|100:347|100:347|122:332|122:332|173:331,1,110,10|8,2:1|0:0,0:0:0:0:
272,372,102601,6,0,P|279:326|248:258,1,110,6|10,3:1|2:1,0:0:0:0:
234,223,103189,1,10,2:1:0:0:
234,223,103385,2,0,P|227:177|258:109,1,110,10|2,2:1|3:1,0:0:0:0:
305,104,103973,1,10,2:1:0:0:
305,104,104169,1,6,3:1:0:0:
256,192,104365,12,8,105738,0:2:0:0:
462,43,107110,6,0,B|463:74|463:74|478:105|478:105|477:163,1,110,4|10,3:2|0:0,0:0:0:0:
484,204,107699,1,10,0:0:0:0:
326,243,108287,1,0,3:0:0:0:
326,243,108483,2,0,L|316:166,1,55,14|0,0:0|0:0,0:0:0:0:
308,128,108875,5,6,3:2:0:0:
240,39,109267,1,10,0:2:0:0:
240,39,109463,2,0,L|153:27,1,60.5000018463135,2|0,0:0|3:0,0:0:0:0:
121,13,109856,2,0,L|61:21,1,60.5000018463135,2|8,0:0|0:0,0:0:0:0:
27,71,110248,2,0,B|23:97|23:97|39:135|39:135|30:216,1,121.000003692627,2|0,0:0|3:0,0:0:0:0:
26,248,110836,1,8,0:0:0:0:
40,368,111228,1,0,3:0:0:0:
96,346,111424,1,2,3:2:0:0:
155,358,111620,2,0,L|224:363,1,60.5000018463135,10|0,0:0|3:0,0:0:0:0:
275,362,112012,5,6,3:2:0:0:
227,250,112405,1,10,0:0:0:0:
336,199,112797,2,0,L|320:64,1,121.000003692627,2|8,3:2|0:0,0:0:0:0:
332,19,113385,2,0,P|376:6|460:34,1,121.000003692627,2|2,0:0|0:0,0:0:0:0:
491,65,113973,2,0,L|498:132,1,60.5000018463135,10|2,0:0|0:0,0:0:0:0:
510,184,114365,1,2,3:2:0:0:
390,206,114758,2,0,L|314:199,1,60.5000018463135,10|0,0:0|3:0,0:0:0:0:
269,205,115150,6,0,B|265:165|265:165|272:138|272:138|274:69,2,121.000003692627,6|8|0,3:2|0:0|3:0,0:0:0:0:
278,329,116326,1,8,0:0:0:0:
278,329,116522,2,0,B|319:329|319:329|339:312|339:312|402:313,1,121.000003692627,6|0,3:2|3:0,0:0:0:0:
448,336,117110,1,8,0:0:0:0:
498,225,117503,2,0,L|490:164,1,60.5000018463135,2|0,3:2|3:0,0:0:0:0:
474,106,117895,2,0,L|481:45,1,60.5000018463135,10|0,0:0|3:0,0:0:0:0:
423,25,118287,6,0,B|382:24|382:24|370:31|370:31|285:30,1,121.000003692627,6|10,3:2|0:0,0:0:0:0:
243,35,118875,1,2,0:0:0:0:
234,156,119267,2,0,L|240:218,1,60.5000018463135,2|10,0:0|0:0,0:0:0:0:
235,276,119659,2,0,P|187:261|114:295,1,121.000003692627,6|2,3:2|3:2,0:0:0:0:
80,328,120248,1,10,0:0:0:0:
10,229,120640,2,0,P|-4:181|22:107,1,121.000003692627,2|8,3:2|0:0,0:0:0:0:
118,51,121424,6,0,B|116:84|116:84|129:112|129:112|127:173,1,121.000003692627,6|10,3:2|0:0,0:0:0:0:
143,227,122012,2,0,P|180:233|212:219,1,60.5000018463135,2|0,0:0|3:0,0:0:0:0:
237,177,122405,2,0,P|266:169|295:176,1,60.5000018463135,2|8,3:2|0:0,0:0:0:0:
334,222,122797,1,6,3:2:0:0:
392,327,123189,2,0,P|430:334|453:327,1,60.5000018463135,2|10,3:2|0:0,0:0:0:0:
495,288,123581,1,2,3:2:0:0:
484,172,123973,1,0,3:0:0:0:
484,172,124169,2,0,L|490:90,1,60.5000018463135,10|2,0:0|0:0,0:0:0:0:
483,51,124561,6,0,B|433:32|433:32|356:51,1,121.000003692627,6|8,3:2|0:0,0:0:0:0:
335,100,125150,1,6,3:2:0:0:
219,134,125542,2,0,L|213:52,1,60.5000018463135,2|10,3:2|0:0,0:0:0:0:
196,16,125934,1,6,3:2:0:0:
16,42,126522,2,0,L|22:118,1,60.5000018463135,6|0,3:2|0:0,0:0:0:0:
53,153,126914,2,0,L|47:229,2,60.5000018463135,2|2|10,0:0|3:2|0:0,0:0:0:0:
109,126,127503,1,10,0:0:0:0:
109,126,127699,5,6,3:2:0:0:
208,174,128091,2,0,L|262:169,2,55,8|2|0,0:0|0:0|3:2,0:0:0:0:
189,225,128679,2,0,L|184:279,1,55,0|8,3:0|0:0,0:0:0:0:
182,334,129071,2,0,B|146:334|146:334|114:351|114:351|50:347,1,110,6|0,3:2|3:0,0:0:0:0:
22,358,129659,1,8,0:0:0:0:
50,251,130052,2,0,L|39:174,1,55,8|0,0:0|3:0,0:0:0:0:
34,142,130444,2,0,L|45:65,1,55,10|10,0:0|0:0,0:0:0:0:
66,38,130836,6,0,B|122:25|122:25|193:44,1,110,6|8,3:2|0:0,0:0:0:0:
210,78,131424,1,6,3:2:0:0:
296,145,131816,2,0,L|285:222,1,55,2|10,3:2|0:0,0:0:0:0:
278,253,132209,1,6,3:2:0:0:
421,335,132797,2,0,L|432:258,1,55,6|0,3:2|0:0,0:0:0:0:
430,225,133189,2,0,P|461:231|507:216,2,55,10|0|8,0:0|3:0|0:0,0:0:0:0:
412,178,133777,1,8,0:0:0:0:
412,178,133973,5,6,3:2:0:0:
443,72,134365,2,0,P|393:53|330:72,1,110,8|0,0:0|3:0,0:0:0:0:
291,93,134954,2,0,L|233:85,1,55,0|8,3:0|0:0,0:0:0:0:
188,58,135346,1,6,3:2:0:0:
83,47,135738,1,2,3:2:0:0:
83,47,135934,2,0,L|75:105,1,55,10|2,0:0|3:2,0:0:0:0:
72,156,136326,2,0,P|102:152|132:157,2,55,8|0|8,0:0|3:0|0:0,0:0:0:0:
38,200,136914,1,8,0:0:0:0:
38,200,137110,5,6,3:2:0:0:
50,309,137503,2,0,P|42:339|45:371,2,55,10|2|2,0:0|0:0|3:2,0:0:0:0:
104,305,138091,2,0,L|158:312,1,55,2|10,0:0|0:0,0:0:0:0:
213,319,138483,1,6,3:2:0:0:
283,234,138875,2,0,L|228:226,1,55,2|8,3:2|0:0,0:0:0:0:
182,196,139267,2,0,P|166:155|190:82,1,110,2|2,0:0|3:2,0:0:0:0:
214,48,139856,1,8,0:0:0:0:
323,35,140248,6,0,P|365:50|445:29,1,110,6|10,3:2|0:0,0:0:0:0:
482,31,140836,2,0,P|493:84|477:136,1,110,2|2,0:0|3:2,0:0:0:0:
461,191,141424,1,8,0:0:0:0:
461,191,141620,1,6,3:2:0:0:
482,298,142012,2,0,P|457:293|424:296,1,55,2|8,3:2|0:0,0:0:0:0:
393,338,142405,2,0,P|342:355|278:333,1,110,2|2,0:0|3:2,0:0:0:0:
244,309,142993,2,0,L|235:236,1,55,8|8,0:0|0:0,0:0:0:0:
216,203,143385,5,6,3:2:0:0:
112,182,143777,1,10,0:0:0:0:
112,182,143973,2,0,P|114:155|108:125,2,55,2|2|2,0:0|3:2|0:0,0:0:0:0:
82,229,144561,1,10,0:0:0:0:
82,229,144758,1,6,3:2:0:0:
36,329,145150,2,0,P|61:325|96:334,1,55,2|8,3:2|0:0,0:0:0:0:
140,352,145542,2,0,P|185:365|258:345,1,110,2|2,0:0|3:2,0:0:0:0:
294,326,146130,1,8,0:0:0:0:
375,252,146522,6,0,B|402:257|402:257|443:253,2,55,6|2|10,3:2|0:0|0:0,0:0:0:0:
338,210,147110,2,0,B|337:185|337:185|353:148|353:148|353:95,1,110,6|8,3:2|0:0,0:0:0:0:
338,50,147699,1,6,3:2:0:0:
178,30,148287,1,0,3:0:0:0:
178,30,148483,2,0,L|124:23,1,55,8|0,0:0|3:0,0:0:0:0:
68,29,148875,1,10,0:0:0:0:
68,29,149071,1,10,0:0:0:0:
256,192,149659,12,0,155934,0:0:0:0:
