osu file format v14

[General]
AudioFilename: audio.mp3
AudioLeadIn: 0
PreviewTime: 111104
Countdown: 0
SampleSet: Soft
StackLeniency: 0.7
Mode: 0
LetterboxInBreaks: 0
WidescreenStoryboard: 1

[Editor]
Bookmarks: 182551,191709,245551,249499
DistanceSpacing: 1
BeatDivisor: 4
GridSize: 32
TimelineZoom: 1

[Metadata]
Title:Uso to Shinjitsu
TitleUnicode:嘘と真実
Artist:Hazuki
ArtistUnicode:葉月
Creator:Akitoshi
Version:Normal
Source:幻のディストピア
Tags:Corinn -Laura- angel note meis clauson Maboroshi no Dystopia eroge visual novel opening full version fullver japanese video game
BeatmapID:2293267
BeatmapSetID:1079281

[Difficulty]
HPDrainRate:4
CircleSize:3.2
OverallDifficulty:4
ApproachRate:5.5
SliderMultiplier:0.999999999999999
SliderTickRate:1

[Events]
//Background and Video events
0,0,"dystopia5.jpg",0,0
//Break Periods
2,18341,24163
2,84025,89216
2,182551,190584
//Storyboard Layer 0 (Background)
//Storyboard Layer 1 (Fail)
//Storyboard Layer 2 (Pass)
//Storyboard Layer 3 (Foreground)
//Storyboard Layer 4 (Overlay)
//Storyboard Sound Samples

[TimingPoints]
657,315.789473684211,4,2,1,70,1,0
4762,-100,4,2,1,40,0,0
5078,-100,4,2,1,60,0,0
5709,-100,4,2,1,70,0,0
6025,-100,4,2,1,70,0,0
8157,-100,4,2,1,5,0,0
8235,-100,4,2,1,70,0,0
10683,-100,4,2,1,5,0,0
10762,-100,4,2,1,70,0,0
13209,-100,4,2,1,5,0,0
13288,-100,4,2,1,70,0,0
15814,-100,4,2,1,50,0,0
25288,-100,4,2,1,50,0,0
25604,-100,4,2,1,50,0,0
25920,-100,4,2,1,60,0,0
28367,-100,4,2,1,5,0,0
28446,-100,4,2,1,60,0,0
30893,-100,4,2,1,5,0,0
30972,-100,4,2,1,60,0,0
33420,-100,4,2,1,5,0,0
33499,-100,4,2,1,60,0,0
36025,-100,4,2,1,60,0,0
43288,-100,4,2,1,60,0,0
43604,-100,4,2,1,70,0,0
45499,-100,4,2,1,50,0,0
45735,-100,4,2,1,5,0,0
45814,-100,4,2,1,50,0,0
46051,-100,4,2,1,5,0,0
46130,-95.2380952380952,4,2,1,80,0,1
46446,-95.2380952380952,4,2,1,80,0,1
48578,-95.2380952380952,4,2,1,5,0,1
48657,-95.2380952380952,4,2,1,80,0,1
51104,-95.2380952380952,4,2,1,5,0,1
51183,-95.2380952380952,4,2,1,80,0,1
56235,-95.2380952380952,4,2,1,80,0,1
56551,-95.2380952380952,4,2,1,80,0,1
58683,-95.2380952380952,4,2,1,5,0,1
58762,-95.2380952380952,4,2,1,80,0,1
61209,-95.2380952380952,4,2,1,5,0,1
61288,-95.2380952380952,4,2,1,80,0,1
66341,-100,4,2,1,60,0,0
71393,-100,4,2,1,70,0,0
71709,-100,4,2,1,70,0,0
73841,-100,4,2,1,5,0,0
73920,-100,4,2,1,70,0,0
76367,-100,4,2,1,5,0,0
76446,-100,4,2,1,70,0,0
78893,-100,4,2,1,5,0,0
78972,-100,4,2,1,70,0,0
81420,-100,4,2,1,5,0,0
81499,-100,4,2,1,50,0,0
91288,-100,4,2,1,60,0,0
91604,-100,4,2,1,60,0,0
94051,-100,4,2,1,5,0,0
94130,-100,4,2,1,60,0,0
96578,-100,4,2,1,5,0,0
96657,-100,4,2,1,60,0,0
99104,-100,4,2,1,5,0,0
99183,-100,4,2,1,60,0,0
101709,-100,4,2,1,60,0,0
108972,-100,4,2,1,60,0,0
109288,-100,4,2,1,70,0,0
111183,-100,4,2,1,50,0,0
111420,-100,4,2,1,5,0,0
111499,-100,4,2,1,50,0,0
111735,-100,4,2,1,5,0,0
111814,-95.2380952380952,4,2,1,80,0,1
112130,-95.2380952380952,4,2,1,80,0,1
114262,-95.2380952380952,4,2,1,5,0,1
114341,-95.2380952380952,4,2,1,80,0,1
116788,-95.2380952380952,4,2,1,5,0,1
116867,-95.2380952380952,4,2,1,80,0,1
121920,-95.2380952380952,4,2,1,80,0,1
122235,-95.2380952380952,4,2,1,80,0,1
124367,-95.2380952380952,4,2,1,5,0,1
124446,-95.2380952380952,4,2,1,80,0,1
126893,-95.2380952380952,4,2,1,5,0,1
126972,-95.2380952380952,4,2,1,80,0,1
132025,-100,4,2,1,60,0,0
137078,-100,4,2,1,70,0,0
147183,-100,4,2,2,70,0,0
150814,-100,4,2,1,70,0,0
152235,-100,4,2,2,70,0,0
154762,-100,4,2,1,70,0,0
155078,-100,4,2,2,70,0,0
155867,-100,4,2,1,70,0,0
162341,-100,4,2,1,70,0,0
165420,-100,4,2,1,5,0,0
165499,-100,4,2,1,70,0,0
170472,-100,4,2,1,5,0,0
170551,-100,4,2,1,70,0,0
175525,-100,4,2,1,5,0,0
175604,-100,4,2,1,70,0,0
182551,-100,4,2,1,50,0,0
192025,-100,4,2,1,60,0,0
192341,-100,4,2,1,50,0,0
192578,-100,4,2,1,5,0,0
192657,-95.2380952380952,4,2,1,80,0,1
192972,-95.2380952380952,4,2,1,80,0,1
195104,-95.2380952380952,4,2,1,5,0,1
195183,-95.2380952380952,4,2,1,80,0,1
197630,-95.2380952380952,4,2,1,5,0,1
197709,-95.2380952380952,4,2,1,80,0,1
202762,-100,4,2,1,60,0,0
207183,-100,4,2,1,70,0,0
207814,-95.2380952380952,4,2,1,80,0,1
208130,-95.2380952380952,4,2,1,80,0,1
210262,-95.2380952380952,4,2,1,5,0,1
210341,-95.2380952380952,4,2,1,80,0,1
212788,-95.2380952380952,4,2,1,5,0,1
212867,-95.2380952380952,4,2,1,80,0,1
217920,-95.2380952380952,4,2,1,80,0,1
218235,-95.2380952380952,4,2,1,80,0,1
220367,-95.2380952380952,4,2,1,5,0,1
220446,-95.2380952380952,4,2,1,80,0,1
222893,-95.2380952380952,4,2,1,5,0,1
222972,-95.2380952380952,4,2,1,80,0,1
228025,-100,4,2,1,60,0,0
233078,-100,4,2,1,70,0,0
233393,-100,4,2,1,70,0,0
235525,-100,4,2,1,5,0,0
235604,-100,4,2,1,70,0,0
238051,-100,4,2,1,5,0,0
238130,-100,4,2,1,70,0,0
240578,-100,4,2,1,5,0,0
240657,-100,4,2,1,70,0,0
246972,-100,4,2,1,50,0,0
248235,-100,4,2,1,30,0,0
248867,-100,4,2,1,10,0,0
249499,-100,4,2,1,5,0,0

[Colours]
Combo1 : 255,91,255
Combo2 : 0,255,255
Combo3 : 128,128,255
Combo4 : 255,255,0

[HitObjects]
90,124,657,6,0,L|99:181,1,49.9999999999999,4|0,3:2|3:0,0:0:0:0:
235,281,1604,2,0,L|226:338,1,49.9999999999999,4|0,3:2|3:0,0:0:0:0:
227,330,3183,6,0,L|236:273,1,49.9999999999999,4|0,3:2|3:0,0:0:0:0:
372,173,4130,2,0,L|363:116,1,49.9999999999999,4|0,3:2|3:0,0:0:0:0:
246,56,4762,2,0,P|204:74|140:54,2,99.9999999999999,2|2|2,0:0|3:2|3:2,0:0:0:0:
339,21,5709,6,0,P|391:28|449:37,1,99.9999999999999,6|8,3:2|0:0,0:0:0:0:
487,45,6183,1,2,0:0:0:0:
506,143,6499,1,2,0:0:0:0:
437,215,6814,2,0,P|381:209|337:228,1,99.9999999999999,2|0,0:0|0:0,0:0:0:0:
299,252,7288,1,8,0:0:0:0:
231,325,7604,2,0,L|243:381,2,49.9999999999999,0|2|8,3:0|0:0|0:0,0:0:0:0:
162,252,8235,6,0,P|168:198|177:143,1,99.9999999999999,0|8,3:0|0:0,0:0:0:0:
181,103,8709,1,2,0:0:0:0:
107,35,9025,1,2,0:0:0:0:
29,98,9341,2,0,P|10:147|19:209,1,99.9999999999999,2|0,0:0|0:0,0:0:0:0:
25,242,9814,1,8,0:0:0:0:
87,320,10130,2,0,L|80:379,2,49.9999999999999,0|2|8,3:0|0:0|0:0,0:0:0:0:
162,252,10762,6,0,P|214:246|272:240,1,99.9999999999999,0|8,3:0|0:0,0:0:0:0:
310,233,11235,1,2,0:0:0:0:
384,165,11551,1,2,0:0:0:0:
367,66,11867,2,0,P|324:49|262:57,1,99.9999999999999,2|2,0:0|0:0,0:0:0:0:
230,81,12341,1,8,0:0:0:0:
230,81,12499,2,0,P|187:98|125:90,1,99.9999999999999,2|2,0:0|0:0,0:0:0:0:
88,72,12972,1,8,0:0:0:0:
14,139,13288,6,0,P|26:212|31:252,1,99.9999999999999,0|8,3:0|0:0,0:0:0:0:
35,287,13762,1,2,0:0:0:0:
120,338,14078,1,2,0:0:0:0:
217,317,14393,2,0,P|231:268|221:220,1,99.9999999999999,2|2,0:0|0:0,0:0:0:0:
203,179,14867,1,8,0:0:0:0:
203,179,15025,2,0,P|251:188|299:174,1,99.9999999999999,2|2,0:0|0:0,0:0:0:0:
341,146,15499,2,0,L|396:151,1,50,8|8,0:0|0:0,0:0:0:0:
440,157,15814,5,4,3:2:0:0:
256,192,15972,12,8,17709,0:0:0:0:
242,79,25288,6,0,L|251:129,1,50,8|8,3:2|0:0,0:0:0:0:
278,170,25604,2,0,L|269:220,1,50,8|8,3:2|0:0,0:0:0:0:
258,268,25920,5,4,3:2:0:0:
169,313,26235,2,0,P|118:290|66:299,2,99.9999999999999,8|0|8,0:0|3:0|0:0,0:0:0:0:
248,374,27183,2,0,P|299:365|352:357,1,99.9999999999999,0|8,3:0|0:0,0:0:0:0:
395,345,27657,2,0,P|410:297|401:247,1,99.9999999999999,2|2,0:0|0:0,0:0:0:0:
372,208,28130,2,0,P|376:162|382:93,1,99.9999999999999,8|0,0:0|3:0,0:0:0:0:
328,22,28762,6,0,P|276:46|224:45,1,99.9999999999999,8|0,0:0|3:0,0:0:0:0:
136,25,29393,1,8,0:0:0:0:
58,87,29709,2,0,P|51:139|45:188,1,99.9999999999999,0|8,3:0|0:0,0:0:0:0:
7,219,30183,2,0,P|14:271|20:320,1,99.9999999999999,2|2,0:0|0:0,0:0:0:0:
24,368,30657,2,0,P|75:374|126:349,1,99.9999999999999,8|0,0:0|3:0,0:0:0:0:
182,278,31288,6,0,P|236:284|287:292,1,99.9999999999999,8|0,0:0|3:0,0:0:0:0:
380,305,31920,1,8,0:0:0:0:
464,252,32235,2,0,P|476:193|458:146,1,99.9999999999999,0|8,3:0|0:0,0:0:0:0:
432,116,32709,2,0,P|373:128|326:110,1,99.9999999999999,2|2,0:0|0:0,0:0:0:0:
290,94,33183,2,0,P|282:146|272:206,1,99.9999999999999,8|0,0:0|3:0,0:0:0:0:
258,291,33814,5,8,0:0:0:0:
165,328,34130,1,0,3:0:0:0:
68,302,34446,1,8,0:0:0:0:
18,214,34762,2,0,P|12:152|28:118,1,99.9999999999999,0|8,3:0|0:0,0:0:0:0:
100,50,35393,2,0,L|161:59,1,50,4|2,3:0|0:0,0:0:0:0:
190,85,35709,2,0,L|251:76,1,50,8|2,3:2|3:2,0:0:0:0:
293,76,36025,5,4,3:2:0:0:
293,76,36183,2,0,B|266:172|266:172|301:208,1,150,0|8,3:0|0:0,0:0:0:0:
404,218,36972,1,0,3:0:0:0:
404,218,37130,2,0,P|428:174|388:83,1,150,0|0,3:0|3:0,0:0:0:0:
293,76,37920,2,0,P|241:85|183:95,1,99.9999999999999,8|2,0:0|0:0,0:0:0:0:
99,112,38551,5,0,3:0:0:0:
99,112,38709,2,0,B|86:166|86:166|107:206|107:206|90:266,1,150,0|8,3:0|0:0,0:0:0:0:
160,335,39499,1,0,3:0:0:0:
160,335,39657,2,0,P|217:298|294:312,1,150,0|0,3:0|3:0,0:0:0:0:
378,366,40446,1,8,0:0:0:0:
462,312,40762,1,0,3:0:0:0:
450,217,41078,1,4,3:2:0:0:
450,217,41235,6,0,B|392:208|392:208|362:181|362:181|293:173,1,150,0|8,3:0|0:0,0:0:0:0:
215,172,42025,1,0,3:0:0:0:
215,172,42183,2,0,P|151:192|79:148,1,150,0|0,3:0|3:0,0:0:0:0:
37,64,42972,1,8,0:0:0:0:
124,14,43288,1,8,0:0:0:0:
222,30,43604,6,0,L|231:86,1,50,6|0,3:2|3:0,0:0:0:0:
330,79,44078,2,0,L|321:135,1,50,6|0,3:2|3:0,0:0:0:0:
422,128,44551,2,0,L|431:184,1,50,6|0,3:2|3:0,0:0:0:0:
429,177,46130,6,0,B|408:227|408:227|432:279,1,104.999996795654,6|8,3:2|0:0,0:0:0:0:
442,324,46604,2,0,P|395:317|341:340,1,104.999996795654,2|0,0:0|3:0,0:0:0:0:
299,365,47078,1,8,0:0:0:0:
299,365,47235,2,0,P|290:293|285:255,1,104.999996795654,0|0,3:0|3:0,0:0:0:0:
280,208,47709,1,8,0:0:0:0:
221,121,48025,1,0,3:0:0:0:
116,109,48341,1,8,0:0:0:0:
30,169,48657,6,0,P|15:220|28:271,1,104.999996795654,0|8,3:0|0:0,0:0:0:0:
54,313,49130,2,0,P|105:298|156:311,1,104.999996795654,2|0,0:0|3:0,0:0:0:0:
204,338,49604,1,8,0:0:0:0:
204,338,49762,2,0,P|194:264|190:223,1,104.999996795654,0|0,3:0|3:0,0:0:0:0:
185,181,50235,1,8,0:0:0:0:
236,89,50551,1,0,3:0:0:0:
340,76,50867,1,8,0:0:0:0:
430,129,51183,6,0,P|454:181|450:231,1,104.999996795654,0|8,3:0|0:0,0:0:0:0:
424,272,51657,1,2,0:0:0:0:
330,319,51972,2,0,L|267:310,1,52.4999983978271,0|8,3:0|0:0,0:0:0:0:
234,281,52288,2,0,P|176:292|121:303,1,104.999996795654,0|0,3:0|3:0,0:0:0:0:
78,309,52762,1,8,0:0:0:0:
18,222,53078,1,0,3:0:0:0:
56,124,53393,1,8,0:0:0:0:
160,109,53709,6,0,P|205:127|268:113,1,104.999996795654,0|8,3:0|0:0,0:0:0:0:
299,83,54183,2,0,P|344:65|407:79,1,104.999996795654,2|0,0:0|3:0,0:0:0:0:
447,105,54657,1,8,0:0:0:0:
447,105,54814,2,0,P|437:164|432:212,1,104.999996795654,0|0,3:0|3:0,0:0:0:0:
422,260,55288,1,8,0:0:0:0:
337,322,55604,2,0,P|343:351|347:379,2,52.4999983978271,0|0|8,3:0|3:0|0:0,0:0:0:0:
250,262,56235,6,0,B|233:211|233:211|252:162,1,104.999996795654,4|8,3:2|0:0,0:0:0:0:
262,111,56709,2,0,P|198:115|159:93,1,104.999996795654,2|0,0:0|3:0,0:0:0:0:
125,68,57183,1,8,0:0:0:0:
125,68,57341,2,0,P|117:128|110:179,1,104.999996795654,0|0,3:0|3:0,0:0:0:0:
103,224,57814,1,8,0:0:0:0:
140,322,58130,1,0,3:0:0:0:
241,347,58446,1,8,0:0:0:0:
332,295,58762,6,0,P|379:276|439:279,1,104.999996795654,0|8,3:0|0:0,0:0:0:0:
484,284,59235,2,0,P|503:237|500:177,1,104.999996795654,2|0,0:0|3:0,0:0:0:0:
486,138,59709,1,8,0:0:0:0:
486,138,59867,2,0,P|421:146|378:152,1,104.999996795654,0|0,3:0|3:0,0:0:0:0:
329,160,60341,1,8,0:0:0:0:
239,214,60657,1,0,3:0:0:0:
138,184,60972,1,8,0:0:0:0:
123,79,61288,6,0,P|171:55|224:58,1,104.999996795654,0|8,3:0|0:0,0:0:0:0:
270,74,61762,1,2,0:0:0:0:
329,160,62078,2,0,L|382:153,1,52.4999983978271,0|8,3:0|0:0,0:0:0:0:
433,148,62393,2,0,P|457:196|454:249,1,104.999996795654,0|0,3:0|3:0,0:0:0:0:
428,292,62867,1,8,0:0:0:0:
331,332,63183,1,0,3:0:0:0:
232,295,63499,1,8,0:0:0:0:
214,191,63814,6,0,P|153:199|106:206,1,104.999996795654,0|8,3:0|0:0,0:0:0:0:
57,212,64288,2,0,P|39:168|48:113,1,104.999996795654,2|0,0:0|3:0,0:0:0:0:
74,68,64762,1,8,0:0:0:0:
74,68,64920,2,0,P|124:77|173:59,1,104.999996795654,0|0,3:0|3:0,0:0:0:0:
211,23,65393,1,8,0:0:0:0:
295,84,65709,2,0,P|290:113|286:138,2,52.4999983978271,0|0|8,3:0|3:0|0:0,0:0:0:0:
378,26,66341,5,4,3:2:0:0:
378,26,66499,2,0,B|408:43|452:23|452:23|489:30|513:62,1,150,0|8,3:0|0:0,0:0:0:0:
471,154,67288,1,0,3:0:0:0:
471,154,67446,2,0,P|417:165|397:258,1,150,0|2,3:0|0:0,0:0:0:0:
418,344,68235,1,8,0:0:0:0:
323,375,68551,1,0,3:0:0:0:
244,323,68867,5,4,3:2:0:0:
244,323,69025,2,0,B|227:287|231:262|231:262|247:236|247:236|258:211|249:176,1,150,0|8,3:0|0:0,0:0:0:0:
161,147,69814,1,0,3:0:0:0:
161,147,69972,2,0,P|122:174|32:142,1,150,0|2,3:0|0:0,0:0:0:0:
9,44,70762,1,8,0:0:0:0:
105,18,71078,2,0,L|176:28,1,50,8|8,0:0|0:0,0:0:0:0:
195,53,71393,6,0,P|248:46|297:39,1,99.9999999999999,6|8,3:2|0:0,0:0:0:0:
343,32,71867,1,2,0:0:0:0:
420,95,72183,1,2,0:0:0:0:
396,192,72499,2,0,P|353:214|301:215,1,99.9999999999999,2|0,0:0|0:0,0:0:0:0:
253,203,72972,1,8,0:0:0:0:
175,267,73288,2,0,L|185:323,2,50,0|2|8,3:0|0:0|0:0,0:0:0:0:
112,189,73920,6,0,P|118:140|127:80,1,99.9999999999999,0|8,3:0|0:0,0:0:0:0:
132,40,74393,1,2,0:0:0:0:
228,14,74709,1,2,0:0:0:0:
320,53,75025,2,0,P|343:99|344:154,1,99.9999999999999,2|0,0:0|0:0,0:0:0:0:
330,194,75499,1,8,0:0:0:0:
250,254,75814,2,0,L|191:247,2,49.9999999999999,0|2|8,3:0|0:0|0:0,0:0:0:0:
321,324,76446,6,0,P|371:335|431:312,1,99.9999999999999,0|8,3:0|0:0,0:0:0:0:
456,291,76920,1,2,0:0:0:0:
488,196,77235,1,2,0:0:0:0:
423,119,77551,2,0,P|374:113|317:106,1,99.9999999999999,2|2,0:0|0:0,0:0:0:0:
287,80,78025,1,8,0:0:0:0:
287,80,78183,2,0,P|238:86|181:93,1,99.9999999999999,2|2,0:0|0:0,0:0:0:0:
137,99,78657,1,8,0:0:0:0:
38,116,78972,6,0,P|17:164|23:224,1,99.9999999999999,0|8,3:0|0:0,0:0:0:0:
32,259,79446,1,2,0:0:0:0:
109,321,79762,1,2,0:0:0:0:
196,272,80078,2,0,P|247:276|301:282,1,99.9999999999999,2|2,0:0|0:0,0:0:0:0:
345,305,80551,1,8,0:0:0:0:
345,305,80709,2,0,P|396:301|450:295,1,99.9999999999999,2|2,0:0|0:0,0:0:0:0:
494,287,81183,2,0,P|499:238|472:186,1,99.9999999999999,8|6,0:0|0:0,0:0:0:0:
256,192,81657,12,2,83393,0:0:0:0:
277,101,90341,6,0,P|241:124|137:95,2,150,2|2|8,0:2|0:2|3:2,0:0:0:0:
310,64,91446,1,8,3:2:0:0:
310,64,91604,5,6,3:2:0:0:
397,112,91920,2,0,P|455:101|503:92,2,99.9999999999999,8|0|8,0:0|3:0|0:0,0:0:0:0:
315,170,92867,2,0,P|303:225|316:273,1,99.9999999999999,0|8,3:0|0:0,0:0:0:0:
327,314,93341,2,0,P|272:302|224:315,1,99.9999999999999,2|2,0:0|0:0,0:0:0:0:
186,335,93814,2,0,P|140:331|71:325,1,99.9999999999999,8|0,0:0|3:0,0:0:0:0:
15,254,94446,6,0,P|7:203|26:152,1,99.9999999999999,8|0,0:0|3:0,0:0:0:0:
82,78,95078,1,8,0:0:0:0:
156,144,95393,2,0,P|196:153|256:137,1,99.9999999999999,0|8,3:0|0:0,0:0:0:0:
284,99,95867,2,0,P|275:139|291:199,1,99.9999999999999,2|2,0:0|0:0,0:0:0:0:
317,236,96341,2,0,P|366:226|419:217,1,99.9999999999999,8|0,0:0|3:0,0:0:0:0:
503,170,96972,6,0,P|512:130|496:70,1,99.9999999999999,8|0,0:0|3:0,0:0:0:0:
413,19,97604,1,8,0:0:0:0:
342,89,97920,2,0,P|285:82|236:76,1,99.9999999999999,0|8,3:0|0:0,0:0:0:0:
201,48,98393,2,0,P|144:55|95:61,1,99.9999999999999,2|2,0:0|0:0,0:0:0:0:
51,67,98867,2,0,P|34:120|46:178,1,99.9999999999999,8|0,0:0|3:0,0:0:0:0:
85,252,99499,5,8,0:0:0:0:
180,281,99814,1,0,3:0:0:0:
266,230,100130,1,8,0:0:0:0:
285,131,100446,2,0,P|325:113|397:120,1,99.9999999999999,0|8,3:0|0:0,0:0:0:0:
465,166,101078,2,0,L|474:227,1,50,4|2,3:0|0:0,0:0:0:0:
500,256,101393,2,0,L|491:317,1,50,8|2,3:2|3:2,0:0:0:0:
487,359,101709,5,4,3:2:0:0:
487,359,101867,2,0,B|442:335|442:335|341:354,1,150,0|8,3:0|0:0,0:0:0:0:
269,296,102657,1,0,3:0:0:0:
269,296,102814,2,0,P|276:226|287:144,1,150,0|0,3:0|3:0,0:0:0:0:
236,59,103604,2,0,P|182:47|123:65,1,99.9999999999999,8|2,0:0|0:0,0:0:0:0:
93,147,104235,5,0,3:0:0:0:
93,147,104393,2,0,B|106:201|106:201|90:242|90:242|105:301,1,150,0|8,3:0|0:0,0:0:0:0:
192,346,105183,1,0,3:0:0:0:
192,346,105341,2,0,B|280:334|260:378|342:366,1,150,0|0,3:0|3:0,0:0:0:0:
427,322,106130,1,8,0:0:0:0:
485,240,106446,1,0,3:0:0:0:
437,158,106762,1,4,3:2:0:0:
437,158,106920,6,0,B|345:146|345:146|323:174|285:188,1,150,0|8,3:0|0:0,0:0:0:0:
208,211,107709,1,0,3:0:0:0:
208,211,107867,2,0,P|234:278|203:356,1,150,0|0,3:0|3:0,0:0:0:0:
112,375,108657,1,8,0:0:0:0:
28,321,108972,1,8,0:0:0:0:
53,224,109288,6,0,L|44:168,1,50,6|0,3:2|3:0,0:0:0:0:
139,139,109762,2,0,L|146:89,1,50,6|0,3:2|3:0,0:0:0:0:
244,68,110235,2,0,L|236:18,1,50,6|0,3:2|3:0,0:0:0:0:
236,18,111814,6,0,B|279:49|279:49|342:41,1,104.999996795654,6|8,3:2|0:0,0:0:0:0:
380,25,112288,2,0,P|363:80|383:129,1,104.999996795654,2|0,0:0|3:0,0:0:0:0:
413,170,112762,1,8,0:0:0:0:
413,170,112920,2,0,P|406:222|399:274,1,104.999996795654,0|0,3:0|3:0,0:0:0:0:
390,325,113393,1,8,0:0:0:0:
295,370,113709,1,0,3:0:0:0:
200,324,114025,1,8,0:0:0:0:
188,219,114341,6,0,P|137:204|86:217,1,104.999996795654,0|8,3:0|0:0,0:0:0:0:
37,231,114814,2,0,P|30:181|22:119,1,104.999996795654,2|0,0:0|3:0,0:0:0:0:
18,78,115288,1,8,0:0:0:0:
18,78,115446,2,0,P|68:89|118:75,1,104.999996795654,0|0,3:0|3:0,0:0:0:0:
162,46,115920,1,8,0:0:0:0:
261,14,116235,1,0,3:0:0:0:
358,54,116551,1,8,0:0:0:0:
397,151,116867,6,0,P|392:208|388:262,1,104.999996795654,0|8,3:0|0:0,0:0:0:0:
383,308,117341,1,2,0:0:0:0:
296,367,117657,2,0,P|266:368|233:358,1,52.4999983978271,0|8,3:0|0:0,0:0:0:0:
199,335,117972,2,0,P|216:288|203:226,1,104.999996795654,0|0,3:0|3:0,0:0:0:0:
188,185,118446,1,8,0:0:0:0:
229,88,118762,1,0,3:0:0:0:
332,69,119078,1,8,0:0:0:0:
397,151,119393,6,0,P|388:207|380:256,1,104.999996795654,0|8,3:0|0:0,0:0:0:0:
365,305,119867,2,0,P|320:287|257:301,1,104.999996795654,2|0,0:0|3:0,0:0:0:0:
221,322,120341,1,8,0:0:0:0:
221,322,120499,2,0,P|176:340|113:326,1,104.999996795654,0|0,3:0|3:0,0:0:0:0:
78,301,120972,1,8,0:0:0:0:
135,213,121288,2,0,P|164:219|192:223,2,52.4999983978271,0|0|8,3:0|3:0|0:0,0:0:0:0:
39,169,121920,6,0,B|22:118|22:118|41:69,1,104.999996795654,6|8,3:2|0:0,0:0:0:0:
66,24,122393,2,0,P|113:45|164:38,1,104.999996795654,2|0,0:0|3:0,0:0:0:0:
217,22,122867,1,8,0:0:0:0:
217,22,123025,2,0,P|225:82|232:133,1,104.999996795654,0|0,3:0|3:0,0:0:0:0:
234,178,123499,1,8,0:0:0:0:
305,254,123814,1,0,3:0:0:0:
410,251,124130,1,8,0:0:0:0:
497,192,124446,6,0,P|504:144|484:88,1,104.999996795654,0|8,3:0|0:0,0:0:0:0:
450,52,124920,2,0,P|402:59|346:39,1,104.999996795654,2|0,0:0|3:0,0:0:0:0:
305,23,125393,1,8,0:0:0:0:
305,23,125551,2,0,P|240:31|197:37,1,104.999996795654,0|0,3:0|3:0,0:0:0:0:
148,45,126025,1,8,0:0:0:0:
74,119,126341,1,0,3:0:0:0:
102,220,126657,1,8,0:0:0:0:
199,258,126972,6,0,P|247:234|300:237,1,104.999996795654,0|8,3:0|0:0,0:0:0:0:
347,251,127446,1,2,0:0:0:0:
345,356,127762,2,0,L|292:363,1,52.4999983978271,0|8,3:0|0:0,0:0:0:0:
242,378,128078,2,0,P|190:371|133:364,1,104.999996795654,0|0,3:0|3:0,0:0:0:0:
86,353,128551,1,8,0:0:0:0:
30,263,128867,1,0,3:0:0:0:
97,182,129183,1,8,0:0:0:0:
200,197,129499,6,0,P|253:204|304:182,1,104.999996795654,0|8,3:0|0:0,0:0:0:0:
328,141,129972,2,0,P|386:147|442:154,1,104.999996795654,2|0,0:0|3:0,0:0:0:0:
489,159,130446,1,8,0:0:0:0:
489,159,130604,2,0,P|507:207|500:258,1,104.999996795654,0|0,3:0|3:0,0:0:0:0:
468,301,131078,1,8,0:0:0:0:
366,325,131393,2,0,P|371:354|375:379,2,52.4999983978271,0|0|8,3:0|3:0|0:0,0:0:0:0:
287,272,132025,5,4,3:2:0:0:
287,272,132183,2,0,B|240:273|197:253|197:253|176:282|152:294,1,150,0|8,3:0|0:0,0:0:0:0:
62,318,132972,1,0,3:0:0:0:
62,318,133130,2,0,P|54:243|43:158,1,150,0|2,3:0|0:0,0:0:0:0:
32,69,133920,1,8,0:0:0:0:
117,17,134235,1,0,3:0:0:0:
214,55,134551,5,4,3:2:0:0:
214,55,134709,2,0,B|257:35|292:39|292:39|314:55|314:55|359:51,1,150,0|8,3:0|0:0,0:0:0:0:
459,43,135499,1,0,3:0:0:0:
459,43,135657,2,0,P|494:100|471:184,1,150,0|2,3:0|0:0,0:0:0:0:
392,231,136446,1,8,0:0:0:0:
306,179,136762,2,0,L|235:189,1,50,8|8,0:0|0:0,0:0:0:0:
206,194,137078,6,0,P|187:246|205:304,1,99.9999999999999,6|8,3:2|0:0,0:0:0:0:
220,332,137551,1,2,0:0:0:0:
315,360,137867,2,0,L|364:353,1,50,0|8,3:0|0:0,0:0:0:0:
413,340,138183,2,0,P|432:288|414:230,1,99.9999999999999,0|0,3:0|3:0,0:0:0:0:
395,203,138657,1,8,0:0:0:0:
334,123,138972,2,0,L|343:68,2,50,0|0|8,3:0|3:0|0:0,0:0:0:0:
256,186,139604,6,0,P|197:176|146:169,1,99.9999999999999,0|8,3:0|0:0,0:0:0:0:
107,161,140078,2,0,P|80:199|79:270,1,99.9999999999999,2|0,0:0|3:0,0:0:0:0:
86,299,140551,1,8,0:0:0:0:
157,368,140867,2,0,P|212:358|272:348,1,99.9999999999999,2|8,0:0|0:0,0:0:0:0:
302,327,141341,1,2,0:0:0:0:
302,327,141499,2,0,L|356:336,2,50,0|0|8,3:0|3:0|0:0,0:0:0:0:
242,246,142130,6,0,P|235:194|257:143,2,99.9999999999999,0|8|2,3:0|0:0|0:0,0:0:0:0:
334,206,143078,2,0,L|388:197,1,50,8|0,0:0|3:0,0:0:0:0:
432,186,143393,2,0,P|439:134|417:83,1,99.9999999999999,2|8,0:0|0:0,0:0:0:0:
351,19,144025,1,0,3:0:0:0:
250,19,144341,1,8,0:0:0:0:
179,89,144657,6,0,P|124:84|67:78,1,99.9999999999999,0|8,3:0|0:0,0:0:0:0:
13,154,145288,2,0,P|38:183|47:243,1,99.9999999999999,2|8,0:0|0:0,0:0:0:0:
33,290,145762,2,0,P|65:269|128:266,1,99.9999999999999,0|0,3:0|3:0,0:0:0:0:
172,282,146235,1,8,0:0:0:0:
260,328,146551,2,0,L|252:383,2,50,0|0|8,3:0|3:0|0:0,0:0:0:0:
304,238,147183,6,0,P|292:176|283:131,1,99.9999999999999,4|8,3:2|0:2,0:0:0:0:
269,41,147814,2,0,P|296:32|322:29,1,50,2|2,0:0|3:2,0:0:0:0:
367,30,148130,2,0,P|390:38|415:41,1,50,10|2,0:2|3:2,0:0:0:0:
465,42,148446,2,0,P|438:90|443:145,1,99.9999999999999,2|10,0:0|0:0,0:0:0:0:
498,215,149078,2,0,L|488:272,1,50,0|0,3:0|3:0,0:0:0:0:
481,313,149393,1,8,0:0:0:0:
386,344,149709,6,0,P|330:335|278:327,1,99.9999999999999,2|8,3:2|0:0,0:0:0:0:
221,252,150341,2,0,P|165:261|113:269,1,99.9999999999999,2|10,0:0|0:0,0:0:0:0:
72,274,150814,2,0,P|52:231|59:169,1,99.9999999999999,0|0,3:0|3:0,0:0:0:0:
74,132,151288,1,8,0:0:0:0:
139,56,151604,1,0,3:0:0:0:
139,56,151762,2,0,L|197:65,1,50,0|8,3:0|0:0,0:0:0:0:
287,79,152235,6,0,P|333:104|386:101,1,99.9999999999999,2|10,3:2|0:0,0:0:0:0:
478,86,152867,2,0,L|489:150,1,50,2|2,0:0|3:2,0:0:0:0:
509,180,153183,2,0,L|498:244,1,50,10|2,0:0|3:2,0:0:0:0:
488,278,153499,2,0,P|439:269|392:285,1,99.9999999999999,2|10,0:0|0:0,0:0:0:0:
324,357,154130,2,0,P|293:354|273:352,1,50,0|0,3:0|3:0,0:0:0:0:
224,343,154446,1,8,0:0:0:0:
187,249,154762,6,0,P|174:201|193:143,1,99.9999999999999,2|10,3:2|0:0,0:0:0:0:
145,62,155393,2,0,L|84:73,1,50,2|2,0:0|3:2,0:0:0:0:
50,83,155709,1,10,0:0:0:0:
50,83,155867,2,0,B|30:130|30:130|46:185,1,99.9999999999999,2|2,3:2|3:2,0:0:0:0:
54,226,156341,1,10,0:0:0:0:
98,315,156657,2,0,P|126:320|149:317,1,50,2|2,3:2|3:2,0:0:0:0:
193,299,156972,1,8,0:0:0:0:
284,258,157288,6,0,B|332:273|332:273|388:258,1,99.9999999999999,6|8,3:2|0:0,0:0:0:0:
452,190,157920,2,0,P|446:144|439:90,1,99.9999999999999,2|8,0:0|0:0,0:0:0:0:
430,41,158393,2,0,P|377:59|326:41,1,99.9999999999999,0|0,3:0|3:0,0:0:0:0:
290,26,158867,1,8,0:0:0:0:
196,61,159183,2,0,L|125:53,2,50,0|0|8,3:0|3:0|0:0,0:0:0:0:
232,154,159814,6,0,B|281:171|281:171|343:150,1,99.9999999999999,6|8,3:2|0:2,0:0:0:0:
378,143,160288,1,2,0:0:0:0:
378,143,160446,2,0,P|441:151|486:157,1,99.9999999999999,2|8,0:0|0:0,0:0:0:0:
511,192,160920,2,0,P|487:239|492:291,1,99.9999999999999,0|0,3:0|3:0,0:0:0:0:
501,333,161393,1,8,0:0:0:0:
408,373,161709,1,0,3:0:0:0:
319,326,162025,2,0,L|257:337,1,50,8|8,0:0|0:0,0:0:0:0:
220,342,162341,6,0,B|207:291|207:291|230:245,1,99.9999999999999,6|8,3:2|0:0,0:0:0:0:
279,162,162972,1,0,3:0:0:0:
204,97,163288,2,0,L|147:106,1,50,8|2,0:0|0:0,0:0:0:0:
105,116,163604,2,0,P|87:171|94:217,2,99.9999999999999,0|8|0,3:0|0:0|3:0,0:0:0:0:
204,97,164551,1,8,0:0:0:0:
279,164,164867,6,0,P|353:151|395:145,1,99.9999999999999,0|8,3:0|0:0,0:0:0:0:
475,126,165499,1,0,3:0:0:0:
510,219,165814,1,8,0:0:0:0:
471,311,166130,2,0,P|416:321|369:307,1,99.9999999999999,0|8,3:0|0:0,0:0:0:0:
282,268,166762,2,0,L|221:275,1,50,0|0,3:0|0:0,0:0:0:0:
193,305,167078,2,0,P|143:296|92:289,1,99.9999999999999,8|0,0:0|3:0,3:0:0:0:
14,229,167709,5,8,0:0:0:0:
44,133,168025,2,0,P|89:117|144:121,1,99.9999999999999,0|8,3:0|0:0,0:0:0:0:
193,136,168499,1,2,0:0:0:0:
193,136,168657,2,0,P|176:94|188:37,2,99.9999999999999,0|8|0,3:0|0:0|3:0,0:0:0:0:
279,186,169604,1,8,0:0:0:0:
355,121,169920,6,0,P|407:126|459:131,1,99.9999999999999,0|8,3:0|0:0,0:0:0:0:
511,212,170551,1,0,3:0:0:0:
427,267,170867,1,8,0:0:0:0:
328,285,171183,2,0,L|335:336,2,50,0|2|8,3:0|0:0|0:0,0:0:0:0:
246,227,171814,2,0,P|196:222|148:243,1,99.9999999999999,0|8,3:0|0:0,0:0:0:0:
109,265,172288,1,8,0:0:0:0:
109,265,172446,6,0,P|114:215|93:167,1,99.9999999999999,6|8,3:2|0:0,0:0:0:0:
47,81,173078,1,0,3:0:0:0:
120,13,173393,2,0,L|180:17,1,50,8|2,0:0|0:0,0:0:0:0:
217,34,173709,2,0,P|284:25|325:20,2,99.9999999999999,0|8|0,3:0|0:0|3:0,0:0:0:0:
174,125,174657,1,8,0:0:0:0:
233,207,174972,6,0,P|279:219|342:200,1,99.9999999999999,0|8,3:0|0:0,0:0:0:0:
411,149,175604,1,0,3:0:0:0:
477,223,175920,1,8,0:0:0:0:
436,314,176235,2,0,P|377:323|337:330,1,99.9999999999999,0|8,3:0|0:0,0:0:0:0:
242,362,176867,2,0,L|183:355,1,50,0|0,3:0|0:0,0:0:0:0:
151,326,177183,2,0,P|92:335|52:342,1,99.9999999999999,8|0,0:0|3:0,0:0:0:0:
2,255,177814,5,8,0:0:0:0:
52,168,178130,2,0,P|100:184|148:175,1,99.9999999999999,0|8,3:0|0:0,0:0:0:0:
227,114,178762,1,0,3:0:0:0:
324,92,179078,1,8,0:0:0:0:
412,138,179393,2,0,P|418:197|425:251,1,99.9999999999999,0|8,3:0|0:0,0:0:0:0:
380,328,180025,6,0,L|319:341,1,50,6|0,3:2|3:0,0:0:0:0:
260,267,180499,2,0,L|199:254,1,50,6|0,3:2|3:0,0:0:0:0:
140,185,180972,2,0,L|79:198,1,50,6|0,3:2|3:0,0:0:0:0:
172,146,191709,6,0,B|223:127|276:147|263:160|313:189|366:169,1,200,2|2,0:0|0:0,0:0:0:0:
463,134,192657,6,0,B|486:186|486:186|473:241,1,104.999996795654,6|8,3:2|0:0,0:0:0:0:
457,282,193130,2,0,P|419:276|357:303,1,104.999996795654,2|0,0:0|3:0,0:0:0:0:
319,335,193604,1,8,0:0:0:0:
319,335,193762,2,0,P|272:311|221:315,1,104.999996795654,0|0,3:0|3:0,0:0:0:0:
171,332,194235,1,8,0:0:0:0:
75,288,194551,1,0,3:0:0:0:
44,187,194867,1,8,0:0:0:0:
100,98,195183,6,0,P|148:107|208:82,1,104.999996795654,0|8,3:0|0:0,0:0:0:0:
244,59,195657,2,0,P|235:144|233:170,1,104.999996795654,2|0,0:0|3:0,0:0:0:0:
203,207,196130,1,8,0:0:0:0:
203,207,196288,2,0,P|212:292|214:318,1,104.999996795654,0|0,3:0|3:0,0:0:0:0:
217,364,196762,1,8,0:0:0:0:
320,382,197078,1,0,3:0:0:0:
412,332,197393,1,8,0:0:0:0:
453,235,197709,6,0,P|464:179|439:123,1,104.999996795654,0|8,3:0|0:0,0:0:0:0:
412,96,198183,1,2,0:0:0:0:
312,130,198499,2,0,P|274:124|247:120,1,52.4999983978271,0|8,3:0|0:0,0:0:0:0:
215,93,198814,2,0,P|157:103|102:114,1,104.999996795654,0|0,3:0|3:0,0:0:0:0:
60,124,199288,1,8,0:0:0:0:
2,211,199604,1,0,3:0:0:0:
39,309,199920,1,8,0:0:0:0:
137,345,200235,6,0,P|178:328|240:335,1,104.999996795654,0|8,3:0|0:0,0:0:0:0:
288,345,200709,2,0,P|279:281|270:218,1,104.999996795654,2|0,0:0|3:0,0:0:0:0:
267,193,201183,1,8,0:0:0:0:
267,193,201341,2,0,P|308:210|370:203,1,104.999996795654,0|0,3:0|3:0,0:0:0:0:
408,171,201814,1,8,0:0:0:0:
455,77,202130,2,0,L|509:84,2,52.4999983978271,0|0|8,3:0|3:0|0:0,0:0:0:0:
372,29,202762,5,6,3:2:0:0:
372,29,202920,2,0,B|335:38|317:57|317:57|282:25|228:33,1,150,0|8,3:0|0:0,0:0:0:0:
162,99,203709,1,0,3:0:0:0:
162,99,203867,2,0,P|206:147|188:226,1,150,0|2,3:0|0:0,0:0:0:0:
107,282,204657,1,8,0:0:0:0:
168,360,204972,1,0,3:0:0:0:
264,326,205288,5,6,3:2:0:0:
264,326,205446,2,0,B|303:327|324:316|324:316|352:335|352:335|379:324|415:334,1,150,0|8,3:0|0:0,0:0:0:0:
493,280,206235,1,0,3:0:0:0:
493,280,206393,2,0,B|464:205|516:217|490:131,1,150,0|8,3:0|0:0,0:0:0:0:
422,59,207183,1,8,0:0:0:0:
335,108,207499,2,0,L|273:100,1,50,8|8,0:0|0:0,0:0:0:0:
232,98,207814,6,0,B|256:152|256:152|243:204,1,104.999996795654,6|8,3:2|0:0,0:0:0:0:
226,246,208288,2,0,P|175:231|123:251,1,104.999996795654,2|0,0:0|3:0,0:0:0:0:
84,276,208762,1,8,0:0:0:0:
84,276,208920,2,0,P|72:204|67:165,1,104.999996795654,0|0,3:0|3:0,0:0:0:0:
59,120,209393,1,8,0:0:0:0:
138,50,209709,1,0,3:0:0:0:
232,98,210025,1,8,0:0:0:0:
234,203,210341,6,0,P|301:215|341:199,1,104.999996795654,0|8,3:0|0:0,0:0:0:0:
371,166,210814,2,0,P|438:154|478:170,1,104.999996795654,2|0,0:0|3:0,0:0:0:0:
512,207,211288,1,8,0:0:0:0:
512,207,211446,2,0,P|506:264|502:314,1,104.999996795654,0|0,3:0|3:0,0:0:0:0:
497,364,211920,1,8,0:0:0:0:
392,372,212235,1,0,3:0:0:0:
298,324,212551,1,8,0:0:0:0:
269,222,212867,6,0,P|309:204|375:210,1,104.999996795654,0|8,3:0|0:0,0:0:0:0:
417,229,213341,1,2,0:0:0:0:
503,169,213657,2,0,L|492:105,1,52.4999983978271,0|8,3:0|0:0,0:0:0:0:
484,65,213972,2,0,P|432:70|384:50,1,104.999996795654,0|0,3:0|3:0,0:0:0:0:
340,20,214446,1,8,0:0:0:0:
239,52,214762,1,0,3:0:0:0:
237,157,215078,1,8,0:0:0:0:
333,196,215393,6,0,P|329:260|326:311,1,104.999996795654,0|8,3:0|0:0,0:0:0:0:
324,353,215867,2,0,P|273:326|219:331,1,104.999996795654,2|0,0:0|3:0,0:0:0:0:
179,345,216341,1,8,0:0:0:0:
179,345,216499,2,0,P|128:372|74:367,1,104.999996795654,0|0,3:0|3:0,0:0:0:0:
35,344,216972,1,8,0:0:0:0:
2,243,217288,2,0,L|-2:189,2,52.4999983978271,0|0|8,3:0|3:0|0:0,0:0:0:0:
105,264,217920,6,0,B|157:250|157:250|206:264,1,104.999996795654,6|8,3:2|0:0,0:0:0:0:
257,276,218393,2,0,P|271:216|262:174,1,104.999996795654,2|0,0:0|3:0,0:0:0:0:
241,131,218867,1,8,0:0:0:0:
241,131,219025,2,0,P|292:139|342:125,1,104.999996795654,0|0,3:0|3:0,0:0:0:0:
385,94,219499,1,8,0:0:0:0:
475,147,219814,1,0,3:0:0:0:
475,252,220130,1,8,0:0:0:0:
392,316,220446,6,0,P|341:302|290:310,1,104.999996795654,0|8,3:0|0:0,0:0:0:0:
241,330,220920,2,0,P|190:343|139:335,1,104.999996795654,2|0,0:0|3:0,0:0:0:0:
97,314,221393,1,8,0:0:0:0:
97,314,221551,2,0,P|89:233|86:193,1,104.999996795654,0|0,3:0|3:0,0:0:0:0:
86,156,222025,1,8,0:0:0:0:
151,73,222341,1,0,3:0:0:0:
256,73,222657,1,8,0:0:0:0:
325,151,222972,6,0,P|382:164|428:153,1,104.999996795654,0|8,3:0|0:0,0:0:0:0:
470,123,223446,1,2,0:0:0:0:
504,222,223762,2,0,L|498:282,1,52.4999983978271,0|8,3:0|0:0,0:0:0:0:
491,326,224078,2,0,P|439:315|389:328,1,104.999996795654,0|0,3:0|3:0,0:0:0:0:
341,349,224551,1,8,0:0:0:0:
246,304,224867,1,0,3:0:0:0:
212,204,225183,1,8,0:0:0:0:
233,101,225499,6,0,P|182:89|114:105,1,104.999996795654,0|8,3:0|0:0,0:0:0:0:
81,116,225972,2,0,P|93:167|77:235,1,104.999996795654,2|0,0:0|3:0,0:0:0:0:
54,262,226446,1,8,0:0:0:0:
54,262,226604,2,0,P|126:272|176:278,1,104.999996795654,0|0,3:0|3:0,0:0:0:0:
210,283,227078,1,8,0:0:0:0:
283,208,227393,2,0,P|319:203|344:200,2,52.4999983978271,0|0|8,3:0|3:0|0:0,0:0:0:0:
245,120,228025,5,4,3:2:0:0:
245,120,228183,2,0,B|332:92|332:92|361:111|387:117,1,150,0|8,3:0|0:0,0:0:0:0:
479,162,228972,1,0,3:0:0:0:
479,162,229130,2,0,P|449:207|473:297,1,150,0|2,3:0|0:0,0:0:0:0:
400,365,229920,1,8,0:0:0:0:
300,365,230235,1,0,3:0:0:0:
233,298,230551,5,4,3:2:0:0:
233,298,230709,2,0,B|147:281|147:281|112:297|103:330,1,150,0|8,3:0|0:0,0:0:0:0:
10,348,231499,1,0,3:0:0:0:
10,348,231657,2,0,P|16:286|27:191,1,150,0|2,3:0|0:0,0:0:0:0:
40,99,232446,1,8,0:0:0:0:
125,47,232762,2,0,L|179:57,1,50,8|8,0:0|0:0,0:0:0:0:
222,71,233078,6,0,P|240:123|229:182,1,99.9999999999999,6|8,3:2|0:0,0:0:0:0:
210,210,233551,1,2,0:0:0:0:
268,291,233867,1,2,0:0:0:0:
354,239,234183,2,0,P|408:259|467:251,1,99.9999999999999,2|0,0:0|0:0,0:0:0:0:
496,238,234657,1,8,0:0:0:0:
463,143,234972,2,0,L|478:74,2,50,0|2|8,3:0|0:0|0:0,0:0:0:0:
362,148,235604,6,0,P|312:146|266:165,1,99.9999999999999,0|8,3:0|0:0,0:0:0:0:
224,192,236078,1,2,0:0:0:0:
147,128,236393,1,2,0:0:0:0:
206,47,236709,2,0,P|257:41|310:35,1,99.9999999999999,2|0,0:0|0:0,0:0:0:0:
355,29,237183,1,8,0:0:0:0:
439,82,237499,2,0,L|498:91,2,50,0|2|8,3:0|0:0|0:0,0:0:0:0:
362,148,238130,6,0,P|342:201|360:258,1,99.9999999999999,0|8,3:0|0:0,0:0:0:0:
370,288,238604,1,2,0:0:0:0:
290,349,238920,1,2,0:0:0:0:
211,287,239235,2,0,P|163:275|109:286,1,99.9999999999999,2|2,0:0|0:0,0:0:0:0:
69,301,239709,1,8,0:0:0:0:
69,301,239867,2,0,P|56:252|65:203,1,99.9999999999999,2|2,0:0|0:0,0:0:0:0:
87,158,240341,1,8,0:0:0:0:
184,181,240657,6,0,P|233:175|290:168,1,99.9999999999999,0|8,3:0|0:0,0:0:0:0:
333,165,241130,1,2,0:0:0:0:
395,86,241446,1,2,0:0:0:0:
309,34,241762,2,0,P|257:24|204:44,1,99.9999999999999,2|2,0:0|0:0,0:0:0:0:
172,67,242235,1,8,0:0:0:0:
172,67,242393,2,0,P|120:77|67:57,1,99.9999999999999,2|2,0:0|0:0,0:0:0:0:
34,35,242867,1,8,0:0:0:0:
6,131,243183,6,0,L|18:190,1,50,4|0,3:2|3:0,0:0:0:0:
114,197,243657,2,0,L|102:256,1,50,4|0,3:2|3:0,0:0:0:0:
201,268,244130,6,0,L|211:219,1,50,4|0,3:2|3:0,0:0:0:0:
309,198,244604,2,0,L|300:149,1,50,4|0,3:2|3:0,0:0:0:0:
363,71,245078,6,0,P|399:85|420:89,1,50,8|4,0:0|3:0,0:0:0:0:
463,95,245393,1,4,3:0:0:0:
463,95,245551,1,4,3:2:0:0:
256,192,245709,12,0,249499,0:0:0:0:
