osu file format v14

[General]
AudioFilename: audio.mp3
AudioLeadIn: 0
PreviewTime: 79127
Countdown: 0
SampleSet: Normal
StackLeniency: 0.7
Mode: 1
LetterboxInBreaks: 0
WidescreenStoryboard: 0

[Editor]
Bookmarks: 261,11625,27954,29204,34204,36704,39204,49204,59204,69204,77954,79204,96704,99204,106704,109204,111704,114204,119204,129204,137954,139204,156704,161704,166704,176704,181704,186704,189204,191704,204204,206704,224204,226704,229204,239204,249204,257016
DistanceSpacing: 0.2
BeatDivisor: 4
GridSize: 32
TimelineZoom: 2.8

[Metadata]
Title:Legend of Millennium (Glory Ver)
TitleUnicode:Legend of Millennium (Glory Ver)
Artist:Hazuki
ArtistUnicode:葉月
Creator:SenSenko
Version:KyeX's Desire
Source:女装千年王国
Tags:metal japanese joso millenium josou sennen oukoku eroge visual novel kyex gaston_2199 video game rock jrock j-rock no-strike の~すとらいく aogiri penta あおぎり ぺんた
BeatmapID:3644313
BeatmapSetID:1757100

[Difficulty]
HPDrainRate:5
CircleSize:3
OverallDifficulty:7
ApproachRate:10
SliderMultiplier:1.4
SliderTickRate:1

[Events]
//Background and Video events
0,0,"trapito.jpg",0,40
//Break Periods
//Storyboard Layer 0 (Background)
//Storyboard Layer 1 (Fail)
//Storyboard Layer 2 (Pass)
//Storyboard Layer 3 (Foreground)
//Storyboard Layer 4 (Overlay)
//Storyboard Sound Samples

[TimingPoints]
475,454.545454545455,4,1,0,70,1,8
475,-99.9999999999999,4,1,0,70,0,0
702,461.538461538462,4,1,0,70,1,0
702,-98.4848484848484,4,1,0,70,0,0
1625,441.176470588235,4,1,0,70,1,8
1625,-103.030303030303,4,1,0,70,0,0
2066,458.015267175573,4,1,0,70,1,8
2066,-99.2424242424242,4,1,0,70,0,0
2753,454.545454545455,4,1,0,70,1,8
2753,-99.9999999999999,4,1,0,70,0,0
3434,461.538461538462,4,1,0,70,1,8
3434,-98.4848484848484,4,1,0,70,0,0
4357,454.545454545455,4,1,0,70,1,0
4357,-99.9999999999999,4,1,0,70,0,0
5266,441.176470588235,4,1,0,70,1,8
5266,-103.030303030303,4,1,0,70,0,0
6368,468.75,4,1,0,70,1,8
6368,-96.969696969697,4,1,0,70,0,0
7071,458.015267175573,4,1,0,70,1,8
7071,-99.2424242424242,4,1,0,70,0,0
7755,-99.2424242424242,4,1,0,70,0,0
7869,-98.803809201576,4,1,0,70,0,0
7987,461.538461538462,4,1,0,70,1,0
7987,-97.6143775943073,4,1,0,70,0,0
8214,-96.7554577103526,4,1,0,70,0,0
8330,-96.3279721611467,4,1,0,70,0,0
8445,-95.9078843037886,4,1,0,70,0,0
8676,-95.0750313556222,4,1,0,70,0,0
8791,-94.665777402714,4,1,0,70,0,0
8910,447.761194029851,4,1,0,70,1,8
8910,-97.087378640777,4,1,0,70,0,0
9133,-96.388265495584,4,1,0,70,0,0
9245,-96.040925982529,4,1,0,70,0,0
9357,-95.696080788651,4,1,0,70,0,0
9581,-95.013766651282,4,1,0,70,0,0
9805,-94.341113446374,4,1,0,70,0,0
9917,-94.008345799543,4,1,0,70,0,0
10029,-93.677917431625,4,1,0,70,0,0
10141,-93.349803762138,4,1,0,70,0,0
10253,-93.023980553781,4,1,0,70,0,0
10365,-92.700423906461,4,1,0,70,0,0
10477,-92.379110251451,4,1,0,70,0,0
10589,-92.060016345665,4,1,0,70,0,0
10701,454.545454545455,4,1,0,70,1,8
10701,-90.293453724605,4,1,0,70,0,0
10814,-89.864757987978,4,1,0,70,0,0
10928,-89.436373743685,4,1,0,70,0,0
11041,-89.015758922997,4,1,0,70,0,0
11155,-88.595411849271,4,1,0,70,0,0
11269,-88.179016013368,4,1,0,70,0,0
11382,-87.770117606164,4,1,0,70,0,0
11496,-87.361425461675,4,1,0,70,0,0
11610,434.782608695652,4,1,0,70,1,0
11610,-90.909090909091,4,1,0,70,0,0
11827,454.545454545455,4,1,0,70,1,8
11827,-87.8798258061358,4,1,0,70,0,0
12051,-88.8668975754576,4,1,0,70,0,0
12278,-89.8763949356952,4,1,0,70,0,0
12508,441.176470588235,4,1,0,70,1,8
12508,-93.6639118457301,4,1,0,70,0,0
12949,472.44094488189,4,1,0,70,1,8
12949,-96.2121212121212,4,1,0,70,0,0
13185,454.545454545455,4,1,0,70,1,8
13185,-99.9999999999999,4,1,0,70,0,0
13866,444.444444444444,4,1,0,70,1,8
13866,-102.272727272727,4,1,0,70,0,0
14310,458.015267175573,4,1,0,70,1,8
14310,-99.2424242424242,4,1,0,70,0,0
15226,458.015267175573,4,1,0,70,1,0
15226,-99.2424242424242,4,1,0,70,0,0
16142,447.761194029851,4,1,0,70,1,8
16142,-101.515151515151,4,1,0,70,0,0
16589,461.538461538462,4,1,0,70,1,8
16589,-98.4848484848484,4,1,0,70,0,0
17281,441.176470588235,4,1,0,70,1,8
17281,-103.030303030303,4,1,0,70,0,0
17501,468.75,4,1,0,70,1,8
17501,-96.969696969697,4,1,0,70,0,0
17969,444.444444444444,4,1,0,70,1,8
17969,-102.272727272727,4,1,0,70,0,0
18413,454.545454545455,4,1,0,70,1,8
18413,-99.9999999999999,4,1,0,70,0,0
18867,468.75,4,1,0,70,1,0
18867,-96.969696969697,4,1,0,70,0,0
19101,454.545454545455,4,1,0,70,1,8
19101,-98.5496467088136,4,1,0,70,0,0
19325,-97.1823238188374,4,1,0,70,0,0
19552,-95.8524234386302,4,1,0,70,0,0
19782,447.761194029851,4,1,0,70,1,8
19782,-95.9911334576811,4,1,0,70,0,0
20002,-94.7347640034575,4,1,0,70,0,0
20229,454.545454545455,4,1,0,70,1,8
20229,-92.109836635384,4,1,0,70,0,0
20453,-90.9142889816455,4,1,0,70,0,0
20680,-89.7493790923458,4,1,0,70,0,0
20907,-88.6139441564955,4,1,0,70,0,0
21135,-87.502063727918,4,1,0,70,0,0
21362,-86.422437221437,4,1,0,70,0,0
21589,-85.3691275167784,4,1,0,70,0,0
21816,-84.3411839592615,4,1,0,70,0,0
22047,600,4,1,0,70,1,8
22047,-63.1313131313131,4,1,0,70,0,0
22514,-100,4,1,0,70,0,0
24447,600,4,1,0,70,1,8
24457,437.4772147284,4,1,0,70,1,0
27956,312.5,4,1,0,80,1,0
27956,-83.333333333333,4,1,0,80,0,0
28032,-84.637799010639,4,1,0,80,0,0
28110,-86.001514838532,4,1,0,80,0,0
28188,-87.409895723983,4,1,0,80,0,0
28266,-88.865172536464,4,1,0,80,0,0
28344,-90.369727226684,4,1,0,80,0,0
28422,-91.926105836461,4,1,0,80,0,0
28500,-93.537032876507,4,1,0,80,0,0
28579,-95.227203415676,4,1,0,80,0,0
28657,-96.95699425555,4,1,0,80,0,0
28735,-98.750790638836,4,1,0,80,0,0
28813,-100.612212018689,4,1,0,80,0,0
28891,-102.545155993432,4,1,0,80,0,0
28969,-104.553825548301,4,1,0,80,0,0
29047,-106.642759562842,4,1,0,80,0,0
29125,-108.816867050009,4,1,0,80,0,0
29204,-111.111111111111,4,1,0,80,0,0
34204,-105.263157894737,4,1,0,80,0,0
34829,-100,4,1,0,80,0,0
35454,-90.909090909091,4,1,0,80,0,0
35766,-86.95652173913,4,1,0,80,0,0
36079,-83.333333333333,4,1,0,80,0,0
36391,-105.263157894737,4,1,0,80,0,0
36704,-111.111111111111,4,1,0,85,0,0
36860,-109.805693628559,4,1,0,85,0,0
36938,-109.164420485175,4,1,0,85,0,0
37016,-108.530594015185,4,1,0,85,0,0
37172,-107.284768211921,4,1,0,85,0,0
37250,-106.67251975417,4,1,0,85,0,0
37329,-106.059503891758,4,1,0,85,0,0
37485,-104.869452636122,4,1,0,85,0,0
37563,-104.284385952364,4,1,0,85,0,0
37641,-103.705811224127,4,1,0,85,0,0
37797,-102.567710165318,4,1,0,85,0,0
37954,-101.447258558308,4,1,0,85,0,0
38032,-100.899653979239,4,1,0,85,0,0
38110,-100.357929515419,4,1,0,85,0,0
38188,-99.821990962618,4,1,0,85,0,0
38266,-99.291746118224,4,1,0,85,0,0
38344,-98.767104728357,4,1,0,85,0,0
38422,-98.247978436658,4,1,0,85,0,0
38500,-97.734280734683,4,1,0,85,0,0
38579,-97.219443888778,4,1,0,85,0,0
38657,-96.716417910448,4,1,0,85,0,0
38735,-96.218570580083,4,1,0,85,0,0
38813,-95.725822336025,4,1,0,85,0,0
38891,-95.238095238095,4,1,0,85,0,0
39206,-90.909090909091,4,1,0,95,0,1
49206,-100,4,1,0,90,0,0
67954,-100,4,1,0,90,0,0
68110,-98.767383059418,4,1,0,90,0,0
68188,-98.162399874352,4,1,0,90,0,0
68266,-97.564783015923,4,1,0,90,0,0
68344,-96.974398758728,4,1,0,90,0,0
68422,-96.391116594695,4,1,0,90,0,0
68500,-95.8148091369,4,1,0,90,0,0
68579,-95.238095238095,4,1,0,90,0,0
68657,-94.675452548663,4,1,0,90,0,0
68735,-94.11941871847,4,1,0,90,0,0
68813,-93.569877984879,4,1,0,90,0,0
68891,-93.026717273201,4,1,0,90,0,0
68969,-92.489826119127,4,1,0,90,0,0
69047,-91.959096593835,4,1,0,90,0,0
69125,-91.434423231658,4,1,0,90,0,0
69204,-83.333333333333,4,1,0,90,0,0
69829,-80,4,1,0,90,0,0
70454,-76.923076923077,4,1,0,90,0,0
70922,-90.909090909091,4,1,0,90,0,0
71000,-92.588207435472,4,1,0,90,0,0
71079,-94.353281853282,4,1,0,90,0,0
71235,-98.044132397192,4,1,0,90,0,0
71391,-102.035490605428,4,1,0,90,0,0
71547,-106.365614798694,4,1,0,90,0,0
71704,-90.909090909091,4,1,0,90,0,0
72329,-80,4,1,0,90,0,0
72641,-78.43137254902,4,1,0,90,0,0
72954,-76.923076923077,4,1,0,90,0,0
73579,-90.909090909091,4,1,0,90,0,0
73891,-100,4,1,0,90,0,0
74204,-83.333333333333,4,1,0,90,0,0
74829,-80,4,1,0,90,0,0
75454,-76.923076923077,4,1,0,90,0,0
75922,-90.909090909091,4,1,0,90,0,0
76000,-92.588207435472,4,1,0,90,0,0
76079,-94.353281853282,4,1,0,90,0,0
76235,-98.044132397192,4,1,0,90,0,0
76391,-102.035490605428,4,1,0,90,0,0
76547,-106.365614798694,4,1,0,90,0,0
76704,-90.909090909091,4,1,0,90,0,0
77329,-83.333333333333,4,1,0,90,0,0
77954,-76.923076923077,4,1,0,90,0,0
79206,-90.909090909091,4,1,0,95,0,1
96706,-90.909090909091,4,1,0,95,0,0
96860,-91.742041583461,4,1,0,90,0,0
97016,-92.590397154712,4,1,0,90,0,0
97172,-93.454588967333,4,1,0,90,0,0
97250,-93.892762683337,4,1,0,90,0,0
97329,-94.340762215377,4,1,0,90,0,0
97485,-95.238095238095,4,1,0,90,0,0
97641,-96.152662357649,4,1,0,90,0,0
97719,-96.616564606915,4,1,0,90,0,0
97797,-97.084964882839,4,1,0,90,0,0
97875,-97.557928923865,4,1,0,90,0,0
97954,-98.041677127793,4,1,0,90,0,0
98032,-98.524031790085,4,1,0,90,0,0
98110,-99.011156186613,4,1,0,90,0,0
98188,-99.503121416741,4,1,0,90,0,0
98266,-100,4,1,0,90,0,0
98422,-100,4,1,0,90,0,0
98579,-99.006140406406,4,1,0,90,0,0
98657,-98.51968503937,4,1,0,90,0,0
98735,-98.037986585595,4,1,0,90,0,0
98813,-97.560975609756,4,1,0,90,0,0
98891,-97.088584021355,4,1,0,90,0,0
98969,-96.620745042318,4,1,0,90,0,0
99047,-96.15739317553,4,1,0,90,0,0
99125,-95.698464174264,4,1,0,90,0,0
99204,-95.238095238095,4,1,0,95,0,0
107016,-90.909090909091,4,1,0,90,0,0
107329,-86.95652173913,4,1,0,90,0,0
107641,-83.333333333333,4,1,0,90,0,0
107954,-80,4,1,0,90,0,0
108110,-83.333333333333,4,1,0,90,0,0
108188,-84.335491828554,4,1,0,90,0,0
108266,-85.362047440699,4,1,0,90,0,0
108344,-86.413902053712,4,1,0,90,0,0
108422,-87.492002559181,4,1,0,90,0,0
108500,-88.597343699385,4,1,0,90,0,0
108579,-89.74569319114,4,1,0,90,0,0
108657,-90.909090909091,4,1,0,90,0,0
108735,-92.10304765112,4,1,0,90,0,0
108813,-93.328783484047,4,1,0,90,0,0
108891,-94.587584298807,4,1,0,90,0,0
108969,-95.880806310254,4,1,0,90,0,0
109047,-97.209880931224,4,1,0,90,0,0
109125,-98.576320057668,4,1,0,90,0,0
109204,-100,4,1,0,90,0,0
110922,-100,4,1,0,85,0,0
111000,-101.007491604237,4,1,0,85,0,0
111079,-102.048805950672,4,1,0,85,0,0
111235,-104.169441854269,4,1,0,85,0,0
111391,-106.380084342266,4,1,0,85,0,0
111547,-108.68658790827,4,1,0,85,0,0
111704,-100,4,1,0,90,0,0
111938,-111.111111111111,4,1,0,90,0,0
112172,-100,4,1,0,90,0,0
112485,-111.111111111111,4,1,0,90,0,0
112641,-100,4,1,0,90,0,0
112954,-111.111111111111,4,1,0,90,0,0
113032,-110.34604519774,4,1,0,90,0,0
113110,-109.591443100123,4,1,0,90,0,0
113188,-108.847091605712,4,1,0,90,0,0
113266,-108.112783255492,4,1,0,90,0,0
113344,-107.388316151203,4,1,0,90,0,0
113422,-106.673493770268,4,1,0,90,0,0
113500,-105.968124788064,4,1,0,90,0,0
113579,-105.263157894737,4,1,0,90,0,0
113657,-104.576257006609,4,1,0,90,0,0
113735,-103.898262821046,4,1,0,90,0,0
113813,-103.229003220745,4,1,0,90,0,0
113891,-102.56831049479,4,1,0,90,0,0
113969,-101.916021198532,4,1,0,90,0,0
114047,-101.271976018796,4,1,0,90,0,0
114125,-100.636019644151,4,1,0,90,0,0
114204,-100,4,1,0,90,0,0
127954,-100,4,1,0,90,0,0
128110,-98.767383059418,4,1,0,95,0,0
128188,-98.162399874352,4,1,0,95,0,0
128266,-97.564783015923,4,1,0,95,0,0
128344,-96.974398758728,4,1,0,95,0,0
128422,-96.391116594695,4,1,0,95,0,0
128500,-95.8148091369,4,1,0,95,0,0
128579,-95.238095238095,4,1,0,95,0,0
128657,-94.675452548663,4,1,0,95,0,0
128735,-94.11941871847,4,1,0,95,0,0
128813,-93.569877984879,4,1,0,95,0,0
128891,-93.026717273201,4,1,0,95,0,0
128969,-92.489826119127,4,1,0,95,0,0
129047,-91.959096593835,4,1,0,95,0,0
129125,-91.434423231658,4,1,0,95,0,0
129204,-90.909090909091,4,1,0,95,0,0
135141,-100,4,1,0,95,0,0
135219,-99.175301332206,4,1,0,95,0,0
135297,-98.364093959732,4,1,0,95,0,0
135375,-97.56604951113,4,1,0,95,0,0
135454,-96.770865573094,4,1,0,95,0,0
135532,-95.998362501279,4,1,0,95,0,0
135610,-95.238095238095,4,1,0,95,0,0
135688,-94.489775360129,4,1,0,95,0,0
135766,-93.753123438281,4,1,0,95,0,0
135844,-93.027868689874,4,1,0,95,0,0
135922,-92.313748646787,4,1,0,95,0,0
136000,-91.610508838754,4,1,0,95,0,0
136079,-90.909090909091,4,1,0,95,0,0
136391,-100,4,1,0,95,0,0
136469,-99.174428450466,4,1,0,95,0,0
136547,-98.36237665337,4,1,0,95,0,0
136625,-97.563515201999,4,1,0,95,0,0
136703,-96.777525304689,4,1,0,95,0,0
136781,-96.004098360656,4,1,0,95,0,0
136859,-95.242935556007,4,1,0,95,0,0
136938,-94.484219017848,4,1,0,95,0,0
137016,-93.746873436718,4,1,0,95,0,0
137094,-93.02094708627,4,1,0,95,0,0
137172,-92.306176731357,4,1,0,95,0,0
137250,-91.602307165901,4,1,0,95,0,0
137328,-90.909090909091,4,1,0,95,0,0
137641,-95.238095238095,4,1,0,95,0,0
137719,-94.121184784243,4,1,0,95,0,0
137797,-93.030167929856,4,1,0,95,0,0
137875,-91.96415454679,4,1,0,95,0,0
137954,-90.909090909091,4,1,0,90,0,0
138188,-86.95652173913,4,1,0,90,0,0
138422,-83.333333333333,4,1,0,90,0,0
139206,-90.909090909091,4,1,0,95,0,1
156706,-90.909090909091,4,1,0,95,0,0
156860,-90.909090909091,4,1,0,70,0,0
157954,-111.111111111111,4,1,0,70,0,0
164204,-100,4,1,0,80,0,0
164829,-95.238095238095,4,1,0,80,0,0
165454,-90.909090909091,4,1,0,80,0,0
166079,-86.95652173913,4,1,0,80,0,0
166704,-83.333333333333,4,1,0,90,0,0
166938,-99.072679717841,4,1,0,90,0,0
167016,-98.767383059418,4,1,0,90,0,0
167172,-98.162399874352,4,1,0,90,0,0
167250,-97.862679088703,4,1,0,90,0,0
167329,-97.560975609756,4,1,0,90,0,0
167407,-97.264910710812,4,1,0,90,0,0
167485,-96.970637291028,4,1,0,90,0,0
167641,-96.387400239041,4,1,0,90,0,0
167797,-95.811137086575,4,1,0,90,0,0
167954,-95.238095238095,4,1,0,90,0,0
168032,-96.094710947109,4,1,0,90,0,0
168110,-96.966876115119,4,1,0,90,0,0
168188,-97.855018005323,4,1,0,90,0,0
168266,-98.759579679229,4,1,0,90,0,0
168344,-99.681020733652,4,1,0,90,0,0
168422,-100.619818079369,4,1,0,90,0,0
168500,-101.57646676418,4,1,0,90,0,0
168579,-102.564102564103,4,1,0,90,0,0
168657,-103.558261878133,4,1,0,90,0,0
168735,-104.571882712176,4,1,0,90,0,0
168813,-105.605542178854,4,1,0,90,0,0
168891,-106.659840436879,4,1,0,90,0,0
168969,-107.735401853049,4,1,0,90,0,0
169047,-108.832876235253,4,1,0,90,0,0
169125,-109.952940141619,4,1,0,90,0,0
169204,-100,4,1,0,90,0,0
169438,-99.072679717841,4,1,0,90,0,0
169516,-98.767383059418,4,1,0,90,0,0
169672,-98.162399874352,4,1,0,90,0,0
169750,-97.862679088703,4,1,0,90,0,0
169829,-97.560975609756,4,1,0,90,0,0
169907,-97.264910710812,4,1,0,90,0,0
169985,-96.970637291028,4,1,0,90,0,0
170063,-96.678139139178,4,1,0,90,0,0
170141,-96.387400239041,4,1,0,90,0,0
170297,-95.811137086575,4,1,0,90,0,0
170454,-95.238095238095,4,1,0,90,0,0
170532,-96.094710947109,4,1,0,90,0,0
170610,-96.966876115119,4,1,0,90,0,0
170688,-97.855018005323,4,1,0,90,0,0
170766,-98.759579679229,4,1,0,90,0,0
170844,-99.681020733652,4,1,0,90,0,0
170922,-100.619818079369,4,1,0,90,0,0
171000,-101.57646676418,4,1,0,90,0,0
171079,-102.564102564103,4,1,0,90,0,0
171157,-103.558261878133,4,1,0,90,0,0
171235,-104.571882712176,4,1,0,90,0,0
171313,-105.605542178854,4,1,0,90,0,0
171391,-106.659840436879,4,1,0,90,0,0
171469,-107.735401853049,4,1,0,90,0,0
171547,-108.832876235253,4,1,0,90,0,0
171625,-109.952940141619,4,1,0,90,0,0
171704,-100,4,1,0,90,0,0
171938,-99.072679717841,4,1,0,90,0,0
172016,-98.767383059418,4,1,0,90,0,0
172172,-98.162399874352,4,1,0,90,0,0
172250,-97.862679088703,4,1,0,90,0,0
172329,-97.560975609756,4,1,0,90,0,0
172407,-97.264910710812,4,1,0,90,0,0
172485,-96.970637291028,4,1,0,90,0,0
172641,-96.387400239041,4,1,0,90,0,0
172797,-95.811137086575,4,1,0,90,0,0
172954,-95.238095238095,4,1,0,90,0,0
173006,-95.616920370229,4,1,0,90,0,0
173058,-95.998771215728,4,1,0,90,0,0
173110,-96.383684169944,4,1,0,90,0,0
173188,-96.966876115119,4,1,0,90,0,0
173266,-97.557168500741,4,1,0,90,0,0
173318,-97.954705744064,4,1,0,90,0,0
173370,-98.355496105122,4,1,0,90,0,0
173422,-98.759579679229,4,1,0,90,0,0
173500,-99.371969154941,4,1,0,90,0,0
173579,-100,4,1,0,90,0,0
173631,-100.417737789203,4,1,0,90,0,0
173683,-100.838980316231,4,1,0,90,0,0
173735,-101.263771872975,4,1,0,90,0,0
173813,-101.907712375673,4,1,0,90,0,0
173891,-102.559894978668,4,1,0,90,0,0
174204,-100,4,1,0,90,0,0
174438,-99.072679717841,4,1,0,90,0,0
174516,-98.767383059418,4,1,0,90,0,0
174672,-98.162399874352,4,1,0,90,0,0
174750,-97.862679088703,4,1,0,90,0,0
174829,-97.560975609756,4,1,0,90,0,0
174907,-97.264910710812,4,1,0,90,0,0
174985,-96.970637291028,4,1,0,90,0,0
175063,-96.678139139178,4,1,0,90,0,0
175141,-96.387400239041,4,1,0,90,0,0
175297,-95.811137086575,4,1,0,90,0,0
175454,-95.238095238095,4,1,0,90,0,0
175532,-96.094710947109,4,1,0,90,0,0
175610,-96.966876115119,4,1,0,90,0,0
175688,-97.855018005323,4,1,0,90,0,0
175766,-98.759579679229,4,1,0,90,0,0
175844,-99.681020733652,4,1,0,90,0,0
175922,-100.619818079369,4,1,0,90,0,0
176000,-101.57646676418,4,1,0,90,0,0
176079,-102.564102564103,4,1,0,90,0,0
176157,-103.558261878133,4,1,0,90,0,0
176235,-104.571882712176,4,1,0,90,0,0
176313,-105.605542178854,4,1,0,90,0,0
176391,-106.659840436879,4,1,0,90,0,0
176469,-107.735401853049,4,1,0,90,0,0
176547,-108.832876235253,4,1,0,90,0,0
176625,-109.952940141619,4,1,0,90,0,0
176704,-100,4,1,0,95,0,0
184047,-100,4,1,0,95,0,0
184125,-99.175301332206,4,1,0,95,0,0
184204,-98.35378001468,4,1,0,95,0,0
184282,-97.555902236089,4,1,0,95,0,0
184360,-96.770865573094,4,1,0,95,0,0
184438,-95.998362501279,4,1,0,95,0,0
184516,-95.238095238095,4,1,0,95,0,0
184829,-100,4,1,0,95,0,0
184907,-98.765432098765,4,1,0,95,0,0
184985,-97.560975609756,4,1,0,95,0,0
185063,-96.385542168675,4,1,0,95,0,0
185141,-95.238095238095,4,1,0,95,0,0
185454,-100,4,1,0,95,0,0
185532,-99.072679717841,4,1,0,95,0,0
185610,-98.162399874352,4,1,0,95,0,0
185688,-97.268695043187,4,1,0,95,0,0
185766,-96.391116594695,4,1,0,95,0,0
185844,-95.529231944975,4,1,0,95,0,0
185922,-94.682623844872,4,1,0,95,0,0
186000,-93.850889706434,4,1,0,95,0,0
186079,-93.023255813953,4,1,0,95,0,0
186157,-92.220295842709,4,1,0,95,0,0
186235,-91.431079252459,4,1,0,95,0,0
186313,-90.655256191754,4,1,0,95,0,0
186391,-89.892488583654,4,1,0,95,0,0
186469,-89.142449634516,4,1,0,95,0,0
186547,-88.404823367163,4,1,0,95,0,0
186625,-87.679304177042,4,1,0,95,0,0
186704,-86.95652173913,4,1,0,90,0,0
187954,-83.333333333333,4,1,0,90,0,0
188579,-86.95652173913,4,1,0,90,0,0
189204,-111.111111111111,4,1,0,85,0,0
190454,-100,4,1,0,90,0,0
190610,-98.767383059418,4,1,0,90,0,0
190766,-97.564783015923,4,1,0,90,0,0
190922,-96.391116594695,4,1,0,90,0,0
191079,-95.238095238095,4,1,0,90,0,0
191235,-94.11941871847,4,1,0,90,0,0
191391,-93.026717273201,4,1,0,90,0,0
191547,-91.959096593835,4,1,0,90,0,0
191706,-90.909090909091,4,1,0,95,0,1
204206,-90.909090909091,4,1,0,95,0,0
204360,-91.742041583461,4,1,0,90,0,0
204516,-92.590397154712,4,1,0,90,0,0
204672,-93.454588967333,4,1,0,90,0,0
204750,-93.892762683337,4,1,0,90,0,0
204829,-94.340762215377,4,1,0,90,0,0
204985,-95.238095238095,4,1,0,90,0,0
205141,-96.152662357649,4,1,0,90,0,0
205219,-96.616564606915,4,1,0,90,0,0
205297,-97.084964882839,4,1,0,90,0,0
205375,-97.557928923865,4,1,0,90,0,0
205454,-98.041677127793,4,1,0,90,0,0
205532,-98.524031790085,4,1,0,90,0,0
205610,-99.011156186613,4,1,0,90,0,0
205688,-99.503121416741,4,1,0,90,0,0
205766,-100,4,1,0,90,0,0
205922,-98.364093959732,4,1,0,90,0,0
206079,-96.770865573094,4,1,0,90,0,0
206157,-95.998362501279,4,1,0,95,0,0
206235,-95.238095238095,4,1,0,95,0,0
206313,-94.489775360129,4,1,0,95,0,0
206391,-93.753123438281,4,1,0,95,0,0
206469,-93.027868689874,4,1,0,95,0,0
206547,-92.313748646787,4,1,0,95,0,0
206625,-91.610508838754,4,1,0,90,0,0
206706,-90.909090909091,4,1,0,95,0,1
224206,-90.909090909091,4,1,0,95,0,0
224360,-91.742041583461,4,1,0,90,0,0
224516,-92.590397154712,4,1,0,90,0,0
224672,-93.454588967333,4,1,0,90,0,0
224750,-93.892762683337,4,1,0,90,0,0
224829,-94.340762215377,4,1,0,90,0,0
224985,-95.238095238095,4,1,0,90,0,0
225141,-96.152662357649,4,1,0,90,0,0
225219,-96.616564606915,4,1,0,90,0,0
225297,-97.084964882839,4,1,0,90,0,0
225375,-97.557928923865,4,1,0,90,0,0
225454,-98.041677127793,4,1,0,90,0,0
225532,-98.524031790085,4,1,0,90,0,0
225610,-99.011156186613,4,1,0,90,0,0
225688,-99.503121416741,4,1,0,90,0,0
225766,-100,4,1,0,90,0,0
225922,-98.364093959732,4,1,0,90,0,0
226079,-96.770865573094,4,1,0,90,0,0
226157,-95.998362501279,4,1,0,90,0,0
226235,-95.238095238095,4,1,0,90,0,0
226313,-94.489775360129,4,1,0,90,0,0
226391,-93.753123438281,4,1,0,90,0,0
226469,-93.027868689874,4,1,0,90,0,0
226547,-92.313748646787,4,1,0,90,0,0
226625,-91.610508838754,4,1,0,90,0,0
226706,-90.909090909091,4,1,0,95,0,1
228266,-90.909090909091,4,1,0,95,0,1
228422,-92.304664436135,4,1,0,95,0,1
228579,-93.753123438281,4,1,0,95,0,1
228657,-94.489775360129,4,1,0,95,0,1
228735,-95.238095238095,4,1,0,95,0,1
228813,-95.998362501279,4,1,0,95,0,1
228891,-96.770865573094,4,1,0,95,0,1
228969,-97.555902236089,4,1,0,95,0,1
229047,-98.35378001468,4,1,0,95,0,1
229125,-99.164816576805,4,1,0,95,0,1
229206,-90.909090909091,4,1,0,95,0,0
238266,-90.909090909091,4,1,0,95,0,0
238422,-89.555088791293,4,1,0,95,0,0
238579,-88.232527513875,4,1,0,95,0,0
238657,-87.589877672985,4,1,0,95,0,0
238735,-86.95652173913,4,1,0,95,0,0
238813,-86.332259549011,4,1,0,95,0,0
238891,-85.716896646258,4,1,0,95,0,0
238969,-85.110244079485,4,1,0,95,0,0
239047,-84.512118208848,4,1,0,95,0,0
239125,-83.922340520712,4,1,0,95,0,0
239206,-83.333333333333,4,1,0,95,0,1
249206,-83.333333333333,4,1,0,95,0,0
249360,-66.666666666667,4,1,0,90,0,0
250454,-100,4,1,0,80,0,0

[HitObjects]
256,192,475,5,0,0:0:0:0:
256,192,588,1,0,0:0:0:0:
256,192,702,1,8,0:0:0:0:
256,192,932,1,0,0:0:0:0:
256,192,1163,1,0,0:0:0:0:
256,192,1394,1,8,0:0:0:0:
256,192,1625,1,0,0:0:0:0:
256,192,1845,1,0,0:0:0:0:
256,192,2066,1,8,0:0:0:0:
256,192,2295,1,8,0:0:0:0:
256,192,2524,1,0,0:0:0:0:
256,192,2753,1,8,0:0:0:0:
256,192,2980,1,0,0:0:0:0:
256,192,3207,1,0,0:0:0:0:
256,192,3434,1,8,0:0:0:0:
256,192,3664,1,0,0:0:0:0:
256,192,3895,1,8,0:0:0:0:
256,192,4126,1,0,0:0:0:0:
256,192,4241,1,0,0:0:0:0:
256,192,4357,1,8,0:0:0:0:
256,192,4584,1,0,0:0:0:0:
256,192,4811,1,0,0:0:0:0:
256,192,5038,1,8,0:0:0:0:
256,192,5266,1,0,0:0:0:0:
256,192,5486,1,0,0:0:0:0:
256,192,5707,1,8,0:0:0:0:
256,192,5927,1,8,0:0:0:0:
256,192,6148,1,0,0:0:0:0:
256,192,6368,1,8,0:0:0:0:
256,192,6602,1,0,0:0:0:0:
256,192,6836,1,0,0:0:0:0:
256,192,7071,1,8,0:0:0:0:
256,192,7300,1,0,0:0:0:0:
256,192,7529,1,8,0:0:0:0:
256,192,7758,1,0,0:0:0:0:
256,192,7872,1,0,0:0:0:0:
256,192,7987,1,8,0:0:0:0:
256,192,8217,1,0,0:0:0:0:
256,192,8333,1,0,0:0:0:0:
256,192,8448,1,8,0:0:0:0:
256,192,8679,1,8,0:0:0:0:
256,192,8794,1,0,0:0:0:0:
256,192,8910,1,8,0:0:0:0:
256,192,9133,1,0,0:0:0:0:
256,192,9245,1,0,0:0:0:0:
256,192,9357,1,8,0:0:0:0:
256,192,9581,1,0,0:0:0:0:
256,192,9805,1,8,0:0:0:0:
256,192,9917,1,8,0:0:0:0:
256,192,10029,1,0,0:0:0:0:
256,192,10141,1,0,0:0:0:0:
256,192,10253,1,8,0:0:0:0:
256,192,10365,1,8,0:0:0:0:
256,192,10477,1,0,0:0:0:0:
256,192,10589,1,0,0:0:0:0:
256,192,10701,1,8,0:0:0:0:
256,192,10814,1,0,0:0:0:0:
256,192,10928,1,0,0:0:0:0:
256,192,11041,1,0,0:0:0:0:
256,192,11155,1,8,0:0:0:0:
256,192,11269,1,8,0:0:0:0:
256,192,11382,1,0,0:0:0:0:
256,192,11496,1,0,0:0:0:0:
256,192,11610,1,12,0:0:0:0:
256,192,11827,1,0,0:0:0:0:
256,192,12054,1,8,0:0:0:0:
256,192,12281,1,8,0:0:0:0:
256,192,12508,1,0,0:0:0:0:
256,192,12949,1,0,0:0:0:0:
256,192,13185,1,8,0:0:0:0:
256,192,13639,1,8,0:0:0:0:
256,192,13866,1,0,0:0:0:0:
256,192,14310,1,8,0:0:0:0:
256,192,14768,1,0,0:0:0:0:
256,192,15226,1,8,0:0:0:0:
256,192,15455,1,8,0:0:0:0:
256,192,15569,1,8,0:0:0:0:
256,192,15684,1,8,0:0:0:0:
256,192,15913,1,0,0:0:0:0:
256,192,16142,1,8,0:0:0:0:
256,192,16253,1,8,0:0:0:0:
256,192,16365,1,0,0:0:0:0:
256,192,16589,1,8,0:0:0:0:
256,192,16819,1,0,0:0:0:0:
256,192,17050,1,8,0:0:0:0:
256,192,17281,1,8,0:0:0:0:
256,192,17391,1,8,0:0:0:0:
256,192,17501,1,8,0:0:0:0:
256,192,17735,1,0,0:0:0:0:
256,192,17969,1,8,0:0:0:0:
256,192,18080,1,8,0:0:0:0:
256,192,18191,1,0,0:0:0:0:
256,192,18413,1,8,0:0:0:0:
256,192,18867,1,8,0:0:0:0:
256,192,19101,1,8,0:0:0:0:
256,192,19328,1,0,0:0:0:0:
256,192,19555,1,8,0:0:0:0:
256,192,19782,1,8,0:0:0:0:
256,192,20005,1,0,0:0:0:0:
256,192,20229,1,8,0:0:0:0:
256,192,20456,1,8,0:0:0:0:
256,192,20683,1,0,0:0:0:0:
256,192,20910,1,8,0:0:0:0:
256,192,21138,1,8,0:0:0:0:
256,192,21365,1,0,0:0:0:0:
256,192,21592,1,8,0:0:0:0:
256,192,21819,1,0,0:0:0:0:
256,192,22047,1,8,0:0:0:0:
256,192,24457,12,0,27738,0:0:0:0:
256,192,27956,5,8,0:0:0:0:
256,192,28034,1,8,0:0:0:0:
256,192,28112,1,8,0:0:0:0:
256,192,28190,1,8,0:0:0:0:
256,192,28268,1,0,0:0:0:0:
256,192,28346,1,0,0:0:0:0:
256,192,28424,1,0,0:0:0:0:
256,192,28502,1,0,0:0:0:0:
256,192,28581,1,8,0:0:0:0:
256,192,28659,1,0,0:0:0:0:
256,192,28737,1,0,0:0:0:0:
256,192,28815,1,0,0:0:0:0:
256,192,28893,1,8,0:0:0:0:
256,192,28971,1,8,0:0:0:0:
256,192,29049,1,0,0:0:0:0:
256,192,29127,1,0,0:0:0:0:
256,192,29206,1,12,0:0:0:0:
256,192,30456,1,4,0:0:0:0:
256,192,31706,1,12,0:0:0:0:
256,192,32956,1,4,0:0:0:0:
256,192,33581,1,0,0:0:0:0:
256,192,33737,1,0,0:0:0:0:
256,192,33815,1,0,0:0:0:0:
256,192,33893,1,8,0:0:0:0:
256,192,34206,1,12,0:0:0:0:
256,192,34831,1,4,0:0:0:0:
256,192,35456,1,12,0:0:0:0:
256,192,35768,1,4,0:0:0:0:
256,192,36081,1,12,0:0:0:0:
256,192,36393,1,8,0:0:0:0:
256,192,36706,1,0,0:0:0:0:
256,192,36862,1,0,0:0:0:0:
256,192,36940,1,0,0:0:0:0:
256,192,37018,1,8,0:0:0:0:
256,192,37174,1,0,0:0:0:0:
256,192,37252,1,8,0:0:0:0:
256,192,37331,1,8,0:0:0:0:
256,192,37487,1,0,0:0:0:0:
256,192,37565,1,0,0:0:0:0:
256,192,37643,1,8,0:0:0:0:
256,192,37799,1,8,0:0:0:0:
256,192,37956,1,0,0:0:0:0:
256,192,38034,1,0,0:0:0:0:
256,192,38112,1,8,0:0:0:0:
256,192,38190,1,0,0:0:0:0:
256,192,38268,1,8,0:0:0:0:
256,192,38346,1,8,0:0:0:0:
256,192,38424,1,0,0:0:0:0:
256,192,38502,1,0,0:0:0:0:
256,192,38581,1,8,0:0:0:0:
256,192,38659,1,8,0:0:0:0:
256,192,38737,1,8,0:0:0:0:
256,192,38815,1,8,0:0:0:0:
256,192,38893,1,0,0:0:0:0:
256,192,39206,1,8,0:0:0:0:
256,192,39284,1,8,0:0:0:0:
256,192,39362,1,0,0:0:0:0:
256,192,39440,1,0,0:0:0:0:
256,192,39518,1,8,0:0:0:0:
256,192,39596,1,8,0:0:0:0:
256,192,39674,1,8,0:0:0:0:
256,192,39752,1,8,0:0:0:0:
256,192,39831,1,0,0:0:0:0:
256,192,39909,1,0,0:0:0:0:
256,192,39987,1,0,0:0:0:0:
256,192,40065,1,0,0:0:0:0:
256,192,40143,1,8,0:0:0:0:
256,192,40221,1,8,0:0:0:0:
256,192,40299,1,0,0:0:0:0:
256,192,40377,1,0,0:0:0:0:
256,192,40456,1,8,0:0:0:0:
256,192,40534,1,0,0:0:0:0:
256,192,40612,1,8,0:0:0:0:
256,192,40690,1,8,0:0:0:0:
256,192,40768,1,0,0:0:0:0:
256,192,40846,1,8,0:0:0:0:
256,192,40924,1,0,0:0:0:0:
256,192,41002,1,0,0:0:0:0:
256,192,41081,1,8,0:0:0:0:
256,192,41159,1,8,0:0:0:0:
256,192,41237,1,0,0:0:0:0:
256,192,41315,1,0,0:0:0:0:
256,192,41393,1,8,0:0:0:0:
256,192,41471,1,8,0:0:0:0:
256,192,41549,1,8,0:0:0:0:
256,192,41627,1,0,0:0:0:0:
256,192,41706,1,8,0:0:0:0:
256,192,41784,1,8,0:0:0:0:
256,192,41862,1,0,0:0:0:0:
256,192,41940,1,0,0:0:0:0:
256,192,42018,1,8,0:0:0:0:
256,192,42096,1,8,0:0:0:0:
256,192,42174,1,8,0:0:0:0:
256,192,42252,1,8,0:0:0:0:
256,192,42331,1,0,0:0:0:0:
256,192,42409,1,0,0:0:0:0:
256,192,42487,1,0,0:0:0:0:
256,192,42565,1,0,0:0:0:0:
256,192,42643,1,8,0:0:0:0:
256,192,42721,1,8,0:0:0:0:
256,192,42799,1,0,0:0:0:0:
256,192,42877,1,0,0:0:0:0:
256,192,42956,1,8,0:0:0:0:
256,192,43034,1,0,0:0:0:0:
256,192,43112,1,8,0:0:0:0:
256,192,43190,1,8,0:0:0:0:
256,192,43268,1,0,0:0:0:0:
256,192,43346,1,0,0:0:0:0:
256,192,43424,1,8,0:0:0:0:
256,192,43502,1,8,0:0:0:0:
256,192,43581,1,0,0:0:0:0:
256,192,43659,1,8,0:0:0:0:
256,192,43737,1,0,0:0:0:0:
256,192,43815,1,0,0:0:0:0:
256,192,43893,1,8,0:0:0:0:
256,192,43971,1,0,0:0:0:0:
256,192,44049,1,0,0:0:0:0:
256,192,44127,1,0,0:0:0:0:
256,192,44206,1,8,0:0:0:0:
256,192,44284,1,8,0:0:0:0:
256,192,44362,1,0,0:0:0:0:
256,192,44440,1,0,0:0:0:0:
256,192,44518,1,8,0:0:0:0:
256,192,44596,1,8,0:0:0:0:
256,192,44674,1,8,0:0:0:0:
256,192,44752,1,8,0:0:0:0:
256,192,44831,1,0,0:0:0:0:
256,192,44909,1,0,0:0:0:0:
256,192,44987,1,0,0:0:0:0:
256,192,45065,1,0,0:0:0:0:
256,192,45143,1,8,0:0:0:0:
256,192,45221,1,8,0:0:0:0:
256,192,45299,1,0,0:0:0:0:
256,192,45377,1,0,0:0:0:0:
256,192,45456,1,8,0:0:0:0:
256,192,45534,1,0,0:0:0:0:
256,192,45612,1,8,0:0:0:0:
256,192,45690,1,8,0:0:0:0:
256,192,45768,1,0,0:0:0:0:
256,192,45846,1,8,0:0:0:0:
256,192,45924,1,0,0:0:0:0:
256,192,46002,1,0,0:0:0:0:
256,192,46081,1,8,0:0:0:0:
256,192,46159,1,8,0:0:0:0:
256,192,46237,1,0,0:0:0:0:
256,192,46315,1,0,0:0:0:0:
256,192,46393,1,8,0:0:0:0:
256,192,46471,1,8,0:0:0:0:
256,192,46549,1,8,0:0:0:0:
256,192,46627,1,0,0:0:0:0:
256,192,46706,1,8,0:0:0:0:
256,192,46784,1,8,0:0:0:0:
256,192,46862,1,0,0:0:0:0:
256,192,46940,1,0,0:0:0:0:
256,192,47018,1,8,0:0:0:0:
256,192,47096,1,8,0:0:0:0:
256,192,47174,1,8,0:0:0:0:
256,192,47252,1,8,0:0:0:0:
256,192,47331,1,0,0:0:0:0:
256,192,47409,1,0,0:0:0:0:
256,192,47487,1,0,0:0:0:0:
256,192,47565,1,0,0:0:0:0:
256,192,47643,1,8,0:0:0:0:
256,192,47721,1,8,0:0:0:0:
256,192,47799,1,0,0:0:0:0:
256,192,47877,1,0,0:0:0:0:
256,192,47956,1,8,0:0:0:0:
256,192,48034,1,0,0:0:0:0:
256,192,48112,1,0,0:0:0:0:
256,192,48190,1,8,0:0:0:0:
256,192,48268,1,0,0:0:0:0:
256,192,48346,1,0,0:0:0:0:
256,192,48424,1,8,0:0:0:0:
256,192,48502,1,8,0:0:0:0:
256,192,48581,1,0,0:0:0:0:
256,192,48659,1,8,0:0:0:0:
256,192,48737,1,0,0:0:0:0:
256,192,48815,1,0,0:0:0:0:
256,192,48893,1,8,0:0:0:0:
256,192,49206,1,4,0:0:0:0:
256,192,49362,1,8,0:0:0:0:
256,192,49518,1,0,0:0:0:0:
256,192,49596,1,0,0:0:0:0:
256,192,49674,1,8,0:0:0:0:
256,192,49752,1,8,0:0:0:0:
256,192,49831,1,0,0:0:0:0:
256,192,49987,1,8,0:0:0:0:
256,192,50143,1,0,0:0:0:0:
256,192,50221,1,0,0:0:0:0:
256,192,50299,1,8,0:0:0:0:
256,192,50456,1,8,0:0:0:0:
256,192,50534,1,0,0:0:0:0:
256,192,50612,1,8,0:0:0:0:
256,192,50768,1,0,0:0:0:0:
256,192,50924,1,8,0:0:0:0:
256,192,51002,1,8,0:0:0:0:
256,192,51081,1,0,0:0:0:0:
256,192,51237,1,8,0:0:0:0:
256,192,51393,1,0,0:0:0:0:
256,192,51471,1,0,0:0:0:0:
256,192,51549,1,8,0:0:0:0:
256,192,51627,1,8,0:0:0:0:
256,192,51706,1,0,0:0:0:0:
256,192,51862,1,8,0:0:0:0:
256,192,52018,1,0,0:0:0:0:
256,192,52174,1,8,0:0:0:0:
256,192,52252,1,8,0:0:0:0:
256,192,52331,1,0,0:0:0:0:
256,192,52487,1,8,0:0:0:0:
256,192,52643,1,0,0:0:0:0:
256,192,52721,1,0,0:0:0:0:
256,192,52799,1,8,0:0:0:0:
256,192,52956,1,8,0:0:0:0:
256,192,53034,1,0,0:0:0:0:
256,192,53112,1,8,0:0:0:0:
256,192,53190,1,8,0:0:0:0:
256,192,53268,1,0,0:0:0:0:
256,192,53424,1,8,0:0:0:0:
256,192,53581,1,0,0:0:0:0:
256,192,53659,1,0,0:0:0:0:
256,192,53737,1,8,0:0:0:0:
256,192,53815,1,0,0:0:0:0:
256,192,53893,1,8,0:0:0:0:
256,192,53971,1,8,0:0:0:0:
256,192,54049,1,0,0:0:0:0:
256,192,54127,1,0,0:0:0:0:
256,192,54206,1,12,0:0:0:0:
256,192,54362,1,8,0:0:0:0:
256,192,54518,1,0,0:0:0:0:
256,192,54596,1,0,0:0:0:0:
256,192,54674,1,8,0:0:0:0:
256,192,54752,1,8,0:0:0:0:
256,192,54831,1,0,0:0:0:0:
256,192,54987,1,8,0:0:0:0:
256,192,55143,1,0,0:0:0:0:
256,192,55221,1,0,0:0:0:0:
256,192,55299,1,8,0:0:0:0:
256,192,55456,1,8,0:0:0:0:
256,192,55534,1,0,0:0:0:0:
256,192,55612,1,8,0:0:0:0:
256,192,55768,1,0,0:0:0:0:
256,192,55924,1,8,0:0:0:0:
256,192,56002,1,8,0:0:0:0:
256,192,56081,1,0,0:0:0:0:
256,192,56237,1,8,0:0:0:0:
256,192,56393,1,0,0:0:0:0:
256,192,56471,1,0,0:0:0:0:
256,192,56549,1,8,0:0:0:0:
256,192,56706,1,0,0:0:0:0:
256,192,56784,1,0,0:0:0:0:
256,192,56862,1,8,0:0:0:0:
256,192,56940,1,8,0:0:0:0:
256,192,57018,1,0,0:0:0:0:
256,192,57174,1,8,0:0:0:0:
256,192,57252,1,8,0:0:0:0:
256,192,57331,1,0,0:0:0:0:
256,192,57487,1,8,0:0:0:0:
256,192,57643,1,0,0:0:0:0:
256,192,57721,1,0,0:0:0:0:
256,192,57799,1,8,0:0:0:0:
256,192,57956,1,0,0:0:0:0:
256,192,58112,1,8,0:0:0:0:
256,192,58190,1,0,0:0:0:0:
256,192,58268,1,8,0:0:0:0:
256,192,58424,1,8,0:0:0:0:
256,192,58581,1,0,0:0:0:0:
256,192,58737,1,8,0:0:0:0:
256,192,58815,1,0,0:0:0:0:
256,192,58893,1,8,0:0:0:0:
256,192,58971,1,8,0:0:0:0:
256,192,59049,1,0,0:0:0:0:
256,192,59206,1,12,0:0:0:0:
256,192,59362,1,8,0:0:0:0:
256,192,59518,1,0,0:0:0:0:
256,192,59596,1,0,0:0:0:0:
256,192,59674,1,8,0:0:0:0:
256,192,59752,1,8,0:0:0:0:
256,192,59831,1,0,0:0:0:0:
256,192,59987,1,8,0:0:0:0:
256,192,60143,1,0,0:0:0:0:
256,192,60221,1,0,0:0:0:0:
256,192,60299,1,8,0:0:0:0:
256,192,60456,1,8,0:0:0:0:
256,192,60534,1,0,0:0:0:0:
256,192,60612,1,8,0:0:0:0:
256,192,60768,1,0,0:0:0:0:
256,192,60924,1,8,0:0:0:0:
256,192,61002,1,8,0:0:0:0:
256,192,61081,1,0,0:0:0:0:
256,192,61237,1,8,0:0:0:0:
256,192,61393,1,0,0:0:0:0:
256,192,61471,1,0,0:0:0:0:
256,192,61549,1,8,0:0:0:0:
256,192,61706,1,0,0:0:0:0:
256,192,61862,1,8,0:0:0:0:
256,192,62018,1,0,0:0:0:0:
256,192,62096,1,0,0:0:0:0:
256,192,62174,1,8,0:0:0:0:
256,192,62252,1,8,0:0:0:0:
256,192,62331,1,0,0:0:0:0:
256,192,62487,1,8,0:0:0:0:
256,192,62643,1,0,0:0:0:0:
256,192,62721,1,0,0:0:0:0:
256,192,62799,1,8,0:0:0:0:
256,192,62956,1,8,0:0:0:0:
256,192,63034,1,0,0:0:0:0:
256,192,63112,1,8,0:0:0:0:
256,192,63190,1,8,0:0:0:0:
256,192,63268,1,0,0:0:0:0:
256,192,63424,1,8,0:0:0:0:
256,192,63581,1,0,0:0:0:0:
256,192,63659,1,0,0:0:0:0:
256,192,63737,1,8,0:0:0:0:
256,192,63815,1,0,0:0:0:0:
256,192,63893,1,8,0:0:0:0:
256,192,63971,1,8,0:0:0:0:
256,192,64049,1,0,0:0:0:0:
256,192,64127,1,0,0:0:0:0:
256,192,64206,1,12,0:0:0:0:
256,192,64362,1,8,0:0:0:0:
256,192,64518,1,0,0:0:0:0:
256,192,64596,1,0,0:0:0:0:
256,192,64674,1,8,0:0:0:0:
256,192,64752,1,8,0:0:0:0:
256,192,64831,1,0,0:0:0:0:
256,192,64987,1,8,0:0:0:0:
256,192,65143,1,0,0:0:0:0:
256,192,65221,1,0,0:0:0:0:
256,192,65299,1,8,0:0:0:0:
256,192,65456,1,8,0:0:0:0:
256,192,65534,1,0,0:0:0:0:
256,192,65612,1,8,0:0:0:0:
256,192,65768,1,0,0:0:0:0:
256,192,65924,1,8,0:0:0:0:
256,192,66002,1,8,0:0:0:0:
256,192,66081,1,0,0:0:0:0:
256,192,66237,1,8,0:0:0:0:
256,192,66393,1,0,0:0:0:0:
256,192,66471,1,0,0:0:0:0:
256,192,66549,1,8,0:0:0:0:
256,192,66627,1,0,0:0:0:0:
256,192,66706,1,8,0:0:0:0:
256,192,66862,1,8,0:0:0:0:
256,192,66940,1,8,0:0:0:0:
256,192,67018,1,0,0:0:0:0:
256,192,67174,1,8,0:0:0:0:
256,192,67331,1,8,0:0:0:0:
256,192,67409,1,8,0:0:0:0:
256,192,67487,1,0,0:0:0:0:
256,192,67565,1,0,0:0:0:0:
256,192,67643,1,8,0:0:0:0:
256,192,67721,1,0,0:0:0:0:
256,192,67799,1,8,0:0:0:0:
256,192,67956,1,4,0:0:0:0:
256,192,68112,1,8,0:0:0:0:
256,192,68190,1,8,0:0:0:0:
256,192,68268,1,0,0:0:0:0:
256,192,68346,1,0,0:0:0:0:
256,192,68424,1,8,0:0:0:0:
256,192,68502,1,0,0:0:0:0:
256,192,68581,1,8,0:0:0:0:
256,192,68659,1,8,0:0:0:0:
256,192,68737,1,0,0:0:0:0:
256,192,68815,1,0,0:0:0:0:
256,192,68893,1,8,0:0:0:0:
256,192,68971,1,8,0:0:0:0:
256,192,69049,1,8,0:0:0:0:
256,192,69127,1,8,0:0:0:0:
256,192,69206,1,4,0:0:0:0:
256,192,69831,1,4,0:0:0:0:
256,192,70456,1,12,0:0:0:0:
256,192,70924,1,8,0:0:0:0:
256,192,71002,1,8,0:0:0:0:
256,192,71081,1,8,0:0:0:0:
256,192,71237,1,0,0:0:0:0:
256,192,71393,1,0,0:0:0:0:
256,192,71549,1,0,0:0:0:0:
256,192,71706,1,12,0:0:0:0:
256,192,72331,1,12,0:0:0:0:
256,192,72643,1,12,0:0:0:0:
256,192,72956,1,4,0:0:0:0:
256,192,73581,1,12,0:0:0:0:
256,192,73893,1,8,0:0:0:0:
256,192,74206,1,4,0:0:0:0:
256,192,74831,1,4,0:0:0:0:
256,192,75456,1,12,0:0:0:0:
256,192,75924,1,8,0:0:0:0:
256,192,76002,1,8,0:0:0:0:
256,192,76081,1,8,0:0:0:0:
256,192,76237,1,0,0:0:0:0:
256,192,76393,1,0,0:0:0:0:
256,192,76549,1,0,0:0:0:0:
256,192,76706,1,12,0:0:0:0:
256,192,77331,1,12,0:0:0:0:
256,192,77956,1,4,0:0:0:0:
256,192,78190,1,4,0:0:0:0:
256,192,78424,1,4,0:0:0:0:
256,192,78581,1,4,0:0:0:0:
256,192,79206,1,8,0:0:0:0:
256,192,79284,1,8,0:0:0:0:
256,192,79362,1,0,0:0:0:0:
256,192,79440,1,0,0:0:0:0:
256,192,79518,1,8,0:0:0:0:
256,192,79596,1,0,0:0:0:0:
256,192,79674,1,0,0:0:0:0:
256,192,79752,1,0,0:0:0:0:
256,192,79831,1,8,0:0:0:0:
256,192,79909,1,8,0:0:0:0:
256,192,79987,1,0,0:0:0:0:
256,192,80065,1,0,0:0:0:0:
256,192,80143,1,8,0:0:0:0:
256,192,80221,1,0,0:0:0:0:
256,192,80299,1,8,0:0:0:0:
256,192,80377,1,8,0:0:0:0:
256,192,80456,1,0,0:0:0:0:
256,192,80534,1,8,0:0:0:0:
256,192,80612,1,0,0:0:0:0:
256,192,80690,1,0,0:0:0:0:
256,192,80768,1,8,0:0:0:0:
256,192,80846,1,8,0:0:0:0:
256,192,80924,1,0,0:0:0:0:
256,192,81002,1,0,0:0:0:0:
256,192,81081,1,8,0:0:0:0:
256,192,81159,1,0,0:0:0:0:
256,192,81237,1,0,0:0:0:0:
256,192,81315,1,0,0:0:0:0:
256,192,81393,1,8,0:0:0:0:
256,192,81471,1,8,0:0:0:0:
256,192,81549,1,0,0:0:0:0:
256,192,81627,1,0,0:0:0:0:
256,192,81706,1,8,0:0:0:0:
256,192,81784,1,8,0:0:0:0:
256,192,81862,1,8,0:0:0:0:
256,192,81940,1,8,0:0:0:0:
256,192,82018,1,0,0:0:0:0:
256,192,82096,1,0,0:0:0:0:
256,192,82174,1,8,0:0:0:0:
256,192,82252,1,0,0:0:0:0:
256,192,82331,1,8,0:0:0:0:
256,192,82409,1,8,0:0:0:0:
256,192,82487,1,0,0:0:0:0:
256,192,82565,1,0,0:0:0:0:
256,192,82643,1,8,0:0:0:0:
256,192,82721,1,0,0:0:0:0:
256,192,82799,1,0,0:0:0:0:
256,192,82877,1,0,0:0:0:0:
256,192,82956,1,8,0:0:0:0:
256,192,83034,1,0,0:0:0:0:
256,192,83112,1,8,0:0:0:0:
256,192,83190,1,8,0:0:0:0:
256,192,83268,1,0,0:0:0:0:
256,192,83346,1,0,0:0:0:0:
256,192,83424,1,8,0:0:0:0:
256,192,83502,1,0,0:0:0:0:
256,192,83581,1,8,0:0:0:0:
256,192,83659,1,8,0:0:0:0:
256,192,83737,1,0,0:0:0:0:
256,192,83815,1,0,0:0:0:0:
256,192,83893,1,8,0:0:0:0:
256,192,83971,1,0,0:0:0:0:
256,192,84049,1,0,0:0:0:0:
256,192,84127,1,0,0:0:0:0:
256,192,84206,1,8,0:0:0:0:
256,192,84284,1,8,0:0:0:0:
256,192,84362,1,8,0:0:0:0:
256,192,84440,1,8,0:0:0:0:
256,192,84518,1,0,0:0:0:0:
256,192,84596,1,0,0:0:0:0:
256,192,84674,1,8,0:0:0:0:
256,192,84752,1,0,0:0:0:0:
256,192,84831,1,8,0:0:0:0:
256,192,84909,1,8,0:0:0:0:
256,192,84987,1,0,0:0:0:0:
256,192,85065,1,0,0:0:0:0:
256,192,85143,1,8,0:0:0:0:
256,192,85221,1,8,0:0:0:0:
256,192,85299,1,8,0:0:0:0:
256,192,85377,1,0,0:0:0:0:
256,192,85456,1,8,0:0:0:0:
256,192,85534,1,8,0:0:0:0:
256,192,85612,1,0,0:0:0:0:
256,192,85690,1,0,0:0:0:0:
256,192,85768,1,8,0:0:0:0:
256,192,85846,1,0,0:0:0:0:
256,192,85924,1,8,0:0:0:0:
256,192,86002,1,8,0:0:0:0:
256,192,86081,1,0,0:0:0:0:
256,192,86159,1,0,0:0:0:0:
256,192,86237,1,8,0:0:0:0:
256,192,86315,1,8,0:0:0:0:
256,192,86393,1,0,0:0:0:0:
256,192,86471,1,8,0:0:0:0:
256,192,86549,1,0,0:0:0:0:
256,192,86627,1,0,0:0:0:0:
256,192,86706,1,8,0:0:0:0:
256,192,86784,1,0,0:0:0:0:
256,192,86862,1,0,0:0:0:0:
256,192,86940,1,0,0:0:0:0:
256,192,87018,1,8,0:0:0:0:
256,192,87096,1,0,0:0:0:0:
256,192,87174,1,8,0:0:0:0:
256,192,87252,1,8,0:0:0:0:
256,192,87331,1,0,0:0:0:0:
256,192,87409,1,0,0:0:0:0:
256,192,87487,1,8,0:0:0:0:
256,192,87565,1,8,0:0:0:0:
256,192,87643,1,0,0:0:0:0:
256,192,87721,1,0,0:0:0:0:
256,192,87799,1,8,0:0:0:0:
256,192,87877,1,0,0:0:0:0:
256,192,87956,1,8,0:0:0:0:
256,192,88034,1,8,0:0:0:0:
256,192,88112,1,0,0:0:0:0:
256,192,88190,1,0,0:0:0:0:
256,192,88268,1,8,0:0:0:0:
256,192,88346,1,0,0:0:0:0:
256,192,88424,1,0,0:0:0:0:
256,192,88502,1,0,0:0:0:0:
256,192,88581,1,8,0:0:0:0:
256,192,88659,1,8,0:0:0:0:
256,192,88737,1,0,0:0:0:0:
256,192,88815,1,0,0:0:0:0:
256,192,88893,1,8,0:0:0:0:
256,192,88971,1,0,0:0:0:0:
256,192,89049,1,8,0:0:0:0:
256,192,89127,1,8,0:0:0:0:
256,192,89206,1,0,0:0:0:0:
256,192,89284,1,0,0:0:0:0:
256,192,89362,1,0,0:0:0:0:
256,192,89440,1,0,0:0:0:0:
256,192,89518,1,8,0:0:0:0:
256,192,89596,1,0,0:0:0:0:
256,192,89674,1,8,0:0:0:0:
256,192,89752,1,8,0:0:0:0:
256,192,89831,1,0,0:0:0:0:
256,192,89909,1,0,0:0:0:0:
256,192,89987,1,8,0:0:0:0:
256,192,90065,1,8,0:0:0:0:
256,192,90143,1,0,0:0:0:0:
256,192,90221,1,8,0:0:0:0:
256,192,90299,1,0,0:0:0:0:
256,192,90377,1,0,0:0:0:0:
256,192,90456,1,8,0:0:0:0:
256,192,90534,1,8,0:0:0:0:
256,192,90612,1,0,0:0:0:0:
256,192,90690,1,0,0:0:0:0:
256,192,90768,1,8,0:0:0:0:
256,192,90846,1,0,0:0:0:0:
256,192,90924,1,8,0:0:0:0:
256,192,91002,1,8,0:0:0:0:
256,192,91081,1,0,0:0:0:0:
256,192,91159,1,0,0:0:0:0:
256,192,91237,1,0,0:0:0:0:
256,192,91315,1,0,0:0:0:0:
256,192,91393,1,8,0:0:0:0:
256,192,91471,1,8,0:0:0:0:
256,192,91549,1,0,0:0:0:0:
256,192,91627,1,0,0:0:0:0:
256,192,91706,1,8,0:0:0:0:
256,192,91784,1,0,0:0:0:0:
256,192,91862,1,0,0:0:0:0:
256,192,91940,1,0,0:0:0:0:
256,192,92018,1,8,0:0:0:0:
256,192,92096,1,0,0:0:0:0:
256,192,92174,1,8,0:0:0:0:
256,192,92252,1,8,0:0:0:0:
256,192,92331,1,8,0:0:0:0:
256,192,92409,1,8,0:0:0:0:
256,192,92487,1,0,0:0:0:0:
256,192,92565,1,0,0:0:0:0:
256,192,92643,1,8,0:0:0:0:
256,192,92721,1,0,0:0:0:0:
256,192,92799,1,8,0:0:0:0:
256,192,92877,1,0,0:0:0:0:
256,192,92956,1,8,0:0:0:0:
256,192,93034,1,8,0:0:0:0:
256,192,93112,1,0,0:0:0:0:
256,192,93190,1,0,0:0:0:0:
256,192,93268,1,8,0:0:0:0:
256,192,93346,1,0,0:0:0:0:
256,192,93424,1,8,0:0:0:0:
256,192,93502,1,8,0:0:0:0:
256,192,93581,1,0,0:0:0:0:
256,192,93659,1,8,0:0:0:0:
256,192,93737,1,0,0:0:0:0:
256,192,93815,1,0,0:0:0:0:
256,192,93893,1,8,0:0:0:0:
256,192,93971,1,8,0:0:0:0:
256,192,94049,1,0,0:0:0:0:
256,192,94127,1,0,0:0:0:0:
256,192,94206,1,8,0:0:0:0:
256,192,94284,1,0,0:0:0:0:
256,192,94362,1,0,0:0:0:0:
256,192,94440,1,0,0:0:0:0:
256,192,94518,1,8,0:0:0:0:
256,192,94596,1,8,0:0:0:0:
256,192,94674,1,0,0:0:0:0:
256,192,94752,1,0,0:0:0:0:
256,192,94831,1,8,0:0:0:0:
256,192,94909,1,0,0:0:0:0:
256,192,94987,1,0,0:0:0:0:
256,192,95065,1,0,0:0:0:0:
256,192,95143,1,8,0:0:0:0:
256,192,95221,1,8,0:0:0:0:
256,192,95299,1,8,0:0:0:0:
256,192,95377,1,0,0:0:0:0:
256,192,95456,1,8,0:0:0:0:
256,192,95534,1,8,0:0:0:0:
256,192,95612,1,0,0:0:0:0:
256,192,95690,1,0,0:0:0:0:
256,192,95768,1,8,0:0:0:0:
256,192,95846,1,0,0:0:0:0:
256,192,95924,1,8,0:0:0:0:
256,192,96002,1,8,0:0:0:0:
256,192,96081,1,0,0:0:0:0:
256,192,96159,1,8,0:0:0:0:
256,192,96237,1,0,0:0:0:0:
256,192,96315,1,0,0:0:0:0:
256,192,96393,1,8,0:0:0:0:
256,192,96471,1,8,0:0:0:0:
256,192,96549,1,0,0:0:0:0:
256,192,96627,1,0,0:0:0:0:
256,192,96706,1,12,0:0:0:0:
256,192,96862,1,8,0:0:0:0:
256,192,97018,1,0,0:0:0:0:
256,192,97174,1,8,0:0:0:0:
256,192,97252,1,0,0:0:0:0:
256,192,97331,1,8,0:0:0:0:
256,192,97487,1,0,0:0:0:0:
256,192,97643,1,8,0:0:0:0:
256,192,97721,1,0,0:0:0:0:
256,192,97799,1,8,0:0:0:0:
256,192,97877,1,8,0:0:0:0:
256,192,97956,1,0,0:0:0:0:
256,192,98034,1,0,0:0:0:0:
256,192,98112,1,8,0:0:0:0:
256,192,98190,1,0,0:0:0:0:
256,192,98268,1,8,0:0:0:0:
256,192,98424,1,8,0:0:0:0:
256,192,98581,1,0,0:0:0:0:
256,192,98659,1,8,0:0:0:0:
256,192,98737,1,0,0:0:0:0:
256,192,98815,1,0,0:0:0:0:
256,192,98893,1,8,0:0:0:0:
256,192,98971,1,0,0:0:0:0:
256,192,99049,1,0,0:0:0:0:
256,192,99127,1,0,0:0:0:0:
256,192,99206,1,12,0:0:0:0:
256,192,99362,1,8,0:0:0:0:
256,192,99440,1,8,0:0:0:0:
256,192,99518,1,0,0:0:0:0:
256,192,99596,1,0,0:0:0:0:
256,192,99674,1,8,0:0:0:0:
256,192,99752,1,0,0:0:0:0:
256,192,99831,1,8,0:0:0:0:
256,192,99909,1,8,0:0:0:0:
256,192,99987,1,0,0:0:0:0:
256,192,100065,1,0,0:0:0:0:
256,192,100143,1,8,0:0:0:0:
256,192,100221,1,0,0:0:0:0:
256,192,100299,1,8,0:0:0:0:
256,192,100377,1,8,0:0:0:0:
256,192,100456,1,0,0:0:0:0:
256,192,100534,1,0,0:0:0:0:
256,192,100612,1,8,0:0:0:0:
256,192,100690,1,8,0:0:0:0:
256,192,100768,1,8,0:0:0:0:
256,192,100846,1,0,0:0:0:0:
256,192,100924,1,8,0:0:0:0:
256,192,101002,1,8,0:0:0:0:
256,192,101081,1,0,0:0:0:0:
256,192,101159,1,0,0:0:0:0:
256,192,101237,1,8,0:0:0:0:
256,192,101315,1,0,0:0:0:0:
256,192,101393,1,8,0:0:0:0:
256,192,101471,1,8,0:0:0:0:
256,192,101549,1,0,0:0:0:0:
256,192,101627,1,0,0:0:0:0:
256,192,101706,1,8,0:0:0:0:
256,192,101784,1,0,0:0:0:0:
256,192,101862,1,8,0:0:0:0:
256,192,101940,1,8,0:0:0:0:
256,192,102018,1,0,0:0:0:0:
256,192,102096,1,8,0:0:0:0:
256,192,102174,1,0,0:0:0:0:
256,192,102252,1,0,0:0:0:0:
256,192,102331,1,8,0:0:0:0:
256,192,102409,1,0,0:0:0:0:
256,192,102487,1,0,0:0:0:0:
256,192,102565,1,0,0:0:0:0:
256,192,102643,1,8,0:0:0:0:
256,192,102721,1,8,0:0:0:0:
256,192,102799,1,0,0:0:0:0:
256,192,102877,1,0,0:0:0:0:
256,192,102956,1,8,0:0:0:0:
256,192,103034,1,0,0:0:0:0:
256,192,103112,1,8,0:0:0:0:
256,192,103190,1,8,0:0:0:0:
256,192,103268,1,0,0:0:0:0:
256,192,103346,1,8,0:0:0:0:
256,192,103424,1,0,0:0:0:0:
256,192,103502,1,0,0:0:0:0:
256,192,103581,1,8,0:0:0:0:
256,192,103659,1,8,0:0:0:0:
256,192,103737,1,0,0:0:0:0:
256,192,103815,1,0,0:0:0:0:
256,192,103893,1,8,0:0:0:0:
256,192,103971,1,8,0:0:0:0:
256,192,104049,1,8,0:0:0:0:
256,192,104127,1,8,0:0:0:0:
256,192,104206,1,0,0:0:0:0:
256,192,104284,1,0,0:0:0:0:
256,192,104362,1,8,0:0:0:0:
256,192,104440,1,0,0:0:0:0:
256,192,104518,1,8,0:0:0:0:
256,192,104596,1,8,0:0:0:0:
256,192,104674,1,0,0:0:0:0:
256,192,104752,1,0,0:0:0:0:
256,192,104831,1,8,0:0:0:0:
256,192,104909,1,0,0:0:0:0:
256,192,104987,1,8,0:0:0:0:
256,192,105065,1,8,0:0:0:0:
256,192,105143,1,0,0:0:0:0:
256,192,105221,1,0,0:0:0:0:
256,192,105299,1,8,0:0:0:0:
256,192,105377,1,8,0:0:0:0:
256,192,105456,1,0,0:0:0:0:
256,192,105534,1,8,0:0:0:0:
256,192,105612,1,0,0:0:0:0:
256,192,105690,1,0,0:0:0:0:
256,192,105768,1,8,0:0:0:0:
256,192,105846,1,8,0:0:0:0:
256,192,105924,1,8,0:0:0:0:
256,192,106002,1,0,0:0:0:0:
256,192,106081,1,8,0:0:0:0:
256,192,106159,1,8,0:0:0:0:
256,192,106237,1,0,0:0:0:0:
256,192,106315,1,0,0:0:0:0:
256,192,106393,1,8,0:0:0:0:
256,192,106471,1,0,0:0:0:0:
256,192,106549,1,8,0:0:0:0:
256,192,106627,1,8,0:0:0:0:
256,192,106706,1,4,0:0:0:0:
256,192,107018,1,4,0:0:0:0:
256,192,107331,1,4,0:0:0:0:
256,192,107643,1,4,0:0:0:0:
256,192,107956,1,12,0:0:0:0:
256,192,108112,1,8,0:0:0:0:
256,192,108190,1,8,0:0:0:0:
256,192,108268,1,0,0:0:0:0:
256,192,108346,1,8,0:0:0:0:
256,192,108424,1,8,0:0:0:0:
256,192,108502,1,8,0:0:0:0:
256,192,108581,1,0,0:0:0:0:
256,192,108659,1,0,0:0:0:0:
256,192,108737,1,8,0:0:0:0:
256,192,108815,1,8,0:0:0:0:
256,192,108893,1,0,0:0:0:0:
256,192,108971,1,0,0:0:0:0:
256,192,109049,1,0,0:0:0:0:
256,192,109127,1,0,0:0:0:0:
256,192,109206,1,12,0:0:0:0:
256,192,109362,1,12,0:0:0:0:
256,192,110924,1,0,0:0:0:0:
256,192,111002,1,0,0:0:0:0:
256,192,111081,1,8,0:0:0:0:
256,192,111237,1,0,0:0:0:0:
256,192,111393,1,8,0:0:0:0:
256,192,111549,1,8,0:0:0:0:
256,192,111706,1,4,0:0:0:0:
256,192,111940,1,8,0:0:0:0:
256,192,112174,1,4,0:0:0:0:
256,192,112487,1,0,0:0:0:0:
256,192,112643,1,12,0:0:0:0:
256,192,112956,1,8,0:0:0:0:
256,192,113034,1,0,0:0:0:0:
256,192,113112,1,0,0:0:0:0:
256,192,113190,1,8,0:0:0:0:
256,192,113268,1,0,0:0:0:0:
256,192,113346,1,0,0:0:0:0:
256,192,113424,1,8,0:0:0:0:
256,192,113502,1,0,0:0:0:0:
256,192,113581,1,8,0:0:0:0:
256,192,113659,1,8,0:0:0:0:
256,192,113737,1,0,0:0:0:0:
256,192,113815,1,0,0:0:0:0:
256,192,113893,1,8,0:0:0:0:
256,192,113971,1,0,0:0:0:0:
256,192,114049,1,0,0:0:0:0:
256,192,114127,1,0,0:0:0:0:
256,192,114206,1,12,0:0:0:0:
256,192,114362,1,8,0:0:0:0:
256,192,114518,1,0,0:0:0:0:
256,192,114596,1,0,0:0:0:0:
256,192,114674,1,8,0:0:0:0:
256,192,114752,1,8,0:0:0:0:
256,192,114831,1,0,0:0:0:0:
256,192,114987,1,8,0:0:0:0:
256,192,115143,1,0,0:0:0:0:
256,192,115221,1,0,0:0:0:0:
256,192,115299,1,8,0:0:0:0:
256,192,115456,1,8,0:0:0:0:
256,192,115534,1,0,0:0:0:0:
256,192,115612,1,8,0:0:0:0:
256,192,115768,1,0,0:0:0:0:
256,192,115924,1,8,0:0:0:0:
256,192,116002,1,8,0:0:0:0:
256,192,116081,1,0,0:0:0:0:
256,192,116237,1,8,0:0:0:0:
256,192,116393,1,0,0:0:0:0:
256,192,116471,1,0,0:0:0:0:
256,192,116549,1,8,0:0:0:0:
256,192,116706,1,0,0:0:0:0:
256,192,116784,1,0,0:0:0:0:
256,192,116862,1,8,0:0:0:0:
256,192,116940,1,8,0:0:0:0:
256,192,117018,1,0,0:0:0:0:
256,192,117174,1,8,0:0:0:0:
256,192,117252,1,8,0:0:0:0:
256,192,117331,1,0,0:0:0:0:
256,192,117487,1,8,0:0:0:0:
256,192,117643,1,0,0:0:0:0:
256,192,117721,1,0,0:0:0:0:
256,192,117799,1,8,0:0:0:0:
256,192,117956,1,0,0:0:0:0:
256,192,118112,1,8,0:0:0:0:
256,192,118190,1,0,0:0:0:0:
256,192,118268,1,8,0:0:0:0:
256,192,118424,1,8,0:0:0:0:
256,192,118581,1,0,0:0:0:0:
256,192,118737,1,8,0:0:0:0:
256,192,118815,1,0,0:0:0:0:
256,192,118893,1,8,0:0:0:0:
256,192,118971,1,8,0:0:0:0:
256,192,119049,1,0,0:0:0:0:
256,192,119206,1,12,0:0:0:0:
256,192,119362,1,8,0:0:0:0:
256,192,119518,1,0,0:0:0:0:
256,192,119596,1,0,0:0:0:0:
256,192,119674,1,8,0:0:0:0:
256,192,119752,1,8,0:0:0:0:
256,192,119831,1,0,0:0:0:0:
256,192,119987,1,8,0:0:0:0:
256,192,120143,1,0,0:0:0:0:
256,192,120221,1,0,0:0:0:0:
256,192,120299,1,8,0:0:0:0:
256,192,120456,1,8,0:0:0:0:
256,192,120534,1,0,0:0:0:0:
256,192,120612,1,8,0:0:0:0:
256,192,120768,1,0,0:0:0:0:
256,192,120924,1,8,0:0:0:0:
256,192,121002,1,8,0:0:0:0:
256,192,121081,1,0,0:0:0:0:
256,192,121237,1,8,0:0:0:0:
256,192,121393,1,0,0:0:0:0:
256,192,121471,1,0,0:0:0:0:
256,192,121549,1,8,0:0:0:0:
256,192,121706,1,0,0:0:0:0:
256,192,121862,1,8,0:0:0:0:
256,192,122018,1,0,0:0:0:0:
256,192,122096,1,0,0:0:0:0:
256,192,122174,1,8,0:0:0:0:
256,192,122252,1,8,0:0:0:0:
256,192,122331,1,0,0:0:0:0:
256,192,122487,1,8,0:0:0:0:
256,192,122643,1,0,0:0:0:0:
256,192,122721,1,0,0:0:0:0:
256,192,122799,1,8,0:0:0:0:
256,192,122956,1,8,0:0:0:0:
256,192,123034,1,0,0:0:0:0:
256,192,123112,1,8,0:0:0:0:
256,192,123190,1,8,0:0:0:0:
256,192,123268,1,0,0:0:0:0:
256,192,123424,1,8,0:0:0:0:
256,192,123581,1,0,0:0:0:0:
256,192,123659,1,0,0:0:0:0:
256,192,123737,1,8,0:0:0:0:
256,192,123815,1,0,0:0:0:0:
256,192,123893,1,8,0:0:0:0:
256,192,123971,1,8,0:0:0:0:
256,192,124049,1,0,0:0:0:0:
256,192,124127,1,0,0:0:0:0:
256,192,124206,1,12,0:0:0:0:
256,192,124362,1,8,0:0:0:0:
256,192,124518,1,0,0:0:0:0:
256,192,124596,1,0,0:0:0:0:
256,192,124674,1,8,0:0:0:0:
256,192,124752,1,8,0:0:0:0:
256,192,124831,1,0,0:0:0:0:
256,192,124987,1,8,0:0:0:0:
256,192,125143,1,0,0:0:0:0:
256,192,125221,1,0,0:0:0:0:
256,192,125299,1,8,0:0:0:0:
256,192,125456,1,8,0:0:0:0:
256,192,125534,1,0,0:0:0:0:
256,192,125612,1,8,0:0:0:0:
256,192,125768,1,0,0:0:0:0:
256,192,125924,1,8,0:0:0:0:
256,192,126002,1,8,0:0:0:0:
256,192,126081,1,0,0:0:0:0:
256,192,126237,1,8,0:0:0:0:
256,192,126393,1,0,0:0:0:0:
256,192,126471,1,0,0:0:0:0:
256,192,126549,1,8,0:0:0:0:
256,192,126627,1,0,0:0:0:0:
256,192,126706,1,8,0:0:0:0:
256,192,126862,1,8,0:0:0:0:
256,192,126940,1,8,0:0:0:0:
256,192,127018,1,0,0:0:0:0:
256,192,127174,1,8,0:0:0:0:
256,192,127331,1,8,0:0:0:0:
256,192,127409,1,8,0:0:0:0:
256,192,127487,1,0,0:0:0:0:
256,192,127565,1,0,0:0:0:0:
256,192,127643,1,8,0:0:0:0:
256,192,127721,1,0,0:0:0:0:
256,192,127799,1,8,0:0:0:0:
256,192,127956,1,4,0:0:0:0:
256,192,128112,1,8,0:0:0:0:
256,192,128190,1,8,0:0:0:0:
256,192,128268,1,0,0:0:0:0:
256,192,128346,1,8,0:0:0:0:
256,192,128424,1,0,0:0:0:0:
256,192,128502,1,0,0:0:0:0:
256,192,128581,1,8,0:0:0:0:
256,192,128659,1,0,0:0:0:0:
256,192,128737,1,0,0:0:0:0:
256,192,128815,1,0,0:0:0:0:
256,192,128893,1,8,0:0:0:0:
256,192,128971,1,8,0:0:0:0:
256,192,129049,1,0,0:0:0:0:
256,192,129127,1,0,0:0:0:0:
256,192,129206,1,8,0:0:0:0:
256,192,129284,1,8,0:0:0:0:
256,192,129362,1,0,0:0:0:0:
256,192,129440,1,8,0:0:0:0:
256,192,129518,1,0,0:0:0:0:
256,192,129596,1,0,0:0:0:0:
256,192,129674,1,0,0:0:0:0:
256,192,129752,1,0,0:0:0:0:
256,192,129831,1,8,0:0:0:0:
256,192,129909,1,0,0:0:0:0:
256,192,129987,1,8,0:0:0:0:
256,192,130065,1,8,0:0:0:0:
256,192,130143,1,0,0:0:0:0:
256,192,130221,1,0,0:0:0:0:
256,192,130299,1,0,0:0:0:0:
256,192,130377,1,0,0:0:0:0:
256,192,130456,1,8,0:0:0:0:
256,192,130534,1,0,0:0:0:0:
256,192,130612,1,0,0:0:0:0:
256,192,130690,1,0,0:0:0:0:
256,192,130768,1,8,0:0:0:0:
256,192,130846,1,8,0:0:0:0:
256,192,130924,1,0,0:0:0:0:
256,192,131002,1,0,0:0:0:0:
256,192,131081,1,8,0:0:0:0:
256,192,131159,1,0,0:0:0:0:
256,192,131237,1,0,0:0:0:0:
256,192,131315,1,0,0:0:0:0:
256,192,131393,1,8,0:0:0:0:
256,192,131471,1,0,0:0:0:0:
256,192,131549,1,8,0:0:0:0:
256,192,131627,1,8,0:0:0:0:
256,192,131706,1,0,0:0:0:0:
256,192,131784,1,0,0:0:0:0:
256,192,131862,1,0,0:0:0:0:
256,192,131940,1,0,0:0:0:0:
256,192,132018,1,8,0:0:0:0:
256,192,132096,1,8,0:0:0:0:
256,192,132174,1,0,0:0:0:0:
256,192,132252,1,0,0:0:0:0:
256,192,132331,1,8,0:0:0:0:
256,192,132409,1,0,0:0:0:0:
256,192,132487,1,0,0:0:0:0:
256,192,132565,1,0,0:0:0:0:
256,192,132643,1,8,0:0:0:0:
256,192,132721,1,8,0:0:0:0:
256,192,132799,1,0,0:0:0:0:
256,192,132877,1,8,0:0:0:0:
256,192,132956,1,0,0:0:0:0:
256,192,133034,1,0,0:0:0:0:
256,192,133112,1,0,0:0:0:0:
256,192,133190,1,0,0:0:0:0:
256,192,133268,1,8,0:0:0:0:
256,192,133346,1,0,0:0:0:0:
256,192,133424,1,0,0:0:0:0:
256,192,133502,1,0,0:0:0:0:
256,192,133581,1,8,0:0:0:0:
256,192,133659,1,8,0:0:0:0:
256,192,133737,1,0,0:0:0:0:
256,192,133815,1,0,0:0:0:0:
256,192,133893,1,8,0:0:0:0:
256,192,133971,1,0,0:0:0:0:
256,192,134049,1,8,0:0:0:0:
256,192,134127,1,8,0:0:0:0:
256,192,134206,1,0,0:0:0:0:
256,192,134284,1,0,0:0:0:0:
256,192,134362,1,0,0:0:0:0:
256,192,134440,1,0,0:0:0:0:
256,192,134518,1,8,0:0:0:0:
256,192,134596,1,0,0:0:0:0:
256,192,134674,1,0,0:0:0:0:
256,192,134752,1,0,0:0:0:0:
256,192,134831,1,8,0:0:0:0:
256,192,135143,1,0,0:0:0:0:
256,192,135221,1,0,0:0:0:0:
256,192,135299,1,0,0:0:0:0:
256,192,135377,1,0,0:0:0:0:
256,192,135456,1,8,0:0:0:0:
256,192,135534,1,0,0:0:0:0:
256,192,135612,1,0,0:0:0:0:
256,192,135690,1,0,0:0:0:0:
256,192,135768,1,8,0:0:0:0:
256,192,135846,1,8,0:0:0:0:
256,192,135924,1,0,0:0:0:0:
256,192,136002,1,0,0:0:0:0:
256,192,136081,1,8,0:0:0:0:
256,192,136393,1,0,0:0:0:0:
256,192,136471,1,0,0:0:0:0:
256,192,136549,1,8,0:0:0:0:
256,192,136627,1,8,0:0:0:0:
256,192,136706,1,0,0:0:0:0:
256,192,136784,1,0,0:0:0:0:
256,192,136862,1,0,0:0:0:0:
256,192,136940,1,0,0:0:0:0:
256,192,137018,1,8,0:0:0:0:
256,192,137096,1,0,0:0:0:0:
256,192,137174,1,0,0:0:0:0:
256,192,137252,1,0,0:0:0:0:
256,192,137331,1,8,0:0:0:0:
256,192,137643,1,8,0:0:0:0:
256,192,137721,1,8,0:0:0:0:
256,192,137799,1,0,0:0:0:0:
256,192,137877,1,0,0:0:0:0:
256,192,137956,1,12,0:0:0:0:
256,192,138190,1,12,0:0:0:0:
256,192,138424,1,12,0:0:0:0:
256,192,138581,1,12,0:0:0:0:
256,192,139206,1,8,0:0:0:0:
256,192,139284,1,8,0:0:0:0:
256,192,139362,1,0,0:0:0:0:
256,192,139440,1,0,0:0:0:0:
256,192,139518,1,8,0:0:0:0:
256,192,139596,1,0,0:0:0:0:
256,192,139674,1,0,0:0:0:0:
256,192,139752,1,0,0:0:0:0:
256,192,139831,1,8,0:0:0:0:
256,192,139909,1,0,0:0:0:0:
256,192,139987,1,8,0:0:0:0:
256,192,140065,1,8,0:0:0:0:
256,192,140143,1,0,0:0:0:0:
256,192,140221,1,8,0:0:0:0:
256,192,140299,1,0,0:0:0:0:
256,192,140377,1,0,0:0:0:0:
256,192,140456,1,8,0:0:0:0:
256,192,140534,1,8,0:0:0:0:
256,192,140612,1,0,0:0:0:0:
256,192,140690,1,0,0:0:0:0:
256,192,140768,1,8,0:0:0:0:
256,192,140846,1,0,0:0:0:0:
256,192,140924,1,0,0:0:0:0:
256,192,141002,1,0,0:0:0:0:
256,192,141081,1,8,0:0:0:0:
256,192,141159,1,8,0:0:0:0:
256,192,141237,1,8,0:0:0:0:
256,192,141315,1,0,0:0:0:0:
256,192,141393,1,8,0:0:0:0:
256,192,141471,1,8,0:0:0:0:
256,192,141549,1,0,0:0:0:0:
256,192,141627,1,0,0:0:0:0:
256,192,141706,1,8,0:0:0:0:
256,192,141784,1,8,0:0:0:0:
256,192,141862,1,8,0:0:0:0:
256,192,141940,1,8,0:0:0:0:
256,192,142018,1,0,0:0:0:0:
256,192,142096,1,0,0:0:0:0:
256,192,142174,1,8,0:0:0:0:
256,192,142252,1,0,0:0:0:0:
256,192,142331,1,8,0:0:0:0:
256,192,142409,1,8,0:0:0:0:
256,192,142487,1,0,0:0:0:0:
256,192,142565,1,0,0:0:0:0:
256,192,142643,1,8,0:0:0:0:
256,192,142721,1,0,0:0:0:0:
256,192,142799,1,0,0:0:0:0:
256,192,142877,1,0,0:0:0:0:
256,192,142956,1,8,0:0:0:0:
256,192,143034,1,0,0:0:0:0:
256,192,143112,1,8,0:0:0:0:
256,192,143190,1,8,0:0:0:0:
256,192,143268,1,0,0:0:0:0:
256,192,143346,1,0,0:0:0:0:
256,192,143424,1,8,0:0:0:0:
256,192,143502,1,0,0:0:0:0:
256,192,143581,1,8,0:0:0:0:
256,192,143659,1,8,0:0:0:0:
256,192,143737,1,0,0:0:0:0:
256,192,143815,1,0,0:0:0:0:
256,192,143893,1,8,0:0:0:0:
256,192,143971,1,0,0:0:0:0:
256,192,144049,1,0,0:0:0:0:
256,192,144127,1,0,0:0:0:0:
256,192,144206,1,8,0:0:0:0:
256,192,144284,1,8,0:0:0:0:
256,192,144362,1,8,0:0:0:0:
256,192,144440,1,8,0:0:0:0:
256,192,144518,1,0,0:0:0:0:
256,192,144596,1,0,0:0:0:0:
256,192,144674,1,8,0:0:0:0:
256,192,144752,1,0,0:0:0:0:
256,192,144831,1,8,0:0:0:0:
256,192,144909,1,8,0:0:0:0:
256,192,144987,1,0,0:0:0:0:
256,192,145065,1,0,0:0:0:0:
256,192,145143,1,8,0:0:0:0:
256,192,145221,1,8,0:0:0:0:
256,192,145299,1,8,0:0:0:0:
256,192,145377,1,0,0:0:0:0:
256,192,145456,1,8,0:0:0:0:
256,192,145534,1,8,0:0:0:0:
256,192,145612,1,0,0:0:0:0:
256,192,145690,1,0,0:0:0:0:
256,192,145768,1,8,0:0:0:0:
256,192,145846,1,0,0:0:0:0:
256,192,145924,1,8,0:0:0:0:
256,192,146002,1,8,0:0:0:0:
256,192,146081,1,0,0:0:0:0:
256,192,146159,1,0,0:0:0:0:
256,192,146237,1,8,0:0:0:0:
256,192,146315,1,0,0:0:0:0:
256,192,146393,1,8,0:0:0:0:
256,192,146471,1,8,0:0:0:0:
256,192,146549,1,0,0:0:0:0:
256,192,146627,1,0,0:0:0:0:
256,192,146706,1,8,0:0:0:0:
256,192,146784,1,0,0:0:0:0:
256,192,146862,1,0,0:0:0:0:
256,192,146940,1,0,0:0:0:0:
256,192,147018,1,8,0:0:0:0:
256,192,147096,1,8,0:0:0:0:
256,192,147174,1,0,0:0:0:0:
256,192,147252,1,8,0:0:0:0:
256,192,147331,1,0,0:0:0:0:
256,192,147409,1,0,0:0:0:0:
256,192,147487,1,8,0:0:0:0:
256,192,147565,1,8,0:0:0:0:
256,192,147643,1,0,0:0:0:0:
256,192,147721,1,0,0:0:0:0:
256,192,147799,1,8,0:0:0:0:
256,192,147877,1,0,0:0:0:0:
256,192,147956,1,8,0:0:0:0:
256,192,148034,1,8,0:0:0:0:
256,192,148112,1,0,0:0:0:0:
256,192,148190,1,0,0:0:0:0:
256,192,148268,1,8,0:0:0:0:
256,192,148346,1,0,0:0:0:0:
256,192,148424,1,0,0:0:0:0:
256,192,148502,1,0,0:0:0:0:
256,192,148581,1,8,0:0:0:0:
256,192,148659,1,8,0:0:0:0:
256,192,148737,1,0,0:0:0:0:
256,192,148815,1,0,0:0:0:0:
256,192,148893,1,8,0:0:0:0:
256,192,148971,1,0,0:0:0:0:
256,192,149049,1,8,0:0:0:0:
256,192,149127,1,8,0:0:0:0:
256,192,149206,1,0,0:0:0:0:
256,192,149284,1,0,0:0:0:0:
256,192,149362,1,0,0:0:0:0:
256,192,149440,1,0,0:0:0:0:
256,192,149518,1,8,0:0:0:0:
256,192,149596,1,0,0:0:0:0:
256,192,149674,1,8,0:0:0:0:
256,192,149752,1,8,0:0:0:0:
256,192,149831,1,0,0:0:0:0:
256,192,149909,1,0,0:0:0:0:
256,192,149987,1,8,0:0:0:0:
256,192,150065,1,8,0:0:0:0:
256,192,150143,1,0,0:0:0:0:
256,192,150221,1,8,0:0:0:0:
256,192,150299,1,0,0:0:0:0:
256,192,150377,1,0,0:0:0:0:
256,192,150456,1,8,0:0:0:0:
256,192,150534,1,8,0:0:0:0:
256,192,150612,1,0,0:0:0:0:
256,192,150690,1,0,0:0:0:0:
256,192,150768,1,8,0:0:0:0:
256,192,150846,1,0,0:0:0:0:
256,192,150924,1,8,0:0:0:0:
256,192,151002,1,8,0:0:0:0:
256,192,151081,1,0,0:0:0:0:
256,192,151159,1,0,0:0:0:0:
256,192,151237,1,0,0:0:0:0:
256,192,151315,1,0,0:0:0:0:
256,192,151393,1,8,0:0:0:0:
256,192,151471,1,8,0:0:0:0:
256,192,151549,1,0,0:0:0:0:
256,192,151627,1,0,0:0:0:0:
256,192,151706,1,8,0:0:0:0:
256,192,151784,1,0,0:0:0:0:
256,192,151862,1,0,0:0:0:0:
256,192,151940,1,0,0:0:0:0:
256,192,152018,1,8,0:0:0:0:
256,192,152096,1,0,0:0:0:0:
256,192,152174,1,8,0:0:0:0:
256,192,152252,1,8,0:0:0:0:
256,192,152331,1,8,0:0:0:0:
256,192,152409,1,8,0:0:0:0:
256,192,152487,1,0,0:0:0:0:
256,192,152565,1,0,0:0:0:0:
256,192,152643,1,8,0:0:0:0:
256,192,152721,1,0,0:0:0:0:
256,192,152799,1,8,0:0:0:0:
256,192,152877,1,0,0:0:0:0:
256,192,152956,1,8,0:0:0:0:
256,192,153034,1,8,0:0:0:0:
256,192,153112,1,0,0:0:0:0:
256,192,153190,1,0,0:0:0:0:
256,192,153268,1,8,0:0:0:0:
256,192,153346,1,0,0:0:0:0:
256,192,153424,1,8,0:0:0:0:
256,192,153502,1,8,0:0:0:0:
256,192,153581,1,0,0:0:0:0:
256,192,153659,1,8,0:0:0:0:
256,192,153737,1,0,0:0:0:0:
256,192,153815,1,0,0:0:0:0:
256,192,153893,1,8,0:0:0:0:
256,192,153971,1,8,0:0:0:0:
256,192,154049,1,0,0:0:0:0:
256,192,154127,1,0,0:0:0:0:
256,192,154206,1,8,0:0:0:0:
256,192,154284,1,0,0:0:0:0:
256,192,154362,1,0,0:0:0:0:
256,192,154440,1,0,0:0:0:0:
256,192,154518,1,8,0:0:0:0:
256,192,154596,1,8,0:0:0:0:
256,192,154674,1,0,0:0:0:0:
256,192,154752,1,0,0:0:0:0:
256,192,154831,1,8,0:0:0:0:
256,192,154909,1,0,0:0:0:0:
256,192,154987,1,0,0:0:0:0:
256,192,155065,1,0,0:0:0:0:
256,192,155143,1,8,0:0:0:0:
256,192,155221,1,8,0:0:0:0:
256,192,155299,1,8,0:0:0:0:
256,192,155377,1,0,0:0:0:0:
256,192,155456,1,8,0:0:0:0:
256,192,155534,1,8,0:0:0:0:
256,192,155612,1,0,0:0:0:0:
256,192,155690,1,0,0:0:0:0:
256,192,155768,1,8,0:0:0:0:
256,192,155846,1,0,0:0:0:0:
256,192,155924,1,8,0:0:0:0:
256,192,156002,1,8,0:0:0:0:
256,192,156081,1,0,0:0:0:0:
256,192,156159,1,8,0:0:0:0:
256,192,156237,1,0,0:0:0:0:
256,192,156315,1,0,0:0:0:0:
256,192,156393,1,8,0:0:0:0:
256,192,156471,1,8,0:0:0:0:
256,192,156549,1,0,0:0:0:0:
256,192,156627,1,0,0:0:0:0:
256,192,156706,1,12,0:0:0:0:
256,192,156862,12,0,161549,0:0:0:0:
256,192,161706,5,0,0:0:0:0:
256,192,162643,1,0,0:0:0:0:
256,192,162956,1,8,0:0:0:0:
256,192,163893,1,8,0:0:0:0:
256,192,164206,1,4,0:0:0:0:
256,192,164831,1,4,0:0:0:0:
256,192,165456,1,12,0:0:0:0:
256,192,166081,1,12,0:0:0:0:
256,192,166706,1,12,0:0:0:0:
256,192,166940,1,0,0:0:0:0:
256,192,167018,1,8,0:0:0:0:
256,192,167174,1,0,0:0:0:0:
256,192,167252,1,8,0:0:0:0:
256,192,167331,1,0,0:0:0:0:
256,192,167409,1,8,0:0:0:0:
256,192,167487,1,0,0:0:0:0:
256,192,167643,1,8,0:0:0:0:
256,192,167799,1,0,0:0:0:0:
256,192,167956,1,8,0:0:0:0:
256,192,168034,1,8,0:0:0:0:
256,192,168112,1,8,0:0:0:0:
256,192,168190,1,8,0:0:0:0:
256,192,168268,1,0,0:0:0:0:
256,192,168346,1,8,0:0:0:0:
256,192,168424,1,0,0:0:0:0:
256,192,168502,1,0,0:0:0:0:
256,192,168581,1,8,0:0:0:0:
256,192,168659,1,8,0:0:0:0:
256,192,168737,1,0,0:0:0:0:
256,192,168815,1,0,0:0:0:0:
256,192,168893,1,8,0:0:0:0:
256,192,168971,1,0,0:0:0:0:
256,192,169049,1,0,0:0:0:0:
256,192,169127,1,0,0:0:0:0:
256,192,169206,1,12,0:0:0:0:
256,192,169440,1,0,0:0:0:0:
256,192,169518,1,8,0:0:0:0:
256,192,169674,1,0,0:0:0:0:
256,192,169752,1,8,0:0:0:0:
256,192,169831,1,0,0:0:0:0:
256,192,169909,1,8,0:0:0:0:
256,192,169987,1,0,0:0:0:0:
256,192,170065,1,0,0:0:0:0:
256,192,170143,1,8,0:0:0:0:
256,192,170299,1,0,0:0:0:0:
256,192,170456,1,8,0:0:0:0:
256,192,170534,1,8,0:0:0:0:
256,192,170612,1,8,0:0:0:0:
256,192,170690,1,8,0:0:0:0:
256,192,170768,1,0,0:0:0:0:
256,192,170846,1,0,0:0:0:0:
256,192,170924,1,0,0:0:0:0:
256,192,171002,1,0,0:0:0:0:
256,192,171081,1,8,0:0:0:0:
256,192,171159,1,8,0:0:0:0:
256,192,171237,1,8,0:0:0:0:
256,192,171315,1,8,0:0:0:0:
256,192,171393,1,0,0:0:0:0:
256,192,171471,1,0,0:0:0:0:
256,192,171549,1,0,0:0:0:0:
256,192,171627,1,0,0:0:0:0:
256,192,171706,1,12,0:0:0:0:
256,192,171940,1,0,0:0:0:0:
256,192,172018,1,8,0:0:0:0:
256,192,172174,1,0,0:0:0:0:
256,192,172252,1,8,0:0:0:0:
256,192,172331,1,0,0:0:0:0:
256,192,172409,1,8,0:0:0:0:
256,192,172487,1,0,0:0:0:0:
256,192,172643,1,8,0:0:0:0:
256,192,172799,1,0,0:0:0:0:
256,192,172956,1,8,0:0:0:0:
256,192,173008,1,8,0:0:0:0:
256,192,173060,1,8,0:0:0:0:
256,192,173112,1,0,0:0:0:0:
256,192,173190,1,8,0:0:0:0:
256,192,173268,1,0,0:0:0:0:
256,192,173320,1,0,0:0:0:0:
256,192,173372,1,0,0:0:0:0:
256,192,173424,1,8,0:0:0:0:
256,192,173502,1,0,0:0:0:0:
256,192,173581,1,8,0:0:0:0:
256,192,173633,1,8,0:0:0:0:
256,192,173685,1,8,0:0:0:0:
256,192,173737,1,0,0:0:0:0:
256,192,173815,1,0,0:0:0:0:
256,192,173893,1,8,0:0:0:0:
256,192,174206,1,12,0:0:0:0:
256,192,174440,1,0,0:0:0:0:
256,192,174518,1,8,0:0:0:0:
256,192,174674,1,0,0:0:0:0:
256,192,174752,1,8,0:0:0:0:
256,192,174831,1,0,0:0:0:0:
256,192,174909,1,8,0:0:0:0:
256,192,174987,1,0,0:0:0:0:
256,192,175065,1,0,0:0:0:0:
256,192,175143,1,8,0:0:0:0:
256,192,175299,1,0,0:0:0:0:
256,192,175456,1,8,0:0:0:0:
256,192,175534,1,0,0:0:0:0:
256,192,175612,1,0,0:0:0:0:
256,192,175690,1,8,0:0:0:0:
256,192,175768,1,0,0:0:0:0:
256,192,175846,1,0,0:0:0:0:
256,192,175924,1,8,0:0:0:0:
256,192,176002,1,8,0:0:0:0:
256,192,176081,1,0,0:0:0:0:
256,192,176159,1,8,0:0:0:0:
256,192,176237,1,0,0:0:0:0:
256,192,176315,1,0,0:0:0:0:
256,192,176393,1,8,0:0:0:0:
256,192,176471,1,8,0:0:0:0:
256,192,176549,1,8,0:0:0:0:
256,192,176627,1,8,0:0:0:0:
256,192,176706,1,4,0:0:0:0:
256,192,176862,1,8,0:0:0:0:
256,192,177018,1,0,0:0:0:0:
256,192,177174,1,8,0:0:0:0:
256,192,177252,1,0,0:0:0:0:
256,192,177331,1,8,0:0:0:0:
256,192,177487,1,8,0:0:0:0:
256,192,177643,1,0,0:0:0:0:
256,192,177721,1,0,0:0:0:0:
256,192,177799,1,8,0:0:0:0:
256,192,177956,1,8,0:0:0:0:
256,192,178034,1,8,0:0:0:0:
256,192,178112,1,8,0:0:0:0:
256,192,178190,1,8,0:0:0:0:
256,192,178268,1,0,0:0:0:0:
256,192,178346,1,0,0:0:0:0:
256,192,178424,1,8,0:0:0:0:
256,192,178502,1,0,0:0:0:0:
256,192,178581,1,8,0:0:0:0:
256,192,178659,1,8,0:0:0:0:
256,192,178737,1,0,0:0:0:0:
256,192,178815,1,0,0:0:0:0:
256,192,178893,1,8,0:0:0:0:
256,192,178971,1,8,0:0:0:0:
256,192,179049,1,8,0:0:0:0:
256,192,179127,1,0,0:0:0:0:
256,192,179206,1,8,0:0:0:0:
256,192,179284,1,8,0:0:0:0:
256,192,179362,1,0,0:0:0:0:
256,192,179440,1,0,0:0:0:0:
256,192,179518,1,8,0:0:0:0:
256,192,179596,1,0,0:0:0:0:
256,192,179674,1,8,0:0:0:0:
256,192,179752,1,8,0:0:0:0:
256,192,179831,1,0,0:0:0:0:
256,192,179909,1,8,0:0:0:0:
256,192,179987,1,0,0:0:0:0:
256,192,180065,1,0,0:0:0:0:
256,192,180143,1,8,0:0:0:0:
256,192,180221,1,8,0:0:0:0:
256,192,180299,1,0,0:0:0:0:
256,192,180377,1,0,0:0:0:0:
256,192,180456,1,8,0:0:0:0:
256,192,180612,1,8,0:0:0:0:
256,192,180768,1,0,0:0:0:0:
256,192,180846,1,8,0:0:0:0:
256,192,180924,1,0,0:0:0:0:
256,192,181002,1,0,0:0:0:0:
256,192,181081,1,8,0:0:0:0:
256,192,181159,1,0,0:0:0:0:
256,192,181237,1,8,0:0:0:0:
256,192,181315,1,8,0:0:0:0:
256,192,181393,1,0,0:0:0:0:
256,192,181471,1,0,0:0:0:0:
256,192,181549,1,8,0:0:0:0:
256,192,181627,1,0,0:0:0:0:
256,192,181706,1,8,0:0:0:0:
256,192,181862,1,0,0:0:0:0:
256,192,181940,1,8,0:0:0:0:
256,192,182018,1,0,0:0:0:0:
256,192,182096,1,0,0:0:0:0:
256,192,182174,1,8,0:0:0:0:
256,192,182331,1,8,0:0:0:0:
256,192,182409,1,8,0:0:0:0:
256,192,182487,1,0,0:0:0:0:
256,192,182565,1,0,0:0:0:0:
256,192,182643,1,8,0:0:0:0:
256,192,182799,1,0,0:0:0:0:
256,192,182877,1,0,0:0:0:0:
256,192,182956,1,8,0:0:0:0:
256,192,183112,1,0,0:0:0:0:
256,192,183190,1,8,0:0:0:0:
256,192,183268,1,0,0:0:0:0:
256,192,183346,1,0,0:0:0:0:
256,192,183424,1,8,0:0:0:0:
256,192,183581,1,8,0:0:0:0:
256,192,183659,1,0,0:0:0:0:
256,192,183737,1,0,0:0:0:0:
256,192,183815,1,0,0:0:0:0:
256,192,183893,1,8,0:0:0:0:
256,192,184049,1,8,0:0:0:0:
256,192,184127,1,8,0:0:0:0:
256,192,184206,1,0,0:0:0:0:
256,192,184284,1,8,0:0:0:0:
256,192,184362,1,0,0:0:0:0:
256,192,184440,1,0,0:0:0:0:
256,192,184518,1,12,0:0:0:0:
256,192,184831,1,0,0:0:0:0:
256,192,184909,1,8,0:0:0:0:
256,192,184987,1,0,0:0:0:0:
256,192,185065,1,0,0:0:0:0:
256,192,185143,1,12,0:0:0:0:
256,192,185456,1,0,0:0:0:0:
256,192,185534,1,0,0:0:0:0:
256,192,185612,1,8,0:0:0:0:
256,192,185690,1,8,0:0:0:0:
256,192,185768,1,0,0:0:0:0:
256,192,185846,1,8,0:0:0:0:
256,192,185924,1,0,0:0:0:0:
256,192,186002,1,0,0:0:0:0:
256,192,186081,1,8,0:0:0:0:
256,192,186159,1,0,0:0:0:0:
256,192,186237,1,8,0:0:0:0:
256,192,186315,1,8,0:0:0:0:
256,192,186393,1,0,0:0:0:0:
256,192,186471,1,8,0:0:0:0:
256,192,186549,1,8,0:0:0:0:
256,192,186627,1,8,0:0:0:0:
256,192,186706,1,4,0:0:0:0:
256,192,186862,1,4,0:0:0:0:
256,192,187956,1,4,0:0:0:0:
256,192,188112,1,4,0:0:0:0:
256,192,188581,1,4,0:0:0:0:
256,192,188737,1,4,0:0:0:0:
256,192,189206,1,12,0:0:0:0:
256,192,189518,1,0,0:0:0:0:
256,192,189831,1,0,0:0:0:0:
256,192,190143,1,0,0:0:0:0:
256,192,190456,1,12,0:0:0:0:
256,192,190612,1,0,0:0:0:0:
256,192,190768,1,0,0:0:0:0:
256,192,190924,1,12,0:0:0:0:
256,192,191081,1,0,0:0:0:0:
256,192,191237,1,0,0:0:0:0:
256,192,191393,1,12,0:0:0:0:
256,192,191549,1,0,0:0:0:0:
256,192,191706,1,8,0:0:0:0:
256,192,191784,1,8,0:0:0:0:
256,192,191862,1,8,0:0:0:0:
256,192,191940,1,8,0:0:0:0:
256,192,192018,1,0,0:0:0:0:
256,192,192096,1,0,0:0:0:0:
256,192,192174,1,8,0:0:0:0:
256,192,192252,1,0,0:0:0:0:
256,192,192331,1,8,0:0:0:0:
256,192,192409,1,8,0:0:0:0:
256,192,192487,1,0,0:0:0:0:
256,192,192565,1,0,0:0:0:0:
256,192,192643,1,8,0:0:0:0:
256,192,192721,1,8,0:0:0:0:
256,192,192799,1,8,0:0:0:0:
256,192,192877,1,0,0:0:0:0:
256,192,192956,1,8,0:0:0:0:
256,192,193034,1,8,0:0:0:0:
256,192,193112,1,0,0:0:0:0:
256,192,193190,1,0,0:0:0:0:
256,192,193268,1,8,0:0:0:0:
256,192,193346,1,0,0:0:0:0:
256,192,193424,1,8,0:0:0:0:
256,192,193502,1,8,0:0:0:0:
256,192,193581,1,0,0:0:0:0:
256,192,193659,1,0,0:0:0:0:
256,192,193737,1,8,0:0:0:0:
256,192,193815,1,8,0:0:0:0:
256,192,193893,1,0,0:0:0:0:
256,192,193971,1,8,0:0:0:0:
256,192,194049,1,0,0:0:0:0:
256,192,194127,1,0,0:0:0:0:
256,192,194206,1,8,0:0:0:0:
256,192,194284,1,0,0:0:0:0:
256,192,194362,1,0,0:0:0:0:
256,192,194440,1,0,0:0:0:0:
256,192,194518,1,8,0:0:0:0:
256,192,194596,1,0,0:0:0:0:
256,192,194674,1,8,0:0:0:0:
256,192,194752,1,8,0:0:0:0:
256,192,194831,1,0,0:0:0:0:
256,192,194909,1,0,0:0:0:0:
256,192,194987,1,8,0:0:0:0:
256,192,195065,1,8,0:0:0:0:
256,192,195143,1,0,0:0:0:0:
256,192,195221,1,0,0:0:0:0:
256,192,195299,1,8,0:0:0:0:
256,192,195377,1,0,0:0:0:0:
256,192,195456,1,8,0:0:0:0:
256,192,195534,1,8,0:0:0:0:
256,192,195612,1,0,0:0:0:0:
256,192,195690,1,0,0:0:0:0:
256,192,195768,1,8,0:0:0:0:
256,192,195846,1,0,0:0:0:0:
256,192,195924,1,0,0:0:0:0:
256,192,196002,1,0,0:0:0:0:
256,192,196081,1,8,0:0:0:0:
256,192,196159,1,8,0:0:0:0:
256,192,196237,1,0,0:0:0:0:
256,192,196315,1,0,0:0:0:0:
256,192,196393,1,8,0:0:0:0:
256,192,196471,1,0,0:0:0:0:
256,192,196549,1,8,0:0:0:0:
256,192,196627,1,8,0:0:0:0:
256,192,196706,1,0,0:0:0:0:
256,192,196784,1,0,0:0:0:0:
256,192,196862,1,0,0:0:0:0:
256,192,196940,1,0,0:0:0:0:
256,192,197018,1,8,0:0:0:0:
256,192,197096,1,0,0:0:0:0:
256,192,197174,1,8,0:0:0:0:
256,192,197252,1,8,0:0:0:0:
256,192,197331,1,0,0:0:0:0:
256,192,197409,1,0,0:0:0:0:
256,192,197487,1,8,0:0:0:0:
256,192,197565,1,8,0:0:0:0:
256,192,197643,1,0,0:0:0:0:
256,192,197721,1,8,0:0:0:0:
256,192,197799,1,0,0:0:0:0:
256,192,197877,1,0,0:0:0:0:
256,192,197956,1,8,0:0:0:0:
256,192,198034,1,8,0:0:0:0:
256,192,198112,1,0,0:0:0:0:
256,192,198190,1,0,0:0:0:0:
256,192,198268,1,8,0:0:0:0:
256,192,198346,1,0,0:0:0:0:
256,192,198424,1,8,0:0:0:0:
256,192,198502,1,8,0:0:0:0:
256,192,198581,1,0,0:0:0:0:
256,192,198659,1,0,0:0:0:0:
256,192,198737,1,0,0:0:0:0:
256,192,198815,1,0,0:0:0:0:
256,192,198893,1,8,0:0:0:0:
256,192,198971,1,8,0:0:0:0:
256,192,199049,1,0,0:0:0:0:
256,192,199127,1,0,0:0:0:0:
256,192,199206,1,8,0:0:0:0:
256,192,199284,1,0,0:0:0:0:
256,192,199362,1,0,0:0:0:0:
256,192,199440,1,0,0:0:0:0:
256,192,199518,1,8,0:0:0:0:
256,192,199596,1,0,0:0:0:0:
256,192,199674,1,8,0:0:0:0:
256,192,199752,1,8,0:0:0:0:
256,192,199831,1,8,0:0:0:0:
256,192,199909,1,8,0:0:0:0:
256,192,199987,1,0,0:0:0:0:
256,192,200065,1,0,0:0:0:0:
256,192,200143,1,8,0:0:0:0:
256,192,200221,1,0,0:0:0:0:
256,192,200299,1,8,0:0:0:0:
256,192,200377,1,0,0:0:0:0:
256,192,200456,1,8,0:0:0:0:
256,192,200534,1,8,0:0:0:0:
256,192,200612,1,0,0:0:0:0:
256,192,200690,1,0,0:0:0:0:
256,192,200768,1,8,0:0:0:0:
256,192,200846,1,0,0:0:0:0:
256,192,200924,1,8,0:0:0:0:
256,192,201002,1,8,0:0:0:0:
256,192,201081,1,0,0:0:0:0:
256,192,201159,1,8,0:0:0:0:
256,192,201237,1,0,0:0:0:0:
256,192,201315,1,0,0:0:0:0:
256,192,201393,1,8,0:0:0:0:
256,192,201471,1,8,0:0:0:0:
256,192,201549,1,0,0:0:0:0:
256,192,201627,1,0,0:0:0:0:
256,192,201706,1,8,0:0:0:0:
256,192,201784,1,0,0:0:0:0:
256,192,201862,1,0,0:0:0:0:
256,192,201940,1,0,0:0:0:0:
256,192,202018,1,8,0:0:0:0:
256,192,202096,1,8,0:0:0:0:
256,192,202174,1,0,0:0:0:0:
256,192,202252,1,0,0:0:0:0:
256,192,202331,1,8,0:0:0:0:
256,192,202409,1,0,0:0:0:0:
256,192,202487,1,0,0:0:0:0:
256,192,202565,1,0,0:0:0:0:
256,192,202643,1,8,0:0:0:0:
256,192,202721,1,8,0:0:0:0:
256,192,202799,1,8,0:0:0:0:
256,192,202877,1,0,0:0:0:0:
256,192,202956,1,8,0:0:0:0:
256,192,203034,1,8,0:0:0:0:
256,192,203112,1,0,0:0:0:0:
256,192,203190,1,0,0:0:0:0:
256,192,203268,1,8,0:0:0:0:
256,192,203346,1,0,0:0:0:0:
256,192,203424,1,8,0:0:0:0:
256,192,203502,1,8,0:0:0:0:
256,192,203581,1,0,0:0:0:0:
256,192,203659,1,8,0:0:0:0:
256,192,203737,1,0,0:0:0:0:
256,192,203815,1,0,0:0:0:0:
256,192,203893,1,8,0:0:0:0:
256,192,203971,1,8,0:0:0:0:
256,192,204049,1,0,0:0:0:0:
256,192,204127,1,0,0:0:0:0:
256,192,204206,1,12,0:0:0:0:
256,192,204362,1,8,0:0:0:0:
256,192,204518,1,0,0:0:0:0:
256,192,204674,1,8,0:0:0:0:
256,192,204752,1,0,0:0:0:0:
256,192,204831,1,8,0:0:0:0:
256,192,204987,1,0,0:0:0:0:
256,192,205143,1,8,0:0:0:0:
256,192,205221,1,0,0:0:0:0:
256,192,205299,1,8,0:0:0:0:
256,192,205377,1,8,0:0:0:0:
256,192,205456,1,0,0:0:0:0:
256,192,205534,1,0,0:0:0:0:
256,192,205612,1,8,0:0:0:0:
256,192,205690,1,0,0:0:0:0:
256,192,205768,1,8,0:0:0:0:
256,192,205924,1,8,0:0:0:0:
256,192,206081,1,0,0:0:0:0:
256,192,206159,1,8,0:0:0:0:
256,192,206237,1,0,0:0:0:0:
256,192,206315,1,0,0:0:0:0:
256,192,206393,1,8,0:0:0:0:
256,192,206471,1,0,0:0:0:0:
256,192,206549,1,0,0:0:0:0:
256,192,206627,1,0,0:0:0:0:
256,192,206706,1,8,0:0:0:0:
256,192,206784,1,8,0:0:0:0:
256,192,206862,1,0,0:0:0:0:
256,192,206940,1,0,0:0:0:0:
256,192,207018,1,8,0:0:0:0:
256,192,207096,1,0,0:0:0:0:
256,192,207174,1,0,0:0:0:0:
256,192,207252,1,0,0:0:0:0:
256,192,207331,1,8,0:0:0:0:
256,192,207409,1,0,0:0:0:0:
256,192,207487,1,8,0:0:0:0:
256,192,207565,1,8,0:0:0:0:
256,192,207643,1,0,0:0:0:0:
256,192,207721,1,8,0:0:0:0:
256,192,207799,1,0,0:0:0:0:
256,192,207877,1,0,0:0:0:0:
256,192,207956,1,8,0:0:0:0:
256,192,208034,1,8,0:0:0:0:
256,192,208112,1,0,0:0:0:0:
256,192,208190,1,0,0:0:0:0:
256,192,208268,1,8,0:0:0:0:
256,192,208346,1,0,0:0:0:0:
256,192,208424,1,0,0:0:0:0:
256,192,208502,1,0,0:0:0:0:
256,192,208581,1,8,0:0:0:0:
256,192,208659,1,8,0:0:0:0:
256,192,208737,1,8,0:0:0:0:
256,192,208815,1,0,0:0:0:0:
256,192,208893,1,8,0:0:0:0:
256,192,208971,1,8,0:0:0:0:
256,192,209049,1,0,0:0:0:0:
256,192,209127,1,0,0:0:0:0:
256,192,209206,1,8,0:0:0:0:
256,192,209284,1,8,0:0:0:0:
256,192,209362,1,8,0:0:0:0:
256,192,209440,1,8,0:0:0:0:
256,192,209518,1,0,0:0:0:0:
256,192,209596,1,0,0:0:0:0:
256,192,209674,1,8,0:0:0:0:
256,192,209752,1,0,0:0:0:0:
256,192,209831,1,8,0:0:0:0:
256,192,209909,1,8,0:0:0:0:
256,192,209987,1,0,0:0:0:0:
256,192,210065,1,0,0:0:0:0:
256,192,210143,1,8,0:0:0:0:
256,192,210221,1,0,0:0:0:0:
256,192,210299,1,0,0:0:0:0:
256,192,210377,1,0,0:0:0:0:
256,192,210456,1,8,0:0:0:0:
256,192,210534,1,0,0:0:0:0:
256,192,210612,1,8,0:0:0:0:
256,192,210690,1,8,0:0:0:0:
256,192,210768,1,0,0:0:0:0:
256,192,210846,1,0,0:0:0:0:
256,192,210924,1,8,0:0:0:0:
256,192,211002,1,0,0:0:0:0:
256,192,211081,1,8,0:0:0:0:
256,192,211159,1,8,0:0:0:0:
256,192,211237,1,0,0:0:0:0:
256,192,211315,1,0,0:0:0:0:
256,192,211393,1,8,0:0:0:0:
256,192,211471,1,0,0:0:0:0:
256,192,211549,1,0,0:0:0:0:
256,192,211627,1,0,0:0:0:0:
256,192,211706,1,8,0:0:0:0:
256,192,211784,1,8,0:0:0:0:
256,192,211862,1,8,0:0:0:0:
256,192,211940,1,8,0:0:0:0:
256,192,212018,1,0,0:0:0:0:
256,192,212096,1,0,0:0:0:0:
256,192,212174,1,8,0:0:0:0:
256,192,212252,1,0,0:0:0:0:
256,192,212331,1,8,0:0:0:0:
256,192,212409,1,8,0:0:0:0:
256,192,212487,1,0,0:0:0:0:
256,192,212565,1,0,0:0:0:0:
256,192,212643,1,8,0:0:0:0:
256,192,212721,1,8,0:0:0:0:
256,192,212799,1,8,0:0:0:0:
256,192,212877,1,0,0:0:0:0:
256,192,212956,1,8,0:0:0:0:
256,192,213034,1,8,0:0:0:0:
256,192,213112,1,0,0:0:0:0:
256,192,213190,1,0,0:0:0:0:
256,192,213268,1,8,0:0:0:0:
256,192,213346,1,0,0:0:0:0:
256,192,213424,1,8,0:0:0:0:
256,192,213502,1,8,0:0:0:0:
256,192,213581,1,0,0:0:0:0:
256,192,213659,1,0,0:0:0:0:
256,192,213737,1,8,0:0:0:0:
256,192,213815,1,0,0:0:0:0:
256,192,213893,1,8,0:0:0:0:
256,192,213971,1,8,0:0:0:0:
256,192,214049,1,0,0:0:0:0:
256,192,214127,1,0,0:0:0:0:
256,192,214206,1,8,0:0:0:0:
256,192,214284,1,0,0:0:0:0:
256,192,214362,1,0,0:0:0:0:
256,192,214440,1,0,0:0:0:0:
256,192,214518,1,8,0:0:0:0:
256,192,214596,1,8,0:0:0:0:
256,192,214674,1,0,0:0:0:0:
256,192,214752,1,8,0:0:0:0:
256,192,214831,1,0,0:0:0:0:
256,192,214909,1,0,0:0:0:0:
256,192,214987,1,8,0:0:0:0:
256,192,215065,1,8,0:0:0:0:
256,192,215143,1,0,0:0:0:0:
256,192,215221,1,0,0:0:0:0:
256,192,215299,1,8,0:0:0:0:
256,192,215377,1,0,0:0:0:0:
256,192,215456,1,8,0:0:0:0:
256,192,215534,1,8,0:0:0:0:
256,192,215612,1,0,0:0:0:0:
256,192,215690,1,0,0:0:0:0:
256,192,215768,1,8,0:0:0:0:
256,192,215846,1,0,0:0:0:0:
256,192,215924,1,0,0:0:0:0:
256,192,216002,1,0,0:0:0:0:
256,192,216081,1,8,0:0:0:0:
256,192,216159,1,8,0:0:0:0:
256,192,216237,1,0,0:0:0:0:
256,192,216315,1,0,0:0:0:0:
256,192,216393,1,8,0:0:0:0:
256,192,216471,1,0,0:0:0:0:
256,192,216549,1,8,0:0:0:0:
256,192,216627,1,8,0:0:0:0:
256,192,216706,1,0,0:0:0:0:
256,192,216784,1,0,0:0:0:0:
256,192,216862,1,0,0:0:0:0:
256,192,216940,1,0,0:0:0:0:
256,192,217018,1,8,0:0:0:0:
256,192,217096,1,0,0:0:0:0:
256,192,217174,1,8,0:0:0:0:
256,192,217252,1,8,0:0:0:0:
256,192,217331,1,0,0:0:0:0:
256,192,217409,1,0,0:0:0:0:
256,192,217487,1,8,0:0:0:0:
256,192,217565,1,8,0:0:0:0:
256,192,217643,1,0,0:0:0:0:
256,192,217721,1,8,0:0:0:0:
256,192,217799,1,0,0:0:0:0:
256,192,217877,1,0,0:0:0:0:
256,192,217956,1,8,0:0:0:0:
256,192,218034,1,8,0:0:0:0:
256,192,218112,1,0,0:0:0:0:
256,192,218190,1,0,0:0:0:0:
256,192,218268,1,8,0:0:0:0:
256,192,218346,1,0,0:0:0:0:
256,192,218424,1,8,0:0:0:0:
256,192,218502,1,8,0:0:0:0:
256,192,218581,1,0,0:0:0:0:
256,192,218659,1,0,0:0:0:0:
256,192,218737,1,0,0:0:0:0:
256,192,218815,1,0,0:0:0:0:
256,192,218893,1,8,0:0:0:0:
256,192,218971,1,8,0:0:0:0:
256,192,219049,1,0,0:0:0:0:
256,192,219127,1,0,0:0:0:0:
256,192,219206,1,8,0:0:0:0:
256,192,219284,1,0,0:0:0:0:
256,192,219362,1,0,0:0:0:0:
256,192,219440,1,0,0:0:0:0:
256,192,219518,1,8,0:0:0:0:
256,192,219596,1,0,0:0:0:0:
256,192,219674,1,8,0:0:0:0:
256,192,219752,1,8,0:0:0:0:
256,192,219831,1,8,0:0:0:0:
256,192,219909,1,8,0:0:0:0:
256,192,219987,1,0,0:0:0:0:
256,192,220065,1,0,0:0:0:0:
256,192,220143,1,8,0:0:0:0:
256,192,220221,1,0,0:0:0:0:
256,192,220299,1,8,0:0:0:0:
256,192,220377,1,0,0:0:0:0:
256,192,220456,1,8,0:0:0:0:
256,192,220534,1,8,0:0:0:0:
256,192,220612,1,0,0:0:0:0:
256,192,220690,1,0,0:0:0:0:
256,192,220768,1,8,0:0:0:0:
256,192,220846,1,0,0:0:0:0:
256,192,220924,1,8,0:0:0:0:
256,192,221002,1,8,0:0:0:0:
256,192,221081,1,0,0:0:0:0:
256,192,221159,1,8,0:0:0:0:
256,192,221237,1,0,0:0:0:0:
256,192,221315,1,0,0:0:0:0:
256,192,221393,1,8,0:0:0:0:
256,192,221471,1,8,0:0:0:0:
256,192,221549,1,0,0:0:0:0:
256,192,221627,1,0,0:0:0:0:
256,192,221706,1,8,0:0:0:0:
256,192,221784,1,0,0:0:0:0:
256,192,221862,1,0,0:0:0:0:
256,192,221940,1,0,0:0:0:0:
256,192,222018,1,8,0:0:0:0:
256,192,222096,1,8,0:0:0:0:
256,192,222174,1,0,0:0:0:0:
256,192,222252,1,0,0:0:0:0:
256,192,222331,1,8,0:0:0:0:
256,192,222409,1,0,0:0:0:0:
256,192,222487,1,0,0:0:0:0:
256,192,222565,1,0,0:0:0:0:
256,192,222643,1,8,0:0:0:0:
256,192,222721,1,8,0:0:0:0:
256,192,222799,1,8,0:0:0:0:
256,192,222877,1,0,0:0:0:0:
256,192,222956,1,8,0:0:0:0:
256,192,223034,1,8,0:0:0:0:
256,192,223112,1,0,0:0:0:0:
256,192,223190,1,0,0:0:0:0:
256,192,223268,1,8,0:0:0:0:
256,192,223346,1,0,0:0:0:0:
256,192,223424,1,8,0:0:0:0:
256,192,223502,1,8,0:0:0:0:
256,192,223581,1,0,0:0:0:0:
256,192,223659,1,8,0:0:0:0:
256,192,223737,1,0,0:0:0:0:
256,192,223815,1,0,0:0:0:0:
256,192,223893,1,8,0:0:0:0:
256,192,223971,1,8,0:0:0:0:
256,192,224049,1,0,0:0:0:0:
256,192,224127,1,0,0:0:0:0:
256,192,224206,1,12,0:0:0:0:
256,192,224362,1,8,0:0:0:0:
256,192,224518,1,0,0:0:0:0:
256,192,224674,1,8,0:0:0:0:
256,192,224752,1,0,0:0:0:0:
256,192,224831,1,8,0:0:0:0:
256,192,224987,1,8,0:0:0:0:
256,192,225143,1,0,0:0:0:0:
256,192,225221,1,0,0:0:0:0:
256,192,225299,1,8,0:0:0:0:
256,192,225377,1,8,0:0:0:0:
256,192,225456,1,0,0:0:0:0:
256,192,225534,1,0,0:0:0:0:
256,192,225612,1,8,0:0:0:0:
256,192,225690,1,0,0:0:0:0:
256,192,225768,1,8,0:0:0:0:
256,192,225924,1,8,0:0:0:0:
256,192,226081,1,0,0:0:0:0:
256,192,226159,1,8,0:0:0:0:
256,192,226237,1,0,0:0:0:0:
256,192,226315,1,0,0:0:0:0:
256,192,226393,1,8,0:0:0:0:
256,192,226471,1,0,0:0:0:0:
256,192,226549,1,0,0:0:0:0:
256,192,226627,1,0,0:0:0:0:
256,192,226706,1,12,0:0:0:0:
256,192,226862,1,8,0:0:0:0:
256,192,226940,1,8,0:0:0:0:
256,192,227018,1,0,0:0:0:0:
256,192,227174,1,8,0:0:0:0:
256,192,227331,1,8,0:0:0:0:
256,192,227409,1,8,0:0:0:0:
256,192,227487,1,0,0:0:0:0:
256,192,227565,1,0,0:0:0:0:
256,192,227643,1,8,0:0:0:0:
256,192,227721,1,0,0:0:0:0:
256,192,227799,1,0,0:0:0:0:
256,192,227877,1,0,0:0:0:0:
256,192,227956,1,8,0:0:0:0:
256,192,228112,1,8,0:0:0:0:
256,192,228190,1,8,0:0:0:0:
256,192,228268,1,0,0:0:0:0:
256,192,228424,1,8,0:0:0:0:
256,192,228581,1,8,0:0:0:0:
256,192,228659,1,0,0:0:0:0:
256,192,228737,1,8,0:0:0:0:
256,192,228815,1,8,0:0:0:0:
256,192,228893,1,0,0:0:0:0:
256,192,228971,1,0,0:0:0:0:
256,192,229049,1,0,0:0:0:0:
256,192,229127,1,0,0:0:0:0:
256,192,229206,1,12,0:0:0:0:
256,192,229362,1,0,0:0:0:0:
256,192,229518,1,8,0:0:0:0:
256,192,229674,1,0,0:0:0:0:
256,192,229752,1,0,0:0:0:0:
256,192,229831,1,8,0:0:0:0:
256,192,229987,1,0,0:0:0:0:
256,192,230143,1,8,0:0:0:0:
256,192,230221,1,8,0:0:0:0:
256,192,230299,1,0,0:0:0:0:
256,192,230377,1,0,0:0:0:0:
256,192,230456,1,8,0:0:0:0:
256,192,230612,1,0,0:0:0:0:
256,192,230768,1,8,0:0:0:0:
256,192,230846,1,0,0:0:0:0:
256,192,230924,1,8,0:0:0:0:
256,192,231002,1,8,0:0:0:0:
256,192,231081,1,0,0:0:0:0:
256,192,231237,1,0,0:0:0:0:
256,192,231393,1,8,0:0:0:0:
256,192,231549,1,0,0:0:0:0:
256,192,231627,1,0,0:0:0:0:
256,192,231706,1,8,0:0:0:0:
256,192,231862,1,0,0:0:0:0:
256,192,232018,1,8,0:0:0:0:
256,192,232096,1,8,0:0:0:0:
256,192,232174,1,0,0:0:0:0:
256,192,232252,1,0,0:0:0:0:
256,192,232331,1,8,0:0:0:0:
256,192,232487,1,0,0:0:0:0:
256,192,232565,1,0,0:0:0:0:
256,192,232643,1,8,0:0:0:0:
256,192,232799,1,0,0:0:0:0:
256,192,232956,1,8,0:0:0:0:
256,192,233034,1,8,0:0:0:0:
256,192,233112,1,0,0:0:0:0:
256,192,233190,1,0,0:0:0:0:
256,192,233268,1,8,0:0:0:0:
256,192,233346,1,0,0:0:0:0:
256,192,233424,1,0,0:0:0:0:
256,192,233502,1,0,0:0:0:0:
256,192,233581,1,8,0:0:0:0:
256,192,233737,1,0,0:0:0:0:
256,192,233893,1,8,0:0:0:0:
256,192,234049,1,0,0:0:0:0:
256,192,234127,1,0,0:0:0:0:
256,192,234206,1,8,0:0:0:0:
256,192,234284,1,0,0:0:0:0:
256,192,234362,1,8,0:0:0:0:
256,192,234440,1,0,0:0:0:0:
256,192,234518,1,8,0:0:0:0:
256,192,234674,1,0,0:0:0:0:
256,192,234831,1,8,0:0:0:0:
256,192,234909,1,0,0:0:0:0:
256,192,234987,1,8,0:0:0:0:
256,192,235065,1,0,0:0:0:0:
256,192,235143,1,8,0:0:0:0:
256,192,235299,1,0,0:0:0:0:
256,192,235456,1,8,0:0:0:0:
256,192,235534,1,8,0:0:0:0:
256,192,235612,1,0,0:0:0:0:
256,192,235690,1,0,0:0:0:0:
256,192,235768,1,8,0:0:0:0:
256,192,235846,1,0,0:0:0:0:
256,192,235924,1,8,0:0:0:0:
256,192,236002,1,8,0:0:0:0:
256,192,236081,1,0,0:0:0:0:
256,192,236159,1,8,0:0:0:0:
256,192,236237,1,0,0:0:0:0:
256,192,236315,1,0,0:0:0:0:
256,192,236393,1,8,0:0:0:0:
256,192,236549,1,0,0:0:0:0:
256,192,236627,1,0,0:0:0:0:
256,192,236706,1,8,0:0:0:0:
256,192,236862,1,0,0:0:0:0:
256,192,237018,1,8,0:0:0:0:
256,192,237174,1,8,0:0:0:0:
256,192,237252,1,0,0:0:0:0:
256,192,237331,1,8,0:0:0:0:
256,192,237487,1,0,0:0:0:0:
256,192,237565,1,0,0:0:0:0:
256,192,237643,1,8,0:0:0:0:
256,192,237721,1,0,0:0:0:0:
256,192,237799,1,0,0:0:0:0:
256,192,237877,1,0,0:0:0:0:
256,192,237956,1,8,0:0:0:0:
256,192,238112,1,0,0:0:0:0:
256,192,238190,1,0,0:0:0:0:
256,192,238268,1,8,0:0:0:0:
256,192,238424,1,0,0:0:0:0:
256,192,238581,1,8,0:0:0:0:
256,192,238659,1,8,0:0:0:0:
256,192,238737,1,8,0:0:0:0:
256,192,238815,1,8,0:0:0:0:
256,192,238893,1,0,0:0:0:0:
256,192,238971,1,0,0:0:0:0:
256,192,239049,1,0,0:0:0:0:
256,192,239127,1,0,0:0:0:0:
256,192,239206,1,8,0:0:0:0:
256,192,239284,1,8,0:0:0:0:
256,192,239362,1,0,0:0:0:0:
256,192,239440,1,0,0:0:0:0:
256,192,239518,1,8,0:0:0:0:
256,192,239596,1,0,0:0:0:0:
256,192,239674,1,0,0:0:0:0:
256,192,239752,1,0,0:0:0:0:
256,192,239831,1,8,0:0:0:0:
256,192,239909,1,0,0:0:0:0:
256,192,239987,1,8,0:0:0:0:
256,192,240065,1,8,0:0:0:0:
256,192,240143,1,0,0:0:0:0:
256,192,240221,1,8,0:0:0:0:
256,192,240299,1,0,0:0:0:0:
256,192,240377,1,0,0:0:0:0:
256,192,240456,1,8,0:0:0:0:
256,192,240534,1,8,0:0:0:0:
256,192,240612,1,0,0:0:0:0:
256,192,240690,1,0,0:0:0:0:
256,192,240768,1,8,0:0:0:0:
256,192,240846,1,0,0:0:0:0:
256,192,240924,1,8,0:0:0:0:
256,192,241002,1,8,0:0:0:0:
256,192,241081,1,0,0:0:0:0:
256,192,241159,1,0,0:0:0:0:
256,192,241237,1,0,0:0:0:0:
256,192,241315,1,0,0:0:0:0:
256,192,241393,1,8,0:0:0:0:
256,192,241471,1,8,0:0:0:0:
256,192,241549,1,0,0:0:0:0:
256,192,241627,1,0,0:0:0:0:
256,192,241706,1,8,0:0:0:0:
256,192,241784,1,0,0:0:0:0:
256,192,241862,1,0,0:0:0:0:
256,192,241940,1,0,0:0:0:0:
256,192,242018,1,8,0:0:0:0:
256,192,242096,1,8,0:0:0:0:
256,192,242174,1,0,0:0:0:0:
256,192,242252,1,0,0:0:0:0:
256,192,242331,1,8,0:0:0:0:
256,192,242409,1,0,0:0:0:0:
256,192,242487,1,8,0:0:0:0:
256,192,242565,1,8,0:0:0:0:
256,192,242643,1,0,0:0:0:0:
256,192,242721,1,8,0:0:0:0:
256,192,242799,1,0,0:0:0:0:
256,192,242877,1,0,0:0:0:0:
256,192,242956,1,8,0:0:0:0:
256,192,243034,1,0,0:0:0:0:
256,192,243112,1,0,0:0:0:0:
256,192,243190,1,8,0:0:0:0:
256,192,243268,1,0,0:0:0:0:
256,192,243346,1,0,0:0:0:0:
256,192,243424,1,8,0:0:0:0:
256,192,243502,1,0,0:0:0:0:
256,192,243581,1,8,0:0:0:0:
256,192,243659,1,8,0:0:0:0:
256,192,243737,1,0,0:0:0:0:
256,192,243815,1,0,0:0:0:0:
256,192,243893,1,8,0:0:0:0:
256,192,243971,1,0,0:0:0:0:
256,192,244049,1,0,0:0:0:0:
256,192,244127,1,0,0:0:0:0:
256,192,244206,1,8,0:0:0:0:
256,192,244284,1,0,0:0:0:0:
256,192,244362,1,8,0:0:0:0:
256,192,244440,1,8,0:0:0:0:
256,192,244518,1,0,0:0:0:0:
256,192,244596,1,8,0:0:0:0:
256,192,244674,1,0,0:0:0:0:
256,192,244752,1,0,0:0:0:0:
256,192,244831,1,8,0:0:0:0:
256,192,244909,1,8,0:0:0:0:
256,192,244987,1,8,0:0:0:0:
256,192,245065,1,0,0:0:0:0:
256,192,245143,1,8,0:0:0:0:
256,192,245221,1,8,0:0:0:0:
256,192,245299,1,0,0:0:0:0:
256,192,245377,1,0,0:0:0:0:
256,192,245456,1,8,0:0:0:0:
256,192,245534,1,0,0:0:0:0:
256,192,245612,1,8,0:0:0:0:
256,192,245690,1,8,0:0:0:0:
256,192,245768,1,0,0:0:0:0:
256,192,245846,1,8,0:0:0:0:
256,192,245924,1,0,0:0:0:0:
256,192,246002,1,0,0:0:0:0:
256,192,246081,1,8,0:0:0:0:
256,192,246159,1,8,0:0:0:0:
256,192,246237,1,8,0:0:0:0:
256,192,246315,1,0,0:0:0:0:
256,192,246393,1,8,0:0:0:0:
256,192,246471,1,8,0:0:0:0:
256,192,246549,1,0,0:0:0:0:
256,192,246627,1,0,0:0:0:0:
256,192,246706,1,8,0:0:0:0:
256,192,246784,1,0,0:0:0:0:
256,192,246862,1,0,0:0:0:0:
256,192,246940,1,0,0:0:0:0:
256,192,247018,1,8,0:0:0:0:
256,192,247096,1,8,0:0:0:0:
256,192,247174,1,0,0:0:0:0:
256,192,247252,1,0,0:0:0:0:
256,192,247331,1,8,0:0:0:0:
256,192,247409,1,8,0:0:0:0:
256,192,247487,1,8,0:0:0:0:
256,192,247565,1,8,0:0:0:0:
256,192,247643,1,0,0:0:0:0:
256,192,247721,1,8,0:0:0:0:
256,192,247799,1,0,0:0:0:0:
256,192,247877,1,0,0:0:0:0:
256,192,247956,1,8,0:0:0:0:
256,192,248034,1,0,0:0:0:0:
256,192,248112,1,0,0:0:0:0:
256,192,248190,1,0,0:0:0:0:
256,192,248268,1,8,0:0:0:0:
256,192,248346,1,8,0:0:0:0:
256,192,248424,1,0,0:0:0:0:
256,192,248502,1,0,0:0:0:0:
256,192,248581,1,8,0:0:0:0:
256,192,248659,1,8,0:0:0:0:
256,192,248737,1,8,0:0:0:0:
256,192,248815,1,8,0:0:0:0:
256,192,248893,1,0,0:0:0:0:
256,192,248971,1,8,0:0:0:0:
256,192,249049,1,0,0:0:0:0:
256,192,249127,1,0,0:0:0:0:
256,192,249206,1,12,0:0:0:0:
256,192,249362,12,0,257018,0:0:0:0:
