osu file format v14

[General]
AudioFilename: audio.mp3
AudioLeadIn: 0
PreviewTime: 79127
Countdown: 0
SampleSet: Normal
StackLeniency: 0.7
Mode: 1
LetterboxInBreaks: 0
WidescreenStoryboard: 1

[Editor]
Bookmarks: 251,11615,27944,29194,34194,36694,39194,49194,59194,69194,77944,79194,91225,96694,99194,106694,109194,111694,114194,119194,129194,137944,139194,156694,161694,166694,176694,181694,186694,189194,191694,204194,206694,224194,226694,229194,239194,249194,257006
DistanceSpacing: 0.4
BeatDivisor: 4
GridSize: 32
TimelineZoom: 1.400001

[Metadata]
Title:Legend of Millennium (Glory Ver)
TitleUnicode:Legend of Millennium (Glory Ver)
Artist:Hazuki
ArtistUnicode:葉月
Creator:SenSenko
Version:2199's Oni
Source:女装千年王国
Tags:metal japanese joso millenium josou sennen oukoku eroge visual novel kyex gaston_2199 video game rock jrock j-rock no-strike の~すとらいく aogiri penta あおぎり ぺんた
BeatmapID:3644319
BeatmapSetID:1757100

[Difficulty]
HPDrainRate:5
CircleSize:3
OverallDifficulty:6
ApproachRate:10
SliderMultiplier:1.4
SliderTickRate:1

[Events]
//Background and Video events
0,0,"trapito.jpg",0,40
//Break Periods
//Storyboard Layer 0 (Background)
//Storyboard Layer 1 (Fail)
//Storyboard Layer 2 (Pass)
//Storyboard Layer 3 (Foreground)
//Storyboard Layer 4 (Overlay)
//Storyboard Sound Samples

[TimingPoints]
475,454.545454545455,4,1,0,70,1,8
475,-99.9999999999999,4,1,0,70,0,0
702,461.538461538462,4,1,0,70,1,0
702,-98.4848484848484,4,1,0,70,0,0
1625,441.176470588235,4,1,0,70,1,8
1625,-103.030303030303,4,1,0,70,0,0
2066,458.015267175573,4,1,0,70,1,8
2066,-99.2424242424242,4,1,0,70,0,0
2753,454.545454545455,4,1,0,70,1,8
2753,-99.9999999999999,4,1,0,70,0,0
3434,461.538461538462,4,1,0,70,1,8
3434,-98.4848484848484,4,1,0,70,0,0
4357,454.545454545455,4,1,0,70,1,0
4357,-99.9999999999999,4,1,0,70,0,0
5266,441.176470588235,4,1,0,70,1,8
5266,-103.030303030303,4,1,0,70,0,0
6368,468.75,4,1,0,70,1,8
6368,-96.969696969697,4,1,0,70,0,0
7071,458.015267175573,4,1,0,70,1,8
7071,-99.2424242424242,4,1,0,70,0,0
7987,461.538461538462,4,1,0,70,1,0
7987,-98.4848484848484,4,1,0,70,0,0
8214,-97.2500970456816,4,1,0,70,0,0
8445,-96.0407531386212,4,1,0,70,0,0
8676,-94.8611171533487,4,1,0,70,0,0
8910,447.761194029851,4,1,0,70,1,8
8910,-96.5934956243811,4,1,0,70,0,0
9130,-95.4751554798281,4,1,0,70,0,0
9354,-94.3775709364623,4,1,0,70,0,0
9578,-93.3049352933669,4,1,0,70,0,0
9802,-92.2564074498053,4,1,0,70,0,0
9914,-91.7409313892227,4,1,0,70,0,0
10026,-91.2311836928595,4,1,0,70,0,0
10250,-90.2284956428521,4,1,0,70,0,0
10362,-89.7353715755121,4,1,0,70,0,0
10474,-89.2476083327818,4,1,0,70,0,0
10701,454.545454545455,4,1,0,70,1,8
10701,-86.9700897786739,4,1,0,70,0,0
10811,-86.5008117658293,4,1,0,70,0,0
10925,-86.0324848024315,4,1,0,70,0,0
11038,-85.5732438943737,4,1,0,70,0,0
11152,-85.1148804209932,4,1,0,70,0,0
11266,-84.6614011309996,4,1,0,70,0,0
11379,-84.2166434216643,4,1,0,70,0,0
11610,434.782608695652,4,1,0,70,1,0
11610,-87.1212121212122,4,1,0,70,0,0
11827,454.545454545455,4,1,0,70,1,8
11827,-99.9999999999999,4,1,0,70,0,0
12508,441.176470588235,4,1,0,70,1,8
12508,-103.030303030303,4,1,0,70,0,0
12949,472.44094488189,4,1,0,70,1,8
12949,-96.2121212121212,4,1,0,70,0,0
13185,454.545454545455,4,1,0,70,1,8
13185,-99.9999999999999,4,1,0,70,0,0
13866,444.444444444444,4,1,0,70,1,8
13866,-102.272727272727,4,1,0,70,0,0
14310,458.015267175573,4,1,0,70,1,8
14310,-99.2424242424242,4,1,0,70,0,0
15226,458.015267175573,4,1,0,70,1,0
15226,-99.2424242424242,4,1,0,70,0,0
16142,447.761194029851,4,1,0,70,1,8
16142,-101.515151515151,4,1,0,70,0,0
16589,461.538461538462,4,1,0,70,1,8
16589,-98.4848484848484,4,1,0,70,0,0
17281,441.176470588235,4,1,0,70,1,8
17281,-103.030303030303,4,1,0,70,0,0
17501,468.75,4,1,0,70,1,8
17501,-96.969696969697,4,1,0,70,0,0
17969,444.444444444444,4,1,0,70,1,8
17969,-102.272727272727,4,1,0,70,0,0
18413,454.545454545455,4,1,0,70,1,8
18413,-99.9999999999999,4,1,0,70,0,0
18867,468.75,4,1,0,70,1,0
18867,-96.969696969697,4,1,0,70,0,0
19101,454.545454545455,4,1,0,70,1,8
19101,-98.5496467088136,4,1,0,70,0,0
19325,-97.1823238188374,4,1,0,70,0,0
19552,-95.8524234386302,4,1,0,70,0,0
19782,447.761194029851,4,1,0,70,1,8
19782,-95.9911334576811,4,1,0,70,0,0
20002,-94.7347640034575,4,1,0,70,0,0
20229,454.545454545455,4,1,0,70,1,8
20229,-92.109836635384,4,1,0,70,0,0
20453,-90.9142889816455,4,1,0,70,0,0
20680,-89.7493790923458,4,1,0,70,0,0
20907,-88.6139441564955,4,1,0,70,0,0
21135,-87.502063727918,4,1,0,70,0,0
21362,-86.422437221437,4,1,0,70,0,0
21589,-85.3691275167784,4,1,0,70,0,0
21816,-84.3411839592615,4,1,0,70,0,0
22047,600,4,1,0,70,1,8
22047,-63.1313131313131,4,1,0,70,0,0
22514,-100,4,1,0,70,0,0
24447,600,4,1,0,70,1,8
24457,437.4772147284,4,1,0,70,1,0
27956,312.5,4,1,0,80,1,0
27956,-90.9090909090909,4,1,0,80,0,0
28019,-91.9523319111373,4,1,0,80,0,0
28097,-93.0197946122935,4,1,0,80,0,0
28178,-87.409895723983,4,1,0,80,0,0
28253,-95.2308395550815,4,1,0,80,0,0
28331,-96.3762528912876,4,1,0,80,0,0
28409,-97.5495551740284,4,1,0,80,0,0
28490,-93.537032876507,4,1,0,80,0,0
28566,-100,4,1,0,80,0,0
28644,-101.263771872975,4,1,0,80,0,0
28722,-102.559894978668,4,1,0,80,0,0
28800,-103.889627659574,4,1,0,80,0,0
28878,-105.254294375211,4,1,0,80,0,0
28959,-104.553825548301,4,1,0,80,0,0
29034,-108.094085091664,4,1,0,80,0,0
29115,-108.816867050009,4,1,0,80,0,0
29191,-111.111111111111,4,1,0,80,0,0
34194,-105.263157894737,4,1,0,80,0,0
34819,-100,4,1,0,80,0,0
35444,-90.909090909091,4,1,0,80,0,0
35756,-86.95652173913,4,1,0,80,0,0
36069,-83.333333333333,4,1,0,80,0,0
36381,-105.263157894737,4,1,0,80,0,0
36694,-111.111111111111,4,1,0,85,0,0
36850,-109.805693628559,4,1,0,85,0,0
36928,-109.164420485175,4,1,0,85,0,0
37006,-108.530594015185,4,1,0,85,0,0
37162,-107.284768211921,4,1,0,85,0,0
37240,-106.67251975417,4,1,0,85,0,0
37319,-106.059503891758,4,1,0,85,0,0
37475,-104.869452636122,4,1,0,85,0,0
37553,-104.284385952364,4,1,0,85,0,0
37631,-103.705811224127,4,1,0,85,0,0
37787,-102.567710165318,4,1,0,85,0,0
37944,-101.447258558308,4,1,0,85,0,0
38022,-100.899653979239,4,1,0,85,0,0
38100,-100.357929515419,4,1,0,85,0,0
38178,-99.821990962618,4,1,0,85,0,0
38256,-99.291746118224,4,1,0,85,0,0
38334,-98.767104728357,4,1,0,85,0,0
38412,-98.247978436658,4,1,0,85,0,0
38490,-97.734280734683,4,1,0,85,0,0
38569,-97.219443888778,4,1,0,85,0,0
38647,-96.716417910448,4,1,0,85,0,0
38725,-96.218570580083,4,1,0,85,0,0
38803,-95.725822336025,4,1,0,85,0,0
38881,-95.238095238095,4,1,0,85,0,0
39206,-90.909090909091,4,1,0,95,0,1
49206,-100,4,1,0,90,0,0
69194,-90.9090909090909,4,1,0,90,0,0
70912,-100,4,1,0,90,0,0
71694,-90.9090909090909,4,1,0,90,0,0
75918,-100,4,1,0,90,0,0
76706,-90.9090909090909,4,1,0,90,0,0
77944,-83.3333333333333,4,1,0,90,0,0
79206,-90.909090909091,4,1,0,95,0,1
96706,-90.909090909091,4,1,0,95,0,0
97003,-91.9523319111373,4,1,0,95,0,0
97159,-92.4829831311039,4,1,0,95,0,0
97316,-93.0232558139535,4,1,0,95,0,0
97472,-93.5663759871253,4,1,0,95,0,0
97628,-94.1158754658736,4,1,0,95,0,0
97706,-94.3930526713234,4,1,0,95,0,0
97784,-94.6718673079108,4,1,0,95,0,0
97941,-95.2380952380952,4,1,0,95,0,0
98097,-95.8074653176975,4,1,0,95,0,0
98175,-96.0947109471095,4,1,0,95,0,0
98253,-96.3836841699437,4,1,0,95,0,0
98409,-96.9668761151191,4,1,0,95,0,0
98566,-97.5609756097561,4,1,0,95,0,0
98644,-97.8588483970721,4,1,0,95,0,0
98722,-98.1585456829872,4,1,0,95,0,0
98800,-98.4600842818321,4,1,0,95,0,0
98878,-98.7634812151859,4,1,0,95,0,0
98956,-99.0687537150783,4,1,0,95,0,0
99034,-99.3759192272529,4,1,0,95,0,0
99191,-100,4,1,0,90,0,0
106694,-90.909090909091,4,1,0,90,0,0
108097,-91.9523319111373,4,1,0,90,0,0
108175,-92.4829831311039,4,1,0,90,0,0
108253,-93.0197946122935,4,1,0,90,0,0
108331,-93.562874251497,4,1,0,90,0,0
108409,-94.1123324800482,4,1,0,90,0,0
108566,-95.2380952380952,4,1,0,90,0,0
108722,-96.3836841699437,4,1,0,90,0,0
108800,-96.9668761151191,4,1,0,90,0,0
108878,-97.5571685007414,4,1,0,90,0,0
109034,-98.7595796792289,4,1,0,90,0,0
109191,-100,4,1,0,90,0,0
110444,-111.111111111111,4,1,0,80,0,0
111694,-100,4,1,0,90,0,0
112475,-111.111111111111,4,1,0,90,0,0
113022,-110.34604519774,4,1,0,90,0,0
113100,-109.591443100123,4,1,0,90,0,0
113178,-108.847091605712,4,1,0,90,0,0
113256,-108.112783255492,4,1,0,90,0,0
113334,-107.388316151203,4,1,0,90,0,0
113412,-106.673493770268,4,1,0,90,0,0
113490,-105.968124788064,4,1,0,90,0,0
113569,-105.263157894737,4,1,0,90,0,0
113647,-104.576257006609,4,1,0,90,0,0
113725,-103.898262821046,4,1,0,90,0,0
113803,-103.229003220745,4,1,0,90,0,0
113881,-102.56831049479,4,1,0,90,0,0
113959,-101.916021198532,4,1,0,90,0,0
114037,-101.271976018796,4,1,0,90,0,0
114115,-100.636019644151,4,1,0,90,0,0
114194,-100,4,1,0,90,0,0
128100,-98.767383059418,4,1,0,90,0,0
128178,-98.162399874352,4,1,0,90,0,0
128256,-97.564783015923,4,1,0,90,0,0
128334,-96.974398758728,4,1,0,90,0,0
128412,-96.391116594695,4,1,0,90,0,0
128490,-95.8148091369,4,1,0,90,0,0
128569,-95.238095238095,4,1,0,90,0,0
128647,-94.675452548663,4,1,0,90,0,0
128725,-94.11941871847,4,1,0,90,0,0
128803,-93.569877984879,4,1,0,90,0,0
128881,-93.026717273201,4,1,0,90,0,0
128959,-92.489826119127,4,1,0,90,0,0
129037,-91.959096593835,4,1,0,90,0,0
129115,-91.434423231658,4,1,0,90,0,0
129194,-90.909090909091,4,1,0,95,0,0
137944,-83.3333333333333,4,1,0,95,0,0
139206,-90.909090909091,4,1,0,95,0,1
156706,-90.909090909091,4,1,0,95,0,0
156850,-90.909090909091,4,1,0,70,0,0
157944,-111.111111111111,4,1,0,70,0,0
164191,-100,4,1,0,80,0,0
164816,-97.5609756097561,4,1,0,80,0,0
165441,-95.2380952380952,4,1,0,80,0,0
166066,-93.0232558139535,4,1,0,80,0,0
166691,-90.9090909090909,4,1,0,90,0,0
167006,-100,4,1,0,90,0,0
167941,-102.043481099432,4,1,0,90,0,0
168019,-102.565785156506,4,1,0,90,0,0
168097,-103.093463491854,4,1,0,90,0,0
168253,-104.165278240586,4,1,0,90,0,0
168331,-104.709586655055,4,1,0,90,0,0
168409,-105.259613441983,4,1,0,90,0,0
168566,-106.384426898993,4,1,0,90,0,0
168644,-106.952237580402,4,1,0,90,0,0
168722,-107.526141992295,4,1,0,90,0,0
168800,-108.106238760548,4,1,0,90,0,0
168878,-108.692628650904,4,1,0,90,0,0
169034,-109.884701912261,4,1,0,90,0,0
169187,-90.9090909090909,4,1,0,90,0,0
169502,-100,4,1,0,90,0,0
170441,-102.043481099432,4,1,0,90,0,0
170519,-102.565785156506,4,1,0,90,0,0
170597,-103.093463491854,4,1,0,90,0,0
170753,-104.165278240586,4,1,0,90,0,0
170831,-104.709586655055,4,1,0,90,0,0
170909,-105.259613441983,4,1,0,90,0,0
171066,-106.384426898993,4,1,0,90,0,0
171144,-106.952237580402,4,1,0,90,0,0
171222,-107.526141992295,4,1,0,90,0,0
171300,-108.106238760548,4,1,0,90,0,0
171378,-108.692628650904,4,1,0,90,0,0
171534,-109.884701912261,4,1,0,90,0,0
171682,-90.9090909090909,4,1,0,90,0,0
171997,-100,4,1,0,90,0,0
172941,-102.043481099432,4,1,0,90,0,0
173019,-102.565785156506,4,1,0,90,0,0
173097,-103.093463491854,4,1,0,90,0,0
173253,-104.165278240586,4,1,0,90,0,0
173331,-104.709586655055,4,1,0,90,0,0
173409,-105.259613441983,4,1,0,90,0,0
173566,-106.384426898993,4,1,0,90,0,0
173644,-106.952237580402,4,1,0,90,0,0
173722,-107.526141992295,4,1,0,90,0,0
173800,-108.106238760548,4,1,0,90,0,0
173878,-108.692628650904,4,1,0,90,0,0
174178,-90.9090909090909,4,1,0,90,0,0
174493,-100,4,1,0,90,0,0
175441,-102.043481099432,4,1,0,90,0,0
175597,-103.093463491854,4,1,0,90,0,0
175675,-103.626599482861,4,1,0,90,0,0
175753,-104.165278240586,4,1,0,90,0,0
175909,-105.259613441983,4,1,0,90,0,0
176066,-106.384426898993,4,1,0,90,0,0
176144,-106.952237580402,4,1,0,90,0,0
176222,-107.526141992295,4,1,0,90,0,0
176300,-108.106238760548,4,1,0,90,0,0
176378,-108.692628650904,4,1,0,90,0,0
176534,-109.884701912261,4,1,0,90,0,0
176691,-100,4,1,0,95,0,0
184506,-90.9090909090909,4,1,0,95,0,0
184819,-100,4,1,0,95,0,0
185131,-95.238095238095,4,1,0,95,0,0
185441,-100,4,1,0,95,0,0
185597,-101.263771872975,4,1,0,95,0,0
185675,-101.907712375673,4,1,0,95,0,0
185753,-102.559894978668,4,1,0,95,0,0
185909,-103.889627659574,4,1,0,95,0,0
186066,-105.263157894737,4,1,0,95,0,0
186222,-106.664391159655,4,1,0,95,0,0
186300,-107.379091143373,4,1,0,95,0,0
186378,-108.103433365044,4,1,0,95,0,0
186456,-108.837614279495,4,1,0,95,0,0
186534,-109.581835714912,4,1,0,95,0,0
186691,-90.9090909090908,4,1,0,95,0,0
189194,-111.111111111111,4,1,0,85,0,0
190444,-100,4,1,0,90,0,0
190600,-98.767383059418,4,1,0,90,0,0
190756,-97.564783015923,4,1,0,90,0,0
190912,-96.391116594695,4,1,0,90,0,0
191069,-95.238095238095,4,1,0,90,0,0
191225,-94.11941871847,4,1,0,90,0,0
191381,-93.026717273201,4,1,0,90,0,0
191537,-91.959096593835,4,1,0,90,0,0
191706,-90.909090909091,4,1,0,95,0,1
204206,-90.909090909091,4,1,0,95,0,0
204492,-91.9523319111373,4,1,0,95,0,0
204648,-92.4829831311039,4,1,0,95,0,0
204805,-93.0232558139535,4,1,0,95,0,0
204961,-93.5663759871253,4,1,0,95,0,0
205117,-94.1158754658736,4,1,0,95,0,0
205195,-94.3930526713234,4,1,0,95,0,0
205273,-94.6718673079108,4,1,0,95,0,0
205430,-95.2380952380952,4,1,0,95,0,0
205586,-95.8074653176975,4,1,0,95,0,0
205664,-96.0947109471095,4,1,0,95,0,0
205742,-96.3836841699437,4,1,0,95,0,0
205898,-96.9668761151191,4,1,0,95,0,0
206055,-97.5609756097561,4,1,0,95,0,0
206133,-97.8588483970721,4,1,0,95,0,0
206211,-98.1585456829872,4,1,0,95,0,0
206289,-98.4600842818321,4,1,0,95,0,0
206367,-98.7634812151859,4,1,0,95,0,0
206445,-99.0687537150783,4,1,0,95,0,0
206523,-99.3759192272529,4,1,0,95,0,0
206706,-90.909090909091,4,1,0,95,0,1
224206,-90.9090909090909,4,1,0,95,0,0
224503,-91.9523319111373,4,1,0,95,0,0
224659,-92.4829831311039,4,1,0,95,0,0
224737,-92.7506121540402,4,1,0,95,0,0
224816,-93.0232558139535,4,1,0,95,0,0
224972,-93.5663759871253,4,1,0,95,0,0
225128,-94.1158754658736,4,1,0,95,0,0
225206,-94.3930526713234,4,1,0,95,0,0
225284,-94.6718673079108,4,1,0,95,0,0
225441,-95.2380952380952,4,1,0,95,0,0
225597,-95.8074653176975,4,1,0,95,0,0
225675,-96.0947109471095,4,1,0,95,0,0
225753,-96.3836841699437,4,1,0,95,0,0
225909,-96.9668761151191,4,1,0,95,0,0
226066,-97.5609756097561,4,1,0,95,0,0
226144,-97.8588483970721,4,1,0,95,0,0
226222,-98.1585456829872,4,1,0,95,0,0
226300,-98.4600842818321,4,1,0,95,0,0
226378,-98.7634812151859,4,1,0,95,0,0
226456,-99.0687537150783,4,1,0,95,0,0
226534,-99.3759192272529,4,1,0,95,0,0
226706,-90.9090909090909,4,1,0,95,0,1
229206,-90.909090909091,4,1,0,95,0,0
229506,-100,4,1,0,95,0,0
238566,-98.0318415444403,4,1,0,95,0,0
238644,-97.082557417753,4,1,0,95,0,0
238722,-96.1514816180991,4,1,0,95,0,0
238800,-95.2380952380952,4,1,0,95,0,0
238878,-94.3418989021595,4,1,0,95,0,0
238956,-93.4624118561013,4,1,0,95,0,0
239034,-92.599171107164,4,1,0,95,0,0
239115,-83.922340520712,4,1,0,95,0,0
239206,-90.9090909090909,4,1,0,95,0,1
249206,-83.333333333333,4,1,0,95,0,0
249350,-83.333333333334,4,1,0,90,0,0
250444,-100,4,1,0,80,0,0

[HitObjects]
160,128,475,5,0,0:0:0:0:
160,128,588,1,0,0:0:0:0:
160,128,702,1,8,0:0:0:0:
160,128,932,1,0,0:0:0:0:
224,192,1163,1,0,0:0:0:0:
256,192,1394,1,8,0:0:0:0:
160,128,1625,1,0,0:0:0:0:
160,128,1845,1,0,0:0:0:0:
256,192,2066,1,8,0:0:0:0:
160,128,2524,1,0,0:0:0:0:
256,192,2753,1,8,0:0:0:0:
160,128,2980,1,0,0:0:0:0:
160,128,3207,1,0,0:0:0:0:
256,192,3434,1,8,0:0:0:0:
160,128,3664,1,0,0:0:0:0:
256,192,3895,1,8,0:0:0:0:
160,128,4126,1,0,0:0:0:0:
160,128,4241,1,0,0:0:0:0:
256,192,4357,1,8,0:0:0:0:
160,128,4584,1,0,0:0:0:0:
160,128,4811,1,0,0:0:0:0:
256,192,5038,1,8,0:0:0:0:
160,128,5266,1,0,0:0:0:0:
160,128,5486,1,0,0:0:0:0:
256,192,5707,1,8,0:0:0:0:
160,128,6148,1,0,0:0:0:0:
256,192,6368,1,8,0:0:0:0:
160,128,6602,1,0,0:0:0:0:
160,128,6836,1,0,0:0:0:0:
160,128,7071,1,8,0:0:0:0:
160,128,7300,1,0,0:0:0:0:
256,192,7529,1,8,0:0:0:0:
256,192,7758,1,0,0:0:0:0:
256,192,7872,1,0,0:0:0:0:
256,192,7987,1,8,0:0:0:0:
256,192,8217,1,0,0:0:0:0:
256,192,8448,1,8,0:0:0:0:
256,192,8679,1,8,0:0:0:0:
256,192,8910,1,0,0:0:0:0:
256,192,9133,1,0,0:0:0:0:
256,192,9357,1,8,0:0:0:0:
256,192,9581,1,0,0:0:0:0:
256,192,9805,1,8,0:0:0:0:
256,192,9917,1,8,0:0:0:0:
256,192,10029,1,0,0:0:0:0:
256,192,10253,1,8,0:0:0:0:
256,192,10365,1,0,0:0:0:0:
256,192,10477,1,0,0:0:0:0:
256,192,10701,1,8,0:0:0:0:
256,192,10814,1,8,0:0:0:0:
256,192,10928,1,0,0:0:0:0:
256,192,11041,1,0,0:0:0:0:
256,192,11155,1,8,0:0:0:0:
256,192,11269,1,0,0:0:0:0:
256,192,11382,1,8,0:0:0:0:
256,192,11610,1,4,0:0:0:0:
256,192,12054,1,0,0:0:0:0:
256,192,12281,1,8,0:0:0:0:
256,192,12508,1,0,0:0:0:0:
256,192,12949,1,0,0:0:0:0:
256,192,13185,1,8,0:0:0:0:
256,192,13639,1,8,0:0:0:0:
256,192,13866,1,0,0:0:0:0:
256,192,14310,1,8,0:0:0:0:
256,192,14768,1,8,0:0:0:0:
256,192,15226,1,8,0:0:0:0:
256,192,15455,1,0,0:0:0:0:
256,192,15569,1,0,0:0:0:0:
256,192,15684,1,8,0:0:0:0:
256,192,15913,1,0,0:0:0:0:
256,192,16142,1,8,0:0:0:0:
256,192,16253,1,0,0:0:0:0:
256,192,16365,1,8,0:0:0:0:
256,192,16589,1,0,0:0:0:0:
256,192,17050,1,8,0:0:0:0:
256,192,17281,1,0,0:0:0:0:
256,192,17391,1,0,0:0:0:0:
256,192,17501,1,8,0:0:0:0:
256,192,17735,1,0,0:0:0:0:
256,192,17969,1,8,0:0:0:0:
256,192,18080,1,0,0:0:0:0:
256,192,18191,1,8,0:0:0:0:
256,192,18413,1,0,0:0:0:0:
256,192,18867,1,8,0:0:0:0:
256,192,19101,1,8,0:0:0:0:
256,192,19328,1,0,0:0:0:0:
256,192,19555,1,8,0:0:0:0:
256,192,19782,1,0,0:0:0:0:
256,192,20005,1,0,0:0:0:0:
256,192,20229,1,8,0:0:0:0:
256,192,20456,1,8,0:0:0:0:
256,192,20683,1,0,0:0:0:0:
256,192,20910,1,8,0:0:0:0:
256,192,21138,1,8,0:0:0:0:
256,192,21365,1,0,0:0:0:0:
256,192,21592,1,8,0:0:0:0:
256,192,21819,1,0,0:0:0:0:
256,192,22047,1,8,0:0:0:0:
256,192,24457,12,0,27738,0:0:0:0:
160,64,27956,5,8,0:0:0:0:
160,64,28034,5,8,0:0:0:0:
160,64,28112,1,8,0:0:0:0:
160,64,28268,1,8,0:0:0:0:
160,64,28346,1,8,0:0:0:0:
160,64,28424,1,0,0:0:0:0:
160,64,28581,1,0,0:0:0:0:
160,64,28659,1,0,0:0:0:0:
160,64,28737,1,0,0:0:0:0:
160,64,28815,1,0,0:0:0:0:
160,64,28893,1,8,0:0:0:0:
160,64,29049,1,0,0:0:0:0:
160,64,29206,1,12,0:0:0:0:
160,160,30456,1,12,0:0:0:0:
160,64,31706,1,4,0:0:0:0:
160,160,32956,1,4,0:0:0:0:
160,96,33581,1,8,0:0:0:0:
160,96,33737,1,0,0:0:0:0:
160,96,33815,1,0,0:0:0:0:
160,96,33893,1,8,0:0:0:0:
160,128,34206,1,4,0:0:0:0:
160,128,34831,1,12,0:0:0:0:
160,128,35456,1,4,0:0:0:0:
160,128,35768,1,4,0:0:0:0:
160,128,36081,1,12,0:0:0:0:
160,128,36706,1,0,0:0:0:0:
160,128,36862,1,0,0:0:0:0:
160,128,37018,1,8,0:0:0:0:
160,128,37174,1,0,0:0:0:0:
160,128,37331,1,8,0:0:0:0:
160,128,37487,1,0,0:0:0:0:
160,128,37643,1,8,0:0:0:0:
160,128,37799,1,8,0:0:0:0:
160,128,37956,1,0,0:0:0:0:
160,128,38034,1,0,0:0:0:0:
160,128,38112,1,0,0:0:0:0:
160,128,38190,1,0,0:0:0:0:
160,128,38268,1,8,0:0:0:0:
160,128,38424,1,0,0:0:0:0:
160,128,38502,1,0,0:0:0:0:
160,128,38581,1,8,0:0:0:0:
160,128,38659,1,8,0:0:0:0:
160,128,38737,1,0,0:0:0:0:
160,128,38893,1,8,0:0:0:0:
192,96,39206,1,8,0:0:0:0:
192,96,39362,1,0,0:0:0:0:
160,128,39440,1,0,0:0:0:0:
192,96,39518,1,8,0:0:0:0:
160,128,39674,1,0,0:0:0:0:
160,128,39831,1,8,0:0:0:0:
160,128,39909,1,8,0:0:0:0:
160,128,39987,1,0,0:0:0:0:
160,128,40065,1,0,0:0:0:0:
160,128,40143,1,8,0:0:0:0:
160,128,40299,1,0,0:0:0:0:
160,128,40456,1,8,0:0:0:0:
160,128,40534,1,8,0:0:0:0:
160,128,40612,1,8,0:0:0:0:
160,128,40768,1,8,0:0:0:0:
160,128,40924,1,0,0:0:0:0:
160,128,41002,1,0,0:0:0:0:
160,128,41081,1,8,0:0:0:0:
160,128,41159,1,8,0:0:0:0:
160,128,41237,1,0,0:0:0:0:
160,128,41393,1,8,0:0:0:0:
160,128,41706,1,8,0:0:0:0:
160,128,41862,1,0,0:0:0:0:
160,128,41940,1,0,0:0:0:0:
160,128,42018,1,8,0:0:0:0:
160,128,42174,1,0,0:0:0:0:
160,128,42331,1,8,0:0:0:0:
160,128,42409,1,8,0:0:0:0:
160,128,42487,1,0,0:0:0:0:
160,128,42565,1,0,0:0:0:0:
160,128,42643,1,8,0:0:0:0:
160,128,42799,1,0,0:0:0:0:
160,128,42956,1,8,0:0:0:0:
160,128,43034,1,8,0:0:0:0:
160,128,43112,1,0,0:0:0:0:
160,128,43268,1,8,0:0:0:0:
160,128,43424,1,0,0:0:0:0:
160,128,43581,1,8,0:0:0:0:
160,128,43659,1,0,0:0:0:0:
160,128,43737,1,0,0:0:0:0:
160,128,43815,1,0,0:0:0:0:
160,128,43893,1,8,0:0:0:0:
192,96,44206,1,8,0:0:0:0:
192,96,44362,1,0,0:0:0:0:
160,128,44440,1,0,0:0:0:0:
192,96,44518,1,8,0:0:0:0:
160,128,44674,1,0,0:0:0:0:
160,128,44831,1,8,0:0:0:0:
160,128,44909,1,8,0:0:0:0:
160,128,44987,1,0,0:0:0:0:
160,128,45065,1,0,0:0:0:0:
160,128,45143,1,8,0:0:0:0:
160,128,45299,1,0,0:0:0:0:
160,128,45456,1,8,0:0:0:0:
160,128,45534,1,8,0:0:0:0:
160,128,45612,1,8,0:0:0:0:
160,128,45768,1,8,0:0:0:0:
160,128,45924,1,0,0:0:0:0:
160,128,46002,1,0,0:0:0:0:
160,128,46081,1,8,0:0:0:0:
160,128,46159,1,8,0:0:0:0:
160,128,46237,1,0,0:0:0:0:
160,128,46393,1,8,0:0:0:0:
160,128,46706,1,8,0:0:0:0:
160,128,46862,1,0,0:0:0:0:
160,128,46940,1,0,0:0:0:0:
160,128,47018,1,8,0:0:0:0:
160,128,47174,1,0,0:0:0:0:
160,128,47331,1,8,0:0:0:0:
160,128,47409,1,8,0:0:0:0:
160,128,47487,1,0,0:0:0:0:
160,128,47565,1,0,0:0:0:0:
160,128,47643,1,8,0:0:0:0:
160,128,47799,1,0,0:0:0:0:
160,128,47956,1,8,0:0:0:0:
160,128,48112,1,0,0:0:0:0:
160,128,48190,1,8,0:0:0:0:
160,128,48346,1,0,0:0:0:0:
160,128,48424,1,8,0:0:0:0:
160,128,48581,1,0,0:0:0:0:
160,128,48659,1,0,0:0:0:0:
160,128,48737,1,0,0:0:0:0:
160,128,48815,1,0,0:0:0:0:
160,128,48893,1,8,0:0:0:0:
160,128,49206,1,4,0:0:0:0:
192,128,49518,1,0,0:0:0:0:
192,128,49674,1,8,0:0:0:0:
192,128,49752,1,8,0:0:0:0:
192,128,49831,1,0,0:0:0:0:
192,128,49987,1,8,0:0:0:0:
192,128,50143,1,0,0:0:0:0:
192,128,50221,1,0,0:0:0:0:
192,128,50299,1,8,0:0:0:0:
192,128,50456,1,0,0:0:0:0:
192,128,50612,1,8,0:0:0:0:
192,128,50768,1,0,0:0:0:0:
192,128,50846,1,0,0:0:0:0:
192,128,50924,1,8,0:0:0:0:
192,128,51002,1,0,0:0:0:0:
192,128,51081,1,0,0:0:0:0:
192,128,51237,1,8,0:0:0:0:
192,128,51393,1,0,0:0:0:0:
192,128,51471,1,0,0:0:0:0:
192,128,51549,1,8,0:0:0:0:
192,128,51706,1,0,0:0:0:0:
192,96,52018,1,0,0:0:0:0:
192,96,52174,1,8,0:0:0:0:
192,96,52252,1,8,0:0:0:0:
192,96,52331,1,0,0:0:0:0:
192,96,52487,1,8,0:0:0:0:
192,96,52643,1,0,0:0:0:0:
192,96,52721,1,0,0:0:0:0:
192,96,52799,1,8,0:0:0:0:
192,96,52877,1,8,0:0:0:0:
192,96,52956,1,0,0:0:0:0:
192,96,53112,1,8,0:0:0:0:
192,96,53268,1,0,0:0:0:0:
192,96,53424,1,8,0:0:0:0:
192,96,53581,1,0,0:0:0:0:
192,96,53659,1,0,0:0:0:0:
192,96,53737,1,8,0:0:0:0:
192,96,53893,1,8,0:0:0:0:
192,96,53971,1,0,0:0:0:0:
192,96,54049,1,8,0:0:0:0:
160,128,54206,1,4,0:0:0:0:
192,128,54518,1,0,0:0:0:0:
192,128,54674,1,8,0:0:0:0:
192,128,54752,1,8,0:0:0:0:
192,128,54831,1,0,0:0:0:0:
192,128,54987,1,8,0:0:0:0:
192,128,55143,1,0,0:0:0:0:
192,128,55221,1,0,0:0:0:0:
192,128,55299,1,8,0:0:0:0:
192,128,55456,1,0,0:0:0:0:
192,128,55612,1,8,0:0:0:0:
192,128,55768,1,8,0:0:0:0:
192,128,55846,1,0,0:0:0:0:
192,128,55924,1,8,0:0:0:0:
192,128,56002,1,8,0:0:0:0:
192,128,56081,1,0,0:0:0:0:
192,128,56237,1,8,0:0:0:0:
192,128,56393,1,0,0:0:0:0:
192,128,56471,1,0,0:0:0:0:
192,128,56549,1,8,0:0:0:0:
192,128,56706,1,0,0:0:0:0:
192,96,57018,1,0,0:0:0:0:
192,96,57174,1,8,0:0:0:0:
192,96,57252,1,8,0:0:0:0:
192,96,57331,1,0,0:0:0:0:
192,96,57487,1,8,0:0:0:0:
192,96,57643,1,0,0:0:0:0:
192,96,57721,1,0,0:0:0:0:
192,96,57799,1,8,0:0:0:0:
192,96,57877,1,8,0:0:0:0:
192,96,57956,1,0,0:0:0:0:
192,96,58112,1,8,0:0:0:0:
192,96,58268,1,0,0:0:0:0:
192,96,58346,1,0,0:0:0:0:
192,96,58424,1,8,0:0:0:0:
192,96,58581,1,0,0:0:0:0:
192,96,58737,1,8,0:0:0:0:
192,96,58893,1,8,0:0:0:0:
192,96,58971,1,8,0:0:0:0:
192,96,59049,1,8,0:0:0:0:
160,128,59206,1,4,0:0:0:0:
192,128,59518,1,0,0:0:0:0:
192,128,59674,1,8,0:0:0:0:
192,128,59752,1,8,0:0:0:0:
192,128,59831,1,0,0:0:0:0:
192,128,59987,1,8,0:0:0:0:
192,128,60143,1,0,0:0:0:0:
192,128,60221,1,0,0:0:0:0:
192,128,60299,1,8,0:0:0:0:
192,128,60456,1,0,0:0:0:0:
192,128,60612,1,8,0:0:0:0:
192,128,60768,1,0,0:0:0:0:
192,128,60846,1,0,0:0:0:0:
192,128,60924,1,8,0:0:0:0:
192,128,61002,1,0,0:0:0:0:
192,128,61081,1,0,0:0:0:0:
192,128,61237,1,8,0:0:0:0:
192,128,61393,1,0,0:0:0:0:
192,128,61471,1,0,0:0:0:0:
192,128,61549,1,8,0:0:0:0:
192,128,61706,1,0,0:0:0:0:
192,96,62018,1,0,0:0:0:0:
192,96,62174,1,8,0:0:0:0:
192,96,62252,1,8,0:0:0:0:
192,96,62331,1,0,0:0:0:0:
192,96,62487,1,8,0:0:0:0:
192,96,62643,1,0,0:0:0:0:
192,96,62721,1,0,0:0:0:0:
192,96,62799,1,8,0:0:0:0:
192,96,62877,1,8,0:0:0:0:
192,96,62956,1,0,0:0:0:0:
192,96,63112,1,8,0:0:0:0:
192,96,63268,1,0,0:0:0:0:
192,96,63424,1,8,0:0:0:0:
192,96,63581,1,0,0:0:0:0:
192,96,63659,1,0,0:0:0:0:
192,96,63737,1,8,0:0:0:0:
192,96,63893,1,8,0:0:0:0:
192,96,63971,1,0,0:0:0:0:
192,96,64049,1,8,0:0:0:0:
160,128,64206,1,4,0:0:0:0:
192,128,64518,1,0,0:0:0:0:
192,128,64674,1,8,0:0:0:0:
192,128,64752,1,8,0:0:0:0:
192,128,64831,1,0,0:0:0:0:
192,128,64987,1,8,0:0:0:0:
192,128,65143,1,0,0:0:0:0:
192,128,65221,1,0,0:0:0:0:
192,128,65299,1,8,0:0:0:0:
192,128,65456,1,0,0:0:0:0:
192,128,65612,1,8,0:0:0:0:
192,128,65768,1,8,0:0:0:0:
192,128,65846,1,0,0:0:0:0:
192,128,65924,1,8,0:0:0:0:
192,128,66002,1,8,0:0:0:0:
192,128,66081,1,0,0:0:0:0:
192,128,66237,1,8,0:0:0:0:
192,128,66393,1,0,0:0:0:0:
192,128,66471,1,0,0:0:0:0:
192,128,66549,1,8,0:0:0:0:
192,128,66706,1,0,0:0:0:0:
192,96,67018,1,0,0:0:0:0:
192,96,67174,1,8,0:0:0:0:
192,96,67252,1,8,0:0:0:0:
192,96,67331,1,0,0:0:0:0:
192,96,67487,1,8,0:0:0:0:
192,96,67643,1,8,0:0:0:0:
192,96,67721,1,0,0:0:0:0:
192,96,67799,1,8,0:0:0:0:
192,96,67956,1,0,0:0:0:0:
192,96,68112,1,8,0:0:0:0:
192,96,68268,1,0,0:0:0:0:
192,96,68346,1,0,0:0:0:0:
192,96,68424,1,8,0:0:0:0:
192,96,68502,1,8,0:0:0:0:
192,96,68581,1,0,0:0:0:0:
192,96,68737,1,8,0:0:0:0:
192,96,68893,1,8,0:0:0:0:
192,96,68971,1,8,0:0:0:0:
192,96,69049,1,8,0:0:0:0:
192,96,69206,1,4,0:0:0:0:
160,32,69831,1,4,0:0:0:0:
192,96,70456,1,12,0:0:0:0:
192,96,70924,1,8,0:0:0:0:
192,96,71002,1,8,0:0:0:0:
192,96,71081,1,8,0:0:0:0:
192,96,71237,1,0,0:0:0:0:
192,96,71393,1,0,0:0:0:0:
192,96,71549,1,0,0:0:0:0:
192,96,71706,1,12,0:0:0:0:
192,96,72331,1,12,0:0:0:0:
192,96,72643,1,4,0:0:0:0:
192,96,72956,1,12,0:0:0:0:
192,96,73581,1,12,0:0:0:0:
192,96,74206,1,4,0:0:0:0:
192,96,74831,1,4,0:0:0:0:
192,96,75456,1,12,0:0:0:0:
192,96,75924,1,8,0:0:0:0:
192,96,76002,1,8,0:0:0:0:
192,96,76081,1,8,0:0:0:0:
192,96,76237,1,0,0:0:0:0:
192,96,76393,1,0,0:0:0:0:
192,96,76549,1,0,0:0:0:0:
192,96,76706,1,12,0:0:0:0:
192,96,77331,1,12,0:0:0:0:
192,96,77956,1,4,0:0:0:0:
192,96,78190,1,4,0:0:0:0:
192,96,78424,1,4,0:0:0:0:
192,96,78581,1,4,0:0:0:0:
192,96,79206,1,0,0:0:0:0:
192,96,79362,1,8,0:0:0:0:
192,96,79518,1,0,0:0:0:0:
192,96,79596,1,0,0:0:0:0:
192,96,79674,1,8,0:0:0:0:
192,96,79831,1,0,0:0:0:0:
192,96,79987,1,8,0:0:0:0:
192,96,80143,1,8,0:0:0:0:
192,96,80221,1,8,0:0:0:0:
192,96,80299,1,8,0:0:0:0:
192,96,80456,1,0,0:0:0:0:
192,96,80612,1,8,0:0:0:0:
192,96,80768,1,0,0:0:0:0:
192,96,80846,1,0,0:0:0:0:
192,96,80924,1,8,0:0:0:0:
192,96,81081,1,0,0:0:0:0:
192,96,81159,1,0,0:0:0:0:
192,96,81237,1,0,0:0:0:0:
192,96,81393,1,8,0:0:0:0:
192,96,81549,1,0,0:0:0:0:
192,96,81706,1,8,0:0:0:0:
192,96,81784,1,8,0:0:0:0:
192,96,81862,1,8,0:0:0:0:
192,96,81940,1,8,0:0:0:0:
192,96,82018,1,0,0:0:0:0:
192,96,82174,1,8,0:0:0:0:
192,96,82331,1,8,0:0:0:0:
192,96,82409,1,8,0:0:0:0:
192,96,82487,1,0,0:0:0:0:
192,96,82643,1,0,0:0:0:0:
192,96,82721,1,0,0:0:0:0:
192,96,82799,1,8,0:0:0:0:
192,96,82956,1,0,0:0:0:0:
192,96,83112,1,8,0:0:0:0:
160,96,83424,1,0,0:0:0:0:
160,96,83581,1,8,0:0:0:0:
160,96,83659,1,8,0:0:0:0:
160,96,83737,1,0,0:0:0:0:
160,96,83815,1,0,0:0:0:0:
160,96,83893,1,8,0:0:0:0:
160,96,84049,1,0,0:0:0:0:
160,96,84206,1,8,0:0:0:0:
160,96,84284,1,0,0:0:0:0:
160,96,84362,1,0,0:0:0:0:
160,96,84518,1,8,0:0:0:0:
160,96,84674,1,8,0:0:0:0:
160,96,84752,1,8,0:0:0:0:
160,96,84831,1,0,0:0:0:0:
160,96,85143,1,8,0:0:0:0:
160,96,85299,1,0,0:0:0:0:
160,96,85377,1,0,0:0:0:0:
160,96,85456,1,8,0:0:0:0:
160,96,85534,1,0,0:0:0:0:
160,96,85612,1,0,0:0:0:0:
160,96,85768,1,8,0:0:0:0:
160,96,85924,1,8,0:0:0:0:
160,96,86002,1,8,0:0:0:0:
160,96,86081,1,0,0:0:0:0:
160,96,86237,1,8,0:0:0:0:
160,96,86393,1,0,0:0:0:0:
160,96,86471,1,0,0:0:0:0:
160,96,86549,1,8,0:0:0:0:
160,96,86706,1,0,0:0:0:0:
160,96,86784,1,0,0:0:0:0:
160,96,86862,1,0,0:0:0:0:
192,96,87018,1,8,0:0:0:0:
192,96,87096,1,0,0:0:0:0:
192,96,87174,1,8,0:0:0:0:
192,96,87331,1,0,0:0:0:0:
192,96,87487,1,8,0:0:0:0:
192,96,87643,1,0,0:0:0:0:
192,96,87799,1,8,0:0:0:0:
192,96,87877,1,8,0:0:0:0:
192,96,87956,1,0,0:0:0:0:
192,96,88112,1,8,0:0:0:0:
192,96,88424,1,8,0:0:0:0:
192,96,88581,1,8,0:0:0:0:
192,96,88659,1,0,0:0:0:0:
192,96,88737,1,0,0:0:0:0:
192,96,88815,1,0,0:0:0:0:
192,96,88893,1,8,0:0:0:0:
192,96,89049,1,0,0:0:0:0:
192,96,89206,1,8,0:0:0:0:
192,96,89362,1,0,0:0:0:0:
192,96,89440,1,0,0:0:0:0:
192,96,89518,1,8,0:0:0:0:
192,96,89674,1,0,0:0:0:0:
192,96,89831,1,8,0:0:0:0:
192,96,89909,1,0,0:0:0:0:
192,96,89987,1,0,0:0:0:0:
192,96,90143,1,8,0:0:0:0:
192,64,90456,1,8,0:0:0:0:
192,64,90612,1,0,0:0:0:0:
192,64,90690,1,0,0:0:0:0:
192,64,90768,1,8,0:0:0:0:
192,64,90924,1,0,0:0:0:0:
192,64,91081,1,8,0:0:0:0:
192,64,91159,1,8,0:0:0:0:
192,64,91237,1,0,0:0:0:0:
192,64,91393,1,8,0:0:0:0:
192,64,91706,1,8,0:0:0:0:
192,64,91862,1,0,0:0:0:0:
192,64,92018,1,8,0:0:0:0:
192,64,92096,1,0,0:0:0:0:
192,64,92174,1,8,0:0:0:0:
192,64,92252,1,8,0:0:0:0:
192,64,92331,1,0,0:0:0:0:
192,64,92487,1,8,0:0:0:0:
192,64,92643,1,0,0:0:0:0:
192,64,92721,1,0,0:0:0:0:
192,64,92799,1,8,0:0:0:0:
192,64,92956,1,0,0:0:0:0:
192,64,93112,1,8,0:0:0:0:
192,64,93268,1,8,0:0:0:0:
192,64,93346,1,0,0:0:0:0:
192,64,93424,1,8,0:0:0:0:
192,64,93581,1,0,0:0:0:0:
192,64,93737,1,8,0:0:0:0:
192,64,93893,1,8,0:0:0:0:
192,64,93971,1,8,0:0:0:0:
192,64,94049,1,0,0:0:0:0:
192,64,94127,1,0,0:0:0:0:
192,64,94206,1,8,0:0:0:0:
192,64,94362,1,0,0:0:0:0:
192,64,94674,1,0,0:0:0:0:
192,64,94831,1,8,0:0:0:0:
192,64,94909,1,0,0:0:0:0:
192,64,94987,1,0,0:0:0:0:
192,64,95065,1,0,0:0:0:0:
192,64,95143,1,8,0:0:0:0:
192,64,95299,1,0,0:0:0:0:
192,64,95456,1,8,0:0:0:0:
192,64,95534,1,8,0:0:0:0:
192,64,95612,1,0,0:0:0:0:
192,64,95768,1,8,0:0:0:0:
192,64,95924,1,0,0:0:0:0:
192,64,96002,1,0,0:0:0:0:
192,64,96081,1,8,0:0:0:0:
192,64,96237,1,0,0:0:0:0:
192,64,96393,1,8,0:0:0:0:
192,64,96471,1,8,0:0:0:0:
192,64,96549,1,8,0:0:0:0:
192,64,96627,1,8,0:0:0:0:
192,64,96706,1,0,0:0:0:0:
192,64,97018,1,0,0:0:0:0:
192,64,97174,1,8,0:0:0:0:
192,64,97331,1,0,0:0:0:0:
192,64,97487,1,8,0:0:0:0:
192,64,97643,1,0,0:0:0:0:
192,64,97721,1,0,0:0:0:0:
192,64,97799,1,8,0:0:0:0:
192,64,97956,1,0,0:0:0:0:
192,64,98112,1,8,0:0:0:0:
192,64,98190,1,0,0:0:0:0:
192,64,98268,1,8,0:0:0:0:
192,64,98424,1,0,0:0:0:0:
192,64,98581,1,8,0:0:0:0:
192,64,98659,1,8,0:0:0:0:
192,64,98737,1,8,0:0:0:0:
192,64,98815,1,8,0:0:0:0:
192,64,98893,1,0,0:0:0:0:
192,64,98971,1,0,0:0:0:0:
192,64,99049,1,0,0:0:0:0:
192,64,99206,1,12,0:0:0:0:
192,64,99518,1,8,0:0:0:0:
192,64,99674,1,0,0:0:0:0:
192,64,99752,1,0,0:0:0:0:
192,64,99831,1,8,0:0:0:0:
192,64,99987,1,0,0:0:0:0:
192,64,100143,1,8,0:0:0:0:
192,64,100221,1,0,0:0:0:0:
192,64,100299,1,8,0:0:0:0:
192,64,100456,1,0,0:0:0:0:
192,64,100612,1,8,0:0:0:0:
192,64,100690,1,8,0:0:0:0:
192,64,100768,1,0,0:0:0:0:
192,64,100846,1,0,0:0:0:0:
192,64,100924,1,8,0:0:0:0:
192,64,101081,1,0,0:0:0:0:
192,64,101159,1,0,0:0:0:0:
192,64,101237,1,8,0:0:0:0:
192,64,101393,1,0,0:0:0:0:
192,64,101549,1,8,0:0:0:0:
192,64,101706,1,0,0:0:0:0:
192,64,101862,1,8,0:0:0:0:
192,64,101940,1,0,0:0:0:0:
192,64,102018,1,8,0:0:0:0:
192,64,102174,1,0,0:0:0:0:
192,64,102331,1,8,0:0:0:0:
192,64,102487,1,8,0:0:0:0:
192,64,102565,1,0,0:0:0:0:
192,64,102643,1,0,0:0:0:0:
192,64,102799,1,8,0:0:0:0:
192,64,102956,1,0,0:0:0:0:
192,64,103112,1,8,0:0:0:0:
192,64,103190,1,0,0:0:0:0:
192,64,103268,1,8,0:0:0:0:
192,64,103424,1,0,0:0:0:0:
192,64,103581,1,8,0:0:0:0:
192,64,103737,1,0,0:0:0:0:
192,64,103815,1,0,0:0:0:0:
192,64,103893,1,8,0:0:0:0:
192,64,104206,1,0,0:0:0:0:
192,64,104362,1,8,0:0:0:0:
192,64,104440,1,8,0:0:0:0:
192,64,104518,1,0,0:0:0:0:
192,64,104674,1,8,0:0:0:0:
192,64,104831,1,0,0:0:0:0:
192,64,104987,1,8,0:0:0:0:
192,64,105065,1,0,0:0:0:0:
192,64,105143,1,0,0:0:0:0:
192,64,105221,1,0,0:0:0:0:
192,64,105299,1,8,0:0:0:0:
192,64,105456,1,0,0:0:0:0:
192,64,105612,1,8,0:0:0:0:
192,64,105690,1,0,0:0:0:0:
192,64,105768,1,8,0:0:0:0:
192,64,105924,1,0,0:0:0:0:
192,64,106081,1,8,0:0:0:0:
192,64,106237,1,0,0:0:0:0:
192,64,106315,1,8,0:0:0:0:
192,64,106471,1,0,0:0:0:0:
192,64,106549,1,8,0:0:0:0:
192,64,106706,1,4,0:0:0:0:
192,64,107018,1,4,0:0:0:0:
192,64,107331,1,4,0:0:0:0:
192,64,107643,1,4,0:0:0:0:
192,64,107956,1,12,0:0:0:0:
160,64,108112,1,8,0:0:0:0:
160,64,108190,1,8,0:0:0:0:
160,64,108268,1,8,0:0:0:0:
160,64,108346,1,8,0:0:0:0:
160,64,108424,1,0,0:0:0:0:
160,64,108581,1,8,0:0:0:0:
160,64,108737,1,0,0:0:0:0:
160,64,108815,1,0,0:0:0:0:
160,64,108893,1,0,0:0:0:0:
160,64,109049,1,0,0:0:0:0:
160,64,109206,1,12,0:0:0:0:
160,64,109362,1,12,0:0:0:0:
256,160,110924,1,0,0:0:0:0:
256,160,111002,1,0,0:0:0:0:
256,160,111081,1,0,0:0:0:0:
256,160,111237,1,0,0:0:0:0:
256,160,111393,1,8,0:0:0:0:
256,192,111706,1,4,0:0:0:0:
256,192,112174,1,4,0:0:0:0:
256,192,112487,1,0,0:0:0:0:
256,192,112643,1,8,0:0:0:0:
256,192,112956,1,0,0:0:0:0:
256,160,113190,1,8,0:0:0:0:
256,160,113268,1,0,0:0:0:0:
256,160,113424,1,8,0:0:0:0:
256,160,113581,1,0,0:0:0:0:
256,160,113659,1,0,0:0:0:0:
256,160,113737,1,0,0:0:0:0:
256,160,113815,1,0,0:0:0:0:
256,160,113893,1,8,0:0:0:0:
256,160,114049,1,0,0:0:0:0:
256,160,114206,1,12,0:0:0:0:
192,128,114518,1,0,0:0:0:0:
192,128,114674,1,8,0:0:0:0:
192,128,114752,1,8,0:0:0:0:
192,128,114831,1,0,0:0:0:0:
192,128,114987,1,8,0:0:0:0:
192,128,115143,1,0,0:0:0:0:
192,128,115221,1,0,0:0:0:0:
192,128,115299,1,8,0:0:0:0:
192,128,115456,1,0,0:0:0:0:
192,128,115612,1,8,0:0:0:0:
192,128,115768,1,8,0:0:0:0:
192,128,115846,1,0,0:0:0:0:
192,128,115924,1,8,0:0:0:0:
192,128,116002,1,8,0:0:0:0:
192,128,116081,1,0,0:0:0:0:
192,128,116237,1,8,0:0:0:0:
192,128,116393,1,0,0:0:0:0:
192,128,116471,1,0,0:0:0:0:
192,128,116549,1,8,0:0:0:0:
192,128,116706,1,0,0:0:0:0:
192,96,117018,1,0,0:0:0:0:
192,96,117174,1,8,0:0:0:0:
192,96,117252,1,8,0:0:0:0:
192,96,117331,1,0,0:0:0:0:
192,96,117487,1,8,0:0:0:0:
192,96,117643,1,0,0:0:0:0:
192,96,117721,1,0,0:0:0:0:
192,96,117799,1,8,0:0:0:0:
192,96,117877,1,8,0:0:0:0:
192,96,117956,1,0,0:0:0:0:
192,96,118112,1,8,0:0:0:0:
192,96,118268,1,0,0:0:0:0:
192,96,118346,1,0,0:0:0:0:
192,96,118424,1,8,0:0:0:0:
192,96,118581,1,0,0:0:0:0:
192,96,118737,1,8,0:0:0:0:
192,96,118893,1,8,0:0:0:0:
192,96,118971,1,8,0:0:0:0:
192,96,119049,1,8,0:0:0:0:
160,128,119206,1,4,0:0:0:0:
192,128,119518,1,0,0:0:0:0:
192,128,119674,1,8,0:0:0:0:
192,128,119752,1,8,0:0:0:0:
192,128,119831,1,0,0:0:0:0:
192,128,119987,1,8,0:0:0:0:
192,128,120143,1,0,0:0:0:0:
192,128,120221,1,0,0:0:0:0:
192,128,120299,1,8,0:0:0:0:
192,128,120456,1,0,0:0:0:0:
192,128,120612,1,8,0:0:0:0:
192,128,120768,1,0,0:0:0:0:
192,128,120846,1,0,0:0:0:0:
192,128,120924,1,8,0:0:0:0:
192,128,121002,1,0,0:0:0:0:
192,128,121081,1,0,0:0:0:0:
192,128,121237,1,8,0:0:0:0:
192,128,121393,1,0,0:0:0:0:
192,128,121471,1,0,0:0:0:0:
192,128,121549,1,8,0:0:0:0:
192,128,121706,1,0,0:0:0:0:
192,96,122018,1,0,0:0:0:0:
192,96,122174,1,8,0:0:0:0:
192,96,122252,1,8,0:0:0:0:
192,96,122331,1,0,0:0:0:0:
192,96,122487,1,8,0:0:0:0:
192,96,122643,1,0,0:0:0:0:
192,96,122721,1,0,0:0:0:0:
192,96,122799,1,8,0:0:0:0:
192,96,122877,1,8,0:0:0:0:
192,96,122956,1,0,0:0:0:0:
192,96,123112,1,8,0:0:0:0:
192,96,123268,1,0,0:0:0:0:
192,96,123424,1,8,0:0:0:0:
192,96,123581,1,0,0:0:0:0:
192,96,123659,1,0,0:0:0:0:
192,96,123737,1,8,0:0:0:0:
192,96,123893,1,8,0:0:0:0:
192,96,123971,1,0,0:0:0:0:
192,96,124049,1,8,0:0:0:0:
160,128,124206,1,4,0:0:0:0:
192,128,124518,1,0,0:0:0:0:
192,128,124674,1,8,0:0:0:0:
192,128,124752,1,8,0:0:0:0:
192,128,124831,1,0,0:0:0:0:
192,128,124987,1,8,0:0:0:0:
192,128,125143,1,0,0:0:0:0:
192,128,125221,1,0,0:0:0:0:
192,128,125299,1,8,0:0:0:0:
192,128,125456,1,0,0:0:0:0:
192,128,125612,1,8,0:0:0:0:
192,128,125768,1,8,0:0:0:0:
192,128,125846,1,0,0:0:0:0:
192,128,125924,1,8,0:0:0:0:
192,128,126002,1,8,0:0:0:0:
192,128,126081,1,0,0:0:0:0:
192,128,126237,1,8,0:0:0:0:
192,128,126393,1,0,0:0:0:0:
192,128,126471,1,0,0:0:0:0:
192,128,126549,1,8,0:0:0:0:
192,128,126706,1,0,0:0:0:0:
192,96,127018,1,0,0:0:0:0:
192,96,127174,1,8,0:0:0:0:
192,96,127252,1,8,0:0:0:0:
192,96,127331,1,0,0:0:0:0:
192,96,127487,1,8,0:0:0:0:
192,96,127643,1,8,0:0:0:0:
192,96,127721,1,0,0:0:0:0:
192,96,127799,1,8,0:0:0:0:
192,96,127956,1,0,0:0:0:0:
192,96,128112,1,8,0:0:0:0:
192,96,128268,1,8,0:0:0:0:
192,96,128346,1,8,0:0:0:0:
192,96,128424,1,0,0:0:0:0:
192,96,128502,1,0,0:0:0:0:
192,96,128581,1,8,0:0:0:0:
192,96,128737,1,0,0:0:0:0:
192,96,128893,1,8,0:0:0:0:
192,96,128971,1,8,0:0:0:0:
192,96,129049,1,8,0:0:0:0:
192,96,129206,1,0,0:0:0:0:
192,96,129284,1,0,0:0:0:0:
192,96,129362,1,0,0:0:0:0:
192,96,129440,1,0,0:0:0:0:
192,96,129518,1,8,0:0:0:0:
192,96,129674,1,0,0:0:0:0:
192,96,129831,1,8,0:0:0:0:
192,96,129987,1,0,0:0:0:0:
192,96,130065,1,0,0:0:0:0:
192,96,130143,1,8,0:0:0:0:
192,96,130299,1,0,0:0:0:0:
192,96,130456,1,8,0:0:0:0:
192,96,130534,1,0,0:0:0:0:
192,96,130612,1,0,0:0:0:0:
192,96,130768,1,8,0:0:0:0:
192,96,130924,1,0,0:0:0:0:
192,96,131081,1,8,0:0:0:0:
192,96,131393,1,8,0:0:0:0:
192,96,131549,1,8,0:0:0:0:
192,96,131706,1,0,0:0:0:0:
192,96,131862,1,0,0:0:0:0:
192,96,131940,1,0,0:0:0:0:
192,96,132018,1,8,0:0:0:0:
192,96,132174,1,0,0:0:0:0:
192,96,132331,1,8,0:0:0:0:
192,96,132409,1,8,0:0:0:0:
192,96,132487,1,0,0:0:0:0:
192,96,132643,1,8,0:0:0:0:
192,96,132799,1,0,0:0:0:0:
192,96,132956,1,8,0:0:0:0:
192,96,133034,1,8,0:0:0:0:
192,96,133112,1,8,0:0:0:0:
192,96,133190,1,8,0:0:0:0:
192,96,133268,1,0,0:0:0:0:
192,96,133424,1,0,0:0:0:0:
192,96,133581,1,8,0:0:0:0:
192,96,133737,1,0,0:0:0:0:
192,96,133815,1,8,0:0:0:0:
192,96,133971,1,0,0:0:0:0:
192,96,134049,1,8,0:0:0:0:
192,96,134206,1,0,0:0:0:0:
192,96,134284,1,0,0:0:0:0:
192,96,134362,1,0,0:0:0:0:
192,96,134440,1,0,0:0:0:0:
192,96,134518,1,8,0:0:0:0:
192,96,134674,1,0,0:0:0:0:
192,96,134831,1,8,0:0:0:0:
192,96,135143,1,8,0:0:0:0:
192,96,135299,1,0,0:0:0:0:
192,96,135377,1,0,0:0:0:0:
192,96,135456,1,8,0:0:0:0:
192,96,135534,1,0,0:0:0:0:
192,96,135612,1,0,0:0:0:0:
192,96,135768,1,8,0:0:0:0:
192,96,135924,1,0,0:0:0:0:
192,96,136081,1,8,0:0:0:0:
192,96,136393,1,8,0:0:0:0:
192,96,136549,1,0,0:0:0:0:
192,96,136706,1,8,0:0:0:0:
192,96,136862,1,0,0:0:0:0:
192,96,136940,1,0,0:0:0:0:
192,96,137018,1,8,0:0:0:0:
192,96,137096,1,8,0:0:0:0:
192,96,137174,1,0,0:0:0:0:
192,96,137331,1,8,0:0:0:0:
192,96,137643,1,8,0:0:0:0:
192,96,137799,1,0,0:0:0:0:
192,96,137956,1,12,0:0:0:0:
192,96,138190,1,12,0:0:0:0:
192,96,138424,1,12,0:0:0:0:
192,96,138581,1,12,0:0:0:0:
192,96,139206,1,0,0:0:0:0:
192,96,139362,1,8,0:0:0:0:
192,96,139518,1,0,0:0:0:0:
192,96,139596,1,0,0:0:0:0:
192,96,139674,1,8,0:0:0:0:
192,96,139831,1,0,0:0:0:0:
192,96,139987,1,8,0:0:0:0:
192,96,140143,1,8,0:0:0:0:
192,96,140221,1,8,0:0:0:0:
192,96,140299,1,0,0:0:0:0:
192,96,140456,1,8,0:0:0:0:
192,96,140612,1,0,0:0:0:0:
192,96,140768,1,8,0:0:0:0:
192,96,140846,1,8,0:0:0:0:
192,96,140924,1,8,0:0:0:0:
192,96,141081,1,0,0:0:0:0:
192,96,141237,1,8,0:0:0:0:
192,96,141393,1,0,0:0:0:0:
192,96,141471,1,0,0:0:0:0:
192,96,141549,1,0,0:0:0:0:
192,96,141706,1,8,0:0:0:0:
192,96,141784,1,8,0:0:0:0:
192,96,141862,1,0,0:0:0:0:
192,96,141940,1,0,0:0:0:0:
192,96,142018,1,8,0:0:0:0:
192,96,142174,1,0,0:0:0:0:
192,96,142331,1,8,0:0:0:0:
192,96,142409,1,0,0:0:0:0:
192,96,142487,1,8,0:0:0:0:
192,96,142643,1,0,0:0:0:0:
192,96,142721,1,0,0:0:0:0:
192,96,142799,1,8,0:0:0:0:
192,96,142956,1,0,0:0:0:0:
192,96,143112,1,8,0:0:0:0:
160,96,143424,1,0,0:0:0:0:
160,96,143581,1,8,0:0:0:0:
160,96,143659,1,8,0:0:0:0:
160,96,143737,1,0,0:0:0:0:
160,96,143815,1,0,0:0:0:0:
160,96,143893,1,8,0:0:0:0:
160,96,144049,1,0,0:0:0:0:
160,96,144206,1,8,0:0:0:0:
160,96,144284,1,0,0:0:0:0:
160,96,144362,1,0,0:0:0:0:
160,96,144518,1,8,0:0:0:0:
160,96,144674,1,8,0:0:0:0:
160,96,144752,1,8,0:0:0:0:
160,96,144831,1,0,0:0:0:0:
160,96,145143,1,8,0:0:0:0:
160,96,145299,1,0,0:0:0:0:
160,96,145377,1,0,0:0:0:0:
160,96,145456,1,8,0:0:0:0:
160,96,145534,1,0,0:0:0:0:
160,96,145612,1,0,0:0:0:0:
160,96,145768,1,8,0:0:0:0:
160,96,145924,1,8,0:0:0:0:
160,96,146002,1,8,0:0:0:0:
160,96,146081,1,0,0:0:0:0:
160,96,146237,1,8,0:0:0:0:
160,96,146393,1,0,0:0:0:0:
160,96,146471,1,0,0:0:0:0:
160,96,146549,1,8,0:0:0:0:
160,96,146706,1,0,0:0:0:0:
160,96,146784,1,0,0:0:0:0:
160,96,146862,1,0,0:0:0:0:
192,96,147018,1,8,0:0:0:0:
192,96,147174,1,8,0:0:0:0:
192,96,147252,1,8,0:0:0:0:
192,96,147331,1,0,0:0:0:0:
192,96,147487,1,8,0:0:0:0:
192,96,147643,1,0,0:0:0:0:
192,96,147799,1,8,0:0:0:0:
192,96,147877,1,0,0:0:0:0:
192,96,147956,1,0,0:0:0:0:
192,96,148112,1,8,0:0:0:0:
192,96,148424,1,8,0:0:0:0:
192,96,148581,1,8,0:0:0:0:
192,96,148659,1,0,0:0:0:0:
192,96,148737,1,0,0:0:0:0:
192,96,148815,1,0,0:0:0:0:
192,96,148893,1,8,0:0:0:0:
192,96,149049,1,0,0:0:0:0:
192,96,149206,1,8,0:0:0:0:
192,96,149362,1,0,0:0:0:0:
192,96,149440,1,0,0:0:0:0:
192,96,149518,1,8,0:0:0:0:
192,96,149674,1,0,0:0:0:0:
192,96,149831,1,8,0:0:0:0:
192,96,149909,1,0,0:0:0:0:
192,96,149987,1,0,0:0:0:0:
192,96,150143,1,8,0:0:0:0:
192,64,150456,1,8,0:0:0:0:
192,64,150612,1,0,0:0:0:0:
192,64,150690,1,0,0:0:0:0:
192,64,150768,1,8,0:0:0:0:
192,64,150924,1,0,0:0:0:0:
192,64,151081,1,8,0:0:0:0:
192,64,151159,1,8,0:0:0:0:
192,64,151237,1,0,0:0:0:0:
192,64,151393,1,8,0:0:0:0:
192,64,151706,1,8,0:0:0:0:
192,64,151862,1,0,0:0:0:0:
192,64,152018,1,8,0:0:0:0:
192,64,152096,1,0,0:0:0:0:
192,64,152174,1,8,0:0:0:0:
192,64,152252,1,8,0:0:0:0:
192,64,152331,1,0,0:0:0:0:
192,64,152487,1,8,0:0:0:0:
192,64,152643,1,0,0:0:0:0:
192,64,152721,1,0,0:0:0:0:
192,64,152799,1,8,0:0:0:0:
192,64,152956,1,0,0:0:0:0:
192,64,153112,1,8,0:0:0:0:
192,64,153268,1,8,0:0:0:0:
192,64,153346,1,0,0:0:0:0:
192,64,153424,1,8,0:0:0:0:
192,64,153581,1,0,0:0:0:0:
192,64,153737,1,8,0:0:0:0:
192,64,153893,1,8,0:0:0:0:
192,64,153971,1,8,0:0:0:0:
192,64,154049,1,0,0:0:0:0:
192,64,154127,1,0,0:0:0:0:
192,64,154206,1,8,0:0:0:0:
192,64,154362,1,0,0:0:0:0:
192,64,154674,1,0,0:0:0:0:
192,64,154831,1,8,0:0:0:0:
192,64,154909,1,0,0:0:0:0:
192,64,154987,1,0,0:0:0:0:
192,64,155065,1,0,0:0:0:0:
192,64,155143,1,8,0:0:0:0:
192,64,155299,1,0,0:0:0:0:
192,64,155456,1,8,0:0:0:0:
192,64,155534,1,8,0:0:0:0:
192,64,155612,1,0,0:0:0:0:
192,64,155768,1,8,0:0:0:0:
192,64,155924,1,0,0:0:0:0:
192,64,156081,1,8,0:0:0:0:
192,64,156159,1,8,0:0:0:0:
192,64,156237,1,8,0:0:0:0:
192,64,156315,1,8,0:0:0:0:
192,64,156393,1,0,0:0:0:0:
192,64,156471,1,0,0:0:0:0:
192,64,156549,1,0,0:0:0:0:
192,64,156706,1,12,0:0:0:0:
256,192,156862,12,0,161549,0:0:0:0:
256,192,161706,5,0,0:0:0:0:
192,128,162643,1,0,0:0:0:0:
160,128,162956,1,8,0:0:0:0:
192,128,163893,1,8,0:0:0:0:
192,128,164206,1,4,0:0:0:0:
192,128,164831,1,4,0:0:0:0:
192,128,165456,1,12,0:0:0:0:
192,128,166081,1,12,0:0:0:0:
192,128,166706,1,4,0:0:0:0:
192,128,167018,1,8,0:0:0:0:
192,128,167174,1,0,0:0:0:0:
192,128,167252,1,8,0:0:0:0:
192,128,167331,1,0,0:0:0:0:
192,128,167487,1,0,0:0:0:0:
192,128,167643,1,8,0:0:0:0:
160,128,167956,1,8,0:0:0:0:
160,128,168034,1,8,0:0:0:0:
160,128,168112,1,8,0:0:0:0:
160,128,168268,1,8,0:0:0:0:
160,128,168346,1,8,0:0:0:0:
160,128,168424,1,0,0:0:0:0:
160,128,168581,1,8,0:0:0:0:
160,128,168659,1,0,0:0:0:0:
160,128,168737,1,0,0:0:0:0:
160,128,168815,1,0,0:0:0:0:
160,128,168893,1,8,0:0:0:0:
160,96,169049,1,0,0:0:0:0:
160,96,169206,1,12,0:0:0:0:
160,64,169518,1,8,0:0:0:0:
160,64,169674,1,0,0:0:0:0:
160,64,169752,1,8,0:0:0:0:
160,64,169831,1,0,0:0:0:0:
160,64,169987,1,0,0:0:0:0:
160,64,170143,1,8,0:0:0:0:
160,64,170456,1,8,0:0:0:0:
160,64,170534,1,8,0:0:0:0:
160,64,170612,1,8,0:0:0:0:
160,64,170768,1,0,0:0:0:0:
160,64,170846,1,0,0:0:0:0:
160,64,170924,1,0,0:0:0:0:
160,64,171081,1,8,0:0:0:0:
160,64,171159,1,8,0:0:0:0:
160,64,171237,1,0,0:0:0:0:
160,64,171315,1,0,0:0:0:0:
160,64,171393,1,8,0:0:0:0:
160,64,171549,1,0,0:0:0:0:
160,64,171706,1,12,0:0:0:0:
160,32,172018,1,8,0:0:0:0:
160,32,172174,1,0,0:0:0:0:
160,32,172252,1,8,0:0:0:0:
160,32,172331,1,0,0:0:0:0:
160,32,172487,1,0,0:0:0:0:
160,32,172643,1,8,0:0:0:0:
160,32,172956,1,8,0:0:0:0:
160,32,173034,1,8,0:0:0:0:
160,32,173112,1,0,0:0:0:0:
160,32,173268,1,8,0:0:0:0:
160,32,173346,1,8,0:0:0:0:
160,32,173424,1,0,0:0:0:0:
160,32,173581,1,8,0:0:0:0:
160,32,173659,1,0,0:0:0:0:
160,32,173737,1,0,0:0:0:0:
160,32,173815,1,0,0:0:0:0:
160,32,173893,1,8,0:0:0:0:
192,64,174206,1,4,0:0:0:0:
192,64,174518,1,8,0:0:0:0:
192,64,174674,1,0,0:0:0:0:
192,64,174752,1,8,0:0:0:0:
192,64,174831,1,0,0:0:0:0:
192,64,174987,1,0,0:0:0:0:
192,64,175143,1,8,0:0:0:0:
192,32,175456,1,8,0:0:0:0:
192,64,175612,1,0,0:0:0:0:
192,64,175690,1,8,0:0:0:0:
192,64,175768,1,0,0:0:0:0:
192,64,175924,1,8,0:0:0:0:
192,64,176081,1,0,0:0:0:0:
192,64,176159,1,8,0:0:0:0:
192,32,176237,1,0,0:0:0:0:
192,32,176315,1,0,0:0:0:0:
192,32,176393,1,8,0:0:0:0:
192,64,176549,1,8,0:0:0:0:
192,64,176706,1,4,0:0:0:0:
192,96,177018,1,0,0:0:0:0:
192,96,177174,1,8,0:0:0:0:
192,96,177331,1,0,0:0:0:0:
192,96,177409,1,0,0:0:0:0:
192,96,177487,1,0,0:0:0:0:
192,96,177643,1,8,0:0:0:0:
192,96,177799,1,8,0:0:0:0:
192,96,177956,1,0,0:0:0:0:
192,96,178034,1,0,0:0:0:0:
192,96,178112,1,8,0:0:0:0:
192,96,178190,1,8,0:0:0:0:
192,96,178268,1,0,0:0:0:0:
192,96,178424,1,8,0:0:0:0:
192,96,178581,1,0,0:0:0:0:
192,96,178659,1,0,0:0:0:0:
192,96,178737,1,8,0:0:0:0:
192,96,178893,1,8,0:0:0:0:
192,96,178971,1,0,0:0:0:0:
192,96,179049,1,8,0:0:0:0:
192,96,179206,1,0,0:0:0:0:
224,128,179518,1,0,0:0:0:0:
192,96,179674,1,8,0:0:0:0:
192,96,179831,1,8,0:0:0:0:
192,96,179909,1,0,0:0:0:0:
192,96,179987,1,8,0:0:0:0:
192,96,180143,1,0,0:0:0:0:
192,96,180299,1,8,0:0:0:0:
192,96,180456,1,8,0:0:0:0:
192,96,180612,1,0,0:0:0:0:
192,96,180768,1,8,0:0:0:0:
192,96,180846,1,0,0:0:0:0:
192,96,180924,1,8,0:0:0:0:
192,96,181081,1,0,0:0:0:0:
192,96,181237,1,8,0:0:0:0:
192,96,181393,1,0,0:0:0:0:
192,96,181471,1,0,0:0:0:0:
192,96,181549,1,0,0:0:0:0:
192,96,181706,1,8,0:0:0:0:
192,96,182018,1,0,0:0:0:0:
192,96,182174,1,8,0:0:0:0:
192,96,182252,1,8,0:0:0:0:
192,96,182331,1,0,0:0:0:0:
192,96,182487,1,0,0:0:0:0:
192,96,182643,1,8,0:0:0:0:
192,96,182799,1,0,0:0:0:0:
192,96,182877,1,0,0:0:0:0:
192,96,182956,1,8,0:0:0:0:
192,96,183034,1,8,0:0:0:0:
192,96,183112,1,0,0:0:0:0:
192,96,183268,1,0,0:0:0:0:
192,96,183424,1,8,0:0:0:0:
192,96,183502,1,8,0:0:0:0:
192,96,183581,1,0,0:0:0:0:
192,96,183737,1,0,0:0:0:0:
192,96,183893,1,8,0:0:0:0:
192,96,184049,1,8,0:0:0:0:
160,32,184206,1,0,0:0:0:0:
160,32,184284,1,0,0:0:0:0:
160,32,184362,1,0,0:0:0:0:
192,96,184518,1,12,0:0:0:0:
160,64,184831,1,0,0:0:0:0:
160,64,184909,1,0,0:0:0:0:
160,64,184987,1,0,0:0:0:0:
160,64,185143,1,12,0:0:0:0:
192,96,185456,1,0,0:0:0:0:
192,96,185612,1,8,0:0:0:0:
192,96,185690,1,8,0:0:0:0:
192,96,185768,1,0,0:0:0:0:
192,96,185924,1,8,0:0:0:0:
192,96,186081,1,0,0:0:0:0:
192,96,186237,1,8,0:0:0:0:
192,96,186315,1,8,0:0:0:0:
192,96,186393,1,8,0:0:0:0:
192,96,186471,1,8,0:0:0:0:
192,96,186549,1,8,0:0:0:0:
192,96,186706,1,4,0:0:0:0:
192,96,186862,1,4,0:0:0:0:
192,96,187956,1,4,0:0:0:0:
192,96,188112,1,4,0:0:0:0:
192,96,188581,1,4,0:0:0:0:
192,96,188737,1,4,0:0:0:0:
192,96,189206,1,12,0:0:0:0:
192,96,189518,1,0,0:0:0:0:
192,96,189831,1,0,0:0:0:0:
192,96,190143,1,0,0:0:0:0:
192,96,190456,1,12,0:0:0:0:
192,96,190768,1,0,0:0:0:0:
192,96,190924,1,12,0:0:0:0:
192,96,191237,1,0,0:0:0:0:
192,96,191393,1,12,0:0:0:0:
160,96,191706,1,8,0:0:0:0:
160,96,191784,1,0,0:0:0:0:
160,96,191862,1,0,0:0:0:0:
160,96,192018,1,8,0:0:0:0:
160,96,192174,1,8,0:0:0:0:
160,96,192252,1,8,0:0:0:0:
160,96,192331,1,0,0:0:0:0:
160,96,192643,1,8,0:0:0:0:
160,96,192799,1,0,0:0:0:0:
160,96,192877,1,0,0:0:0:0:
160,96,192956,1,8,0:0:0:0:
160,96,193034,1,0,0:0:0:0:
160,96,193112,1,0,0:0:0:0:
160,96,193268,1,8,0:0:0:0:
160,96,193424,1,8,0:0:0:0:
160,96,193502,1,8,0:0:0:0:
160,96,193581,1,0,0:0:0:0:
160,96,193737,1,8,0:0:0:0:
160,96,193893,1,0,0:0:0:0:
160,96,193971,1,0,0:0:0:0:
160,96,194049,1,8,0:0:0:0:
160,96,194206,1,0,0:0:0:0:
160,96,194284,1,0,0:0:0:0:
160,96,194362,1,0,0:0:0:0:
192,96,194518,1,8,0:0:0:0:
192,96,194596,1,0,0:0:0:0:
192,96,194674,1,8,0:0:0:0:
192,96,194831,1,0,0:0:0:0:
192,96,194987,1,8,0:0:0:0:
192,96,195143,1,0,0:0:0:0:
192,96,195299,1,8,0:0:0:0:
192,96,195377,1,8,0:0:0:0:
192,96,195456,1,0,0:0:0:0:
192,96,195612,1,8,0:0:0:0:
192,96,195924,1,8,0:0:0:0:
192,96,196081,1,8,0:0:0:0:
192,96,196159,1,0,0:0:0:0:
192,96,196237,1,0,0:0:0:0:
192,96,196315,1,0,0:0:0:0:
192,96,196393,1,8,0:0:0:0:
192,96,196549,1,0,0:0:0:0:
192,96,196706,1,8,0:0:0:0:
192,96,196862,1,0,0:0:0:0:
192,96,196940,1,0,0:0:0:0:
192,96,197018,1,8,0:0:0:0:
192,96,197174,1,0,0:0:0:0:
192,96,197331,1,8,0:0:0:0:
192,96,197409,1,0,0:0:0:0:
192,96,197487,1,0,0:0:0:0:
192,96,197643,1,8,0:0:0:0:
192,64,197956,1,8,0:0:0:0:
192,64,198112,1,0,0:0:0:0:
192,64,198190,1,0,0:0:0:0:
192,64,198268,1,8,0:0:0:0:
192,64,198424,1,0,0:0:0:0:
192,64,198581,1,8,0:0:0:0:
192,64,198659,1,8,0:0:0:0:
192,64,198737,1,0,0:0:0:0:
192,64,198893,1,8,0:0:0:0:
192,64,199206,1,8,0:0:0:0:
192,64,199362,1,0,0:0:0:0:
192,64,199518,1,8,0:0:0:0:
192,64,199596,1,0,0:0:0:0:
192,64,199674,1,8,0:0:0:0:
192,64,199752,1,8,0:0:0:0:
192,64,199831,1,0,0:0:0:0:
192,64,199987,1,8,0:0:0:0:
192,64,200143,1,0,0:0:0:0:
192,64,200221,1,0,0:0:0:0:
192,64,200299,1,8,0:0:0:0:
192,64,200456,1,0,0:0:0:0:
192,64,200612,1,8,0:0:0:0:
192,64,200768,1,8,0:0:0:0:
192,64,200846,1,0,0:0:0:0:
192,64,200924,1,8,0:0:0:0:
192,64,201081,1,0,0:0:0:0:
192,64,201237,1,8,0:0:0:0:
192,64,201393,1,8,0:0:0:0:
192,64,201471,1,8,0:0:0:0:
192,64,201549,1,0,0:0:0:0:
192,64,201627,1,0,0:0:0:0:
192,64,201706,1,8,0:0:0:0:
192,64,201862,1,0,0:0:0:0:
192,64,202174,1,0,0:0:0:0:
192,64,202331,1,8,0:0:0:0:
192,64,202409,1,0,0:0:0:0:
192,64,202487,1,0,0:0:0:0:
192,64,202565,1,0,0:0:0:0:
192,64,202643,1,8,0:0:0:0:
192,64,202799,1,0,0:0:0:0:
192,64,202956,1,8,0:0:0:0:
192,64,203034,1,8,0:0:0:0:
192,64,203112,1,0,0:0:0:0:
192,64,203268,1,8,0:0:0:0:
192,64,203424,1,0,0:0:0:0:
192,64,203502,1,0,0:0:0:0:
192,64,203581,1,8,0:0:0:0:
192,64,203737,1,0,0:0:0:0:
192,64,203893,1,8,0:0:0:0:
192,64,203971,1,8,0:0:0:0:
192,64,204049,1,8,0:0:0:0:
192,64,204127,1,8,0:0:0:0:
192,64,204206,1,0,0:0:0:0:
192,64,204518,1,0,0:0:0:0:
192,64,204674,1,8,0:0:0:0:
192,64,204831,1,0,0:0:0:0:
192,64,204987,1,8,0:0:0:0:
192,64,205143,1,0,0:0:0:0:
192,64,205221,1,0,0:0:0:0:
192,64,205299,1,8,0:0:0:0:
192,64,205456,1,0,0:0:0:0:
192,64,205612,1,8,0:0:0:0:
192,64,205690,1,0,0:0:0:0:
192,64,205768,1,8,0:0:0:0:
192,64,205924,1,0,0:0:0:0:
192,64,206081,1,8,0:0:0:0:
192,64,206159,1,8,0:0:0:0:
192,64,206237,1,8,0:0:0:0:
192,64,206315,1,8,0:0:0:0:
192,64,206393,1,0,0:0:0:0:
192,64,206471,1,0,0:0:0:0:
192,64,206549,1,0,0:0:0:0:
192,96,206706,1,12,0:0:0:0:
192,96,207018,1,0,0:0:0:0:
192,96,207096,1,0,0:0:0:0:
192,96,207174,1,8,0:0:0:0:
192,96,207331,1,0,0:0:0:0:
192,96,207487,1,8,0:0:0:0:
192,96,207643,1,8,0:0:0:0:
192,96,207721,1,8,0:0:0:0:
192,96,207799,1,0,0:0:0:0:
192,96,207877,1,0,0:0:0:0:
192,96,207956,1,8,0:0:0:0:
192,96,208112,1,0,0:0:0:0:
192,96,208268,1,8,0:0:0:0:
192,96,208346,1,8,0:0:0:0:
192,96,208424,1,8,0:0:0:0:
192,96,208581,1,0,0:0:0:0:
192,96,208737,1,8,0:0:0:0:
192,96,208893,1,0,0:0:0:0:
192,96,208971,1,0,0:0:0:0:
192,96,209049,1,0,0:0:0:0:
192,96,209206,1,8,0:0:0:0:
192,96,209284,1,8,0:0:0:0:
192,96,209362,1,0,0:0:0:0:
192,96,209440,1,0,0:0:0:0:
192,96,209518,1,8,0:0:0:0:
192,96,209674,1,0,0:0:0:0:
192,96,209831,1,8,0:0:0:0:
192,96,209909,1,0,0:0:0:0:
192,96,209987,1,8,0:0:0:0:
192,96,210143,1,0,0:0:0:0:
192,96,210221,1,0,0:0:0:0:
192,96,210299,1,8,0:0:0:0:
192,96,210456,1,0,0:0:0:0:
192,96,210612,1,8,0:0:0:0:
160,96,210924,1,0,0:0:0:0:
160,96,211081,1,8,0:0:0:0:
160,96,211159,1,8,0:0:0:0:
160,96,211237,1,0,0:0:0:0:
160,96,211315,1,0,0:0:0:0:
160,96,211393,1,8,0:0:0:0:
160,96,211549,1,0,0:0:0:0:
160,96,211706,1,8,0:0:0:0:
160,96,211784,1,0,0:0:0:0:
160,96,211862,1,0,0:0:0:0:
160,96,212018,1,8,0:0:0:0:
160,96,212174,1,8,0:0:0:0:
160,96,212252,1,8,0:0:0:0:
160,96,212331,1,0,0:0:0:0:
160,96,212643,1,8,0:0:0:0:
160,96,212799,1,0,0:0:0:0:
160,96,212877,1,0,0:0:0:0:
160,96,212956,1,8,0:0:0:0:
160,96,213034,1,0,0:0:0:0:
160,96,213112,1,0,0:0:0:0:
160,96,213268,1,8,0:0:0:0:
160,96,213424,1,8,0:0:0:0:
160,96,213502,1,8,0:0:0:0:
160,96,213581,1,0,0:0:0:0:
160,96,213737,1,8,0:0:0:0:
160,96,213893,1,0,0:0:0:0:
160,96,213971,1,0,0:0:0:0:
160,96,214049,1,8,0:0:0:0:
160,96,214206,1,0,0:0:0:0:
160,96,214284,1,0,0:0:0:0:
160,96,214362,1,0,0:0:0:0:
160,96,214440,1,0,0:0:0:0:
192,96,214518,1,8,0:0:0:0:
192,96,214674,1,8,0:0:0:0:
192,96,214752,1,8,0:0:0:0:
192,96,214831,1,0,0:0:0:0:
192,96,214987,1,8,0:0:0:0:
192,96,215143,1,0,0:0:0:0:
192,96,215299,1,8,0:0:0:0:
192,96,215377,1,0,0:0:0:0:
192,96,215456,1,0,0:0:0:0:
192,96,215612,1,8,0:0:0:0:
192,96,215924,1,8,0:0:0:0:
192,96,216081,1,8,0:0:0:0:
192,96,216159,1,0,0:0:0:0:
192,96,216237,1,0,0:0:0:0:
192,96,216315,1,0,0:0:0:0:
192,96,216393,1,8,0:0:0:0:
192,96,216549,1,0,0:0:0:0:
192,96,216706,1,8,0:0:0:0:
192,96,216862,1,0,0:0:0:0:
192,96,216940,1,0,0:0:0:0:
192,96,217018,1,8,0:0:0:0:
192,96,217174,1,0,0:0:0:0:
192,96,217331,1,8,0:0:0:0:
192,96,217409,1,0,0:0:0:0:
192,96,217487,1,0,0:0:0:0:
192,96,217565,1,0,0:0:0:0:
192,96,217643,1,8,0:0:0:0:
192,64,217956,1,8,0:0:0:0:
192,64,218112,1,0,0:0:0:0:
192,64,218190,1,0,0:0:0:0:
192,64,218268,1,8,0:0:0:0:
192,64,218424,1,0,0:0:0:0:
192,64,218581,1,8,0:0:0:0:
192,64,218659,1,8,0:0:0:0:
192,64,218737,1,0,0:0:0:0:
192,64,218815,1,0,0:0:0:0:
192,64,218893,1,8,0:0:0:0:
192,64,219206,1,8,0:0:0:0:
192,64,219362,1,0,0:0:0:0:
192,64,219518,1,8,0:0:0:0:
192,64,219596,1,0,0:0:0:0:
192,64,219674,1,8,0:0:0:0:
192,64,219752,1,8,0:0:0:0:
192,64,219831,1,0,0:0:0:0:
192,64,219987,1,8,0:0:0:0:
192,64,220143,1,0,0:0:0:0:
192,64,220221,1,0,0:0:0:0:
192,64,220299,1,8,0:0:0:0:
192,64,220456,1,0,0:0:0:0:
192,64,220612,1,8,0:0:0:0:
192,64,220768,1,8,0:0:0:0:
192,64,220846,1,0,0:0:0:0:
192,64,220924,1,8,0:0:0:0:
192,64,221081,1,0,0:0:0:0:
192,64,221237,1,8,0:0:0:0:
192,64,221393,1,8,0:0:0:0:
192,64,221471,1,8,0:0:0:0:
192,64,221549,1,0,0:0:0:0:
192,64,221627,1,0,0:0:0:0:
192,64,221706,1,8,0:0:0:0:
192,64,221862,1,0,0:0:0:0:
192,64,222174,1,0,0:0:0:0:
192,64,222331,1,8,0:0:0:0:
192,64,222409,1,0,0:0:0:0:
192,64,222487,1,0,0:0:0:0:
192,64,222565,1,0,0:0:0:0:
192,64,222643,1,8,0:0:0:0:
192,64,222799,1,0,0:0:0:0:
192,64,222956,1,8,0:0:0:0:
192,64,223034,1,8,0:0:0:0:
192,64,223112,1,0,0:0:0:0:
192,64,223268,1,8,0:0:0:0:
192,64,223424,1,0,0:0:0:0:
192,64,223581,1,8,0:0:0:0:
192,64,223659,1,8,0:0:0:0:
192,64,223737,1,8,0:0:0:0:
192,64,223815,1,8,0:0:0:0:
192,64,223893,1,0,0:0:0:0:
192,64,223971,1,0,0:0:0:0:
192,64,224049,1,0,0:0:0:0:
192,64,224206,1,12,0:0:0:0:
192,64,224518,1,0,0:0:0:0:
192,64,224674,1,8,0:0:0:0:
192,64,224752,1,8,0:0:0:0:
192,64,224831,1,0,0:0:0:0:
192,64,224987,1,8,0:0:0:0:
192,64,225143,1,0,0:0:0:0:
192,64,225221,1,0,0:0:0:0:
192,64,225299,1,8,0:0:0:0:
192,64,225456,1,0,0:0:0:0:
192,64,225612,1,8,0:0:0:0:
192,64,225690,1,0,0:0:0:0:
192,64,225768,1,8,0:0:0:0:
192,64,225924,1,0,0:0:0:0:
192,64,226081,1,8,0:0:0:0:
192,64,226159,1,8,0:0:0:0:
192,64,226237,1,8,0:0:0:0:
192,64,226315,1,8,0:0:0:0:
192,64,226393,1,0,0:0:0:0:
192,64,226471,1,0,0:0:0:0:
192,64,226549,1,0,0:0:0:0:
192,64,226706,1,12,0:0:0:0:
192,64,227018,1,0,0:0:0:0:
192,64,227174,1,8,0:0:0:0:
192,64,227331,1,0,0:0:0:0:
192,64,227409,1,0,0:0:0:0:
192,64,227487,1,8,0:0:0:0:
192,64,227643,1,8,0:0:0:0:
192,64,227721,1,0,0:0:0:0:
192,64,227799,1,8,0:0:0:0:
192,64,227956,1,0,0:0:0:0:
192,64,228112,1,8,0:0:0:0:
192,64,228268,1,0,0:0:0:0:
192,64,228346,1,0,0:0:0:0:
192,64,228424,1,0,0:0:0:0:
192,64,228581,1,8,0:0:0:0:
192,64,228659,1,8,0:0:0:0:
192,64,228737,1,8,0:0:0:0:
192,64,228815,1,8,0:0:0:0:
192,64,228893,1,0,0:0:0:0:
192,64,228971,1,0,0:0:0:0:
192,64,229049,1,0,0:0:0:0:
192,64,229206,1,12,0:0:0:0:
192,64,229518,1,8,0:0:0:0:
192,64,229674,1,0,0:0:0:0:
192,64,229752,1,0,0:0:0:0:
192,64,229831,1,8,0:0:0:0:
192,64,229987,1,0,0:0:0:0:
192,64,230143,1,8,0:0:0:0:
192,64,230299,1,0,0:0:0:0:
192,64,230377,1,0,0:0:0:0:
192,64,230456,1,8,0:0:0:0:
192,64,230612,1,0,0:0:0:0:
192,64,230768,1,8,0:0:0:0:
192,64,230924,1,8,0:0:0:0:
192,64,231002,1,0,0:0:0:0:
192,64,231081,1,8,0:0:0:0:
192,64,231237,1,0,0:0:0:0:
192,64,231393,1,8,0:0:0:0:
192,64,231549,1,8,0:0:0:0:
192,64,231706,1,0,0:0:0:0:
192,64,232018,1,8,0:0:0:0:
192,64,232174,1,0,0:0:0:0:
192,64,232331,1,8,0:0:0:0:
192,64,232409,1,8,0:0:0:0:
192,64,232487,1,8,0:0:0:0:
192,64,232643,1,0,0:0:0:0:
192,64,232799,1,8,0:0:0:0:
192,64,232956,1,0,0:0:0:0:
192,64,233034,1,0,0:0:0:0:
192,64,233112,1,0,0:0:0:0:
192,64,233268,1,8,0:0:0:0:
192,64,233424,1,8,0:0:0:0:
192,64,233502,1,0,0:0:0:0:
192,64,233581,1,8,0:0:0:0:
192,64,233737,1,0,0:0:0:0:
192,64,233893,1,8,0:0:0:0:
192,64,234049,1,0,0:0:0:0:
192,64,234206,1,8,0:0:0:0:
192,64,234518,1,8,0:0:0:0:
192,64,234674,1,0,0:0:0:0:
192,64,234831,1,8,0:0:0:0:
192,64,234909,1,0,0:0:0:0:
192,64,234987,1,8,0:0:0:0:
192,64,235143,1,0,0:0:0:0:
192,64,235299,1,8,0:0:0:0:
192,64,235456,1,0,0:0:0:0:
192,64,235534,1,0,0:0:0:0:
192,64,235612,1,0,0:0:0:0:
192,64,235768,1,8,0:0:0:0:
192,64,235924,1,0,0:0:0:0:
192,64,236081,1,8,0:0:0:0:
192,64,236159,1,8,0:0:0:0:
192,64,236237,1,0,0:0:0:0:
192,64,236315,1,0,0:0:0:0:
192,64,236393,1,8,0:0:0:0:
192,64,236549,1,0,0:0:0:0:
192,64,236706,1,8,0:0:0:0:
192,64,237018,1,8,0:0:0:0:
192,64,237174,1,0,0:0:0:0:
192,64,237331,1,8,0:0:0:0:
192,64,237487,1,0,0:0:0:0:
192,64,237565,1,8,0:0:0:0:
192,64,237643,1,0,0:0:0:0:
192,64,237799,1,8,0:0:0:0:
192,64,237956,1,0,0:0:0:0:
192,64,238034,1,0,0:0:0:0:
192,64,238112,1,0,0:0:0:0:
192,64,238268,1,8,0:0:0:0:
192,64,238424,1,0,0:0:0:0:
192,64,238581,1,8,0:0:0:0:
192,64,238659,1,8,0:0:0:0:
192,64,238737,1,8,0:0:0:0:
192,64,238815,1,8,0:0:0:0:
192,64,238893,1,0,0:0:0:0:
192,64,238971,1,0,0:0:0:0:
192,64,239049,1,0,0:0:0:0:
192,64,239206,1,12,0:0:0:0:
192,64,239518,1,0,0:0:0:0:
192,64,239674,1,8,0:0:0:0:
192,64,239752,1,8,0:0:0:0:
192,64,239831,1,0,0:0:0:0:
192,64,239987,1,8,0:0:0:0:
192,64,240143,1,0,0:0:0:0:
192,64,240299,1,0,0:0:0:0:
192,64,240377,1,0,0:0:0:0:
192,64,240456,1,8,0:0:0:0:
192,64,240612,1,0,0:0:0:0:
192,64,240768,1,8,0:0:0:0:
192,64,240924,1,8,0:0:0:0:
192,64,241002,1,0,0:0:0:0:
192,64,241081,1,8,0:0:0:0:
192,64,241159,1,8,0:0:0:0:
192,64,241237,1,0,0:0:0:0:
192,64,241393,1,8,0:0:0:0:
192,64,241549,1,8,0:0:0:0:
192,64,241706,1,0,0:0:0:0:
192,64,242018,1,0,0:0:0:0:
192,64,242174,1,8,0:0:0:0:
192,64,242252,1,0,0:0:0:0:
192,64,242331,1,8,0:0:0:0:
192,64,242487,1,0,0:0:0:0:
192,64,242643,1,8,0:0:0:0:
192,64,242799,1,0,0:0:0:0:
192,64,242956,1,8,0:0:0:0:
192,64,243034,1,8,0:0:0:0:
192,64,243112,1,0,0:0:0:0:
192,64,243190,1,0,0:0:0:0:
192,64,243268,1,8,0:0:0:0:
192,64,243424,1,8,0:0:0:0:
192,64,243502,1,0,0:0:0:0:
192,64,243581,1,8,0:0:0:0:
192,64,243737,1,0,0:0:0:0:
192,64,243893,1,8,0:0:0:0:
192,64,244049,1,8,0:0:0:0:
192,64,244206,1,0,0:0:0:0:
192,64,244518,1,0,0:0:0:0:
201,68,244596,1,0,0:0:0:0:
192,64,244674,1,8,0:0:0:0:
192,64,244831,1,0,0:0:0:0:
192,64,244987,1,8,0:0:0:0:
192,64,245143,1,8,0:0:0:0:
192,64,245221,1,0,0:0:0:0:
192,64,245299,1,8,0:0:0:0:
192,64,245456,1,0,0:0:0:0:
192,64,245612,1,8,0:0:0:0:
192,64,245768,1,0,0:0:0:0:
192,64,245846,1,0,0:0:0:0:
192,64,245924,1,8,0:0:0:0:
192,64,246081,1,0,0:0:0:0:
192,64,246237,1,8,0:0:0:0:
192,64,246393,1,8,0:0:0:0:
192,64,246471,1,0,0:0:0:0:
192,64,246549,1,8,0:0:0:0:
192,64,246706,1,0,0:0:0:0:
192,64,246862,1,8,0:0:0:0:
192,64,247018,1,0,0:0:0:0:
192,64,247096,1,0,0:0:0:0:
192,64,247174,1,8,0:0:0:0:
192,64,247252,1,8,0:0:0:0:
192,64,247331,1,0,0:0:0:0:
192,64,247487,1,8,0:0:0:0:
192,64,247643,1,8,0:0:0:0:
192,64,247721,1,0,0:0:0:0:
192,64,247799,1,8,0:0:0:0:
192,64,247956,1,0,0:0:0:0:
192,64,248112,1,8,0:0:0:0:
192,64,248268,1,0,0:0:0:0:
192,64,248346,1,0,0:0:0:0:
192,64,248424,1,8,0:0:0:0:
192,64,248581,1,8,0:0:0:0:
192,64,248659,1,8,0:0:0:0:
192,64,248737,1,8,0:0:0:0:
192,64,248815,1,8,0:0:0:0:
192,64,248893,1,0,0:0:0:0:
192,64,248971,1,0,0:0:0:0:
192,64,249049,1,0,0:0:0:0:
192,64,249206,1,12,0:0:0:0:
256,192,249362,12,0,257018,0:0:0:0:
