osu file format v14

[General]
AudioFilename: audio.mp3
AudioLeadIn: 0
PreviewTime: 63635
Countdown: 0
SampleSet: Soft
StackLeniency: 0.7
Mode: 0
LetterboxInBreaks: 0
EpilepsyWarning: 1
WidescreenStoryboard: 1

[Editor]
DistanceSpacing: 1
BeatDivisor: 4
GridSize: 16
TimelineZoom: 1.6

[Metadata]
Title:Never Count On Me (Cut Ver.)
TitleUnicode:Never Count On Me (Cut Ver.)
Artist:Haywyre
ArtistUnicode:Haywyre
Creator:Tachibana_
Version:Hard
Source:
Tags:electronic featured artist english fa Ryxliee mrforse -Magic- Syodou
BeatmapID:3427196
BeatmapSetID:1671815

[Difficulty]
HPDrainRate:4
CircleSize:3.5
OverallDifficulty:6
ApproachRate:8
SliderMultiplier:1.2
SliderTickRate:1

[Events]
//Background and Video events
0,0,"bg.jpg",0,0
//Break Periods
//Storyboard Layer 0 (Background)
//Storyboard Layer 1 (Fail)
//Storyboard Layer 2 (Pass)
//Storyboard Layer 3 (Foreground)
Sprite,Foreground,Centre,"sb\hl.png",0,0 M,0,19385,,90,179 C,0,19385,,104,137,249 F,0,19385,19468,0,1 S,0,19385,19718,0.25,0.5 P,0,19385,19718,A F,0,19468,19718,0.8,0 M,0,19885,,98,342 C,0,19885,,104,137,249 F,0,19885,19968,0,1 S,0,19885,20218,0.25,0.5 P,0,19885,20218,A F,0,19968,20218,0.8,0 M,0,20385,,261,334 C,0,20385,,104,137,249 F,0,20385,20468,0,1 S,0,20385,20718,0.25,0.5 P,0,20385,20718,A F,0,20468,20718,0.8,0 M,0,20885,,252,171 C,0,20885,,104,137,249 F,0,20885,20968,0,1 S,0,20885,21218,0.25,0.5 P,0,20885,21218,A F,0,20968,21218,0.8,0 M,0,21218,,329.6021,159.1858 C,0,21218,,104,137,249 F,0,21218,21301,0,1 S,0,21218,21551,0.3,0.6 P,0,21218,21551,A F,0,21301,21551,1,0
Sprite,Foreground,Centre,"sb\hl.png",0,0 M,0,19552,,90,179 C,0,19552,,104,137,249 F,0,19552,19635,0,1 S,0,19552,19885,0.25,0.5 P,0,19552,19885,A F,0,19635,19885,0.8,0 M,0,20052,,98,342 C,0,20052,,104,137,249 F,0,20052,20135,0,1 S,0,20052,20385,0.25,0.5 P,0,20052,20385,A F,0,20135,20385,0.8,0 M,0,20552,,261,334 C,0,20552,,104,137,249 F,0,20552,20635,0,1 S,0,20552,20885,0.25,0.5 P,0,20552,20885,A F,0,20635,20885,0.8,0 M,0,21052,,252,171 C,0,21052,,104,137,249 F,0,21052,21135,0,1 S,0,21052,21385,0.25,0.5 P,0,21052,21385,A F,0,21135,21385,0.8,0
Sprite,Foreground,Centre,"sb\hl.png",0,0 M,0,21052,,252,171 C,0,21052,,104,137,249 F,0,21052,21135,0,1 S,0,21052,21385,0.3,0.6 P,0,21052,21385,A F,0,21135,21385,1,0
Sprite,Foreground,Centre,"sb\hl.png",0,0 M,0,21079,,264.9246,168.3175 C,0,21079,,104,137,249 F,0,21079,21163,0,1 S,0,21079,21413,0.3,0.6 P,0,21079,21413,A F,0,21163,21413,1,0
Sprite,Foreground,Centre,"sb\hl.png",0,0 M,0,21107,,277.8491,165.6351 C,0,21107,,104,137,249 F,0,21107,21190,0,1 S,0,21107,21440,0.3,0.6 P,0,21107,21440,A F,0,21190,21440,1,0
Sprite,Foreground,Centre,"sb\hl.png",0,0 M,0,21135,,290.7737,162.9526 C,0,21135,,104,137,249 F,0,21135,21218,0,1 S,0,21135,21468,0.3,0.6 P,0,21135,21468,A F,0,21218,21468,1,0
Sprite,Foreground,Centre,"sb\hl.png",0,0 M,0,21163,,303.6983,160.2702 C,0,21163,,104,137,249 F,0,21163,21246,0,1 S,0,21163,21496,0.3,0.6 P,0,21163,21496,A F,0,21246,21496,1,0
Sprite,Foreground,Centre,"sb\hl.png",0,0 M,0,21190,,316.6759,161.8602 C,0,21190,,104,137,249 F,0,21190,21274,0,1 S,0,21190,21524,0.3,0.6 P,0,21190,21524,A F,0,21274,21524,1,0
Sprite,Foreground,Centre,"sb\hl.png",0,0 M,0,21246,,342.5284,156.5114 C,0,21246,,104,137,249 F,0,21246,21329,0,1 S,0,21246,21579,0.3,0.6 P,0,21246,21579,A F,0,21329,21579,1,0
Sprite,Foreground,Centre,"sb\hl.png",0,0 M,0,21274,,355.4546,153.837 C,0,21274,,104,137,249 F,0,21274,21357,0,1 S,0,21274,21607,0.3,0.6 P,0,21274,21607,A F,0,21357,21607,1,0
Sprite,Foreground,Centre,"sb\hl.png",0,0 M,0,21385,,410,141 C,0,21385,,104,137,249 F,0,21385,21468,0,1 S,0,21385,21718,0.25,0.5 P,0,21385,21718,A F,0,21468,21718,0.8,0
Sprite,Foreground,Centre,"sb\hl.png",0,0 M,0,64718,,411,362 C,0,64718,,104,137,249 F,0,64718,64801,0,1 S,0,64718,65051,0.25,0.5 P,0,64718,65051,A F,0,64801,65051,0.8,0 M,0,65052,,419,268 C,0,65052,,104,137,249 F,0,65052,65135,0,1 S,0,65052,65385,0.25,0.5 P,0,65052,65385,A F,0,65135,65385,0.8,0 M,0,65718,,374,66 C,0,65718,,252,247,199 F,0,65718,65801,0,1 S,0,65718,66051,0.25,0.5 P,0,65718,66051,A F,0,65801,66051,0.8,0 M,0,66052,,264,87 C,0,66052,,252,247,199 F,0,66052,66135,0,1 S,0,66052,66385,0.25,0.5 P,0,66052,66385,A F,0,66135,66385,0.8,0 M,0,66718,,70,64 C,0,66718,,252,247,199 F,0,66718,66801,0,1 S,0,66718,67051,0.25,0.5 P,0,66718,67051,A F,0,66801,67051,0.8,0 M,0,67051,,80.79655,173.8708 C,0,67051,,252,247,199 F,0,67051,67134,0,1 S,0,67051,67384,0.3,0.6 P,0,67051,67384,A F,0,67134,67384,1,0
Sprite,Foreground,Centre,"sb\hl.png",0,0 M,0,64718,,411,362 C,0,64718,,104,137,249 F,0,64718,64801,0,1 S,0,64718,65051,0.3,0.6 P,0,64718,65051,A F,0,64801,65051,1,0 M,0,65052,,419,268 C,0,65052,,104,137,249 F,0,65052,65135,0,1 S,0,65052,65385,0.3,0.6 P,0,65052,65385,A F,0,65135,65385,1,0 M,0,65718,,374,66 C,0,65718,,252,247,199 F,0,65718,65801,0,1 S,0,65718,66051,0.3,0.6 P,0,65718,66051,A F,0,65801,66051,1,0 M,0,66052,,264,87 C,0,66052,,252,247,199 F,0,66052,66135,0,1 S,0,66052,66385,0.3,0.6 P,0,66052,66385,A F,0,66135,66385,1,0 M,0,66718,,70,64 C,0,66718,,252,247,199 F,0,66718,66801,0,1 S,0,66718,67051,0.3,0.6 P,0,66718,67051,A F,0,66801,67051,1,0 M,0,67079,,81.69627,183.0267 C,0,67079,,252,247,199 F,0,67079,67162,0,1 S,0,67079,67412,0.3,0.6 P,0,67079,67412,A F,0,67162,67412,1,0
Sprite,Foreground,Centre,"sb\hl.png",0,0 M,0,64745,,402.438,354.8796 C,0,64745,,104,137,249 F,0,64745,64829,0,1 S,0,64745,65079,0.3,0.6 P,0,64745,65079,A F,0,64829,65079,1,0 M,0,65079,,430.1217,268.5556 C,0,65079,,104,137,249 F,0,65079,65163,0,1 S,0,65079,65413,0.3,0.6 P,0,65079,65413,A F,0,65163,65413,1,0 M,0,65745,,364.5675,60.07345 C,0,65745,,252,247,199 F,0,65745,65829,0,1 S,0,65745,66079,0.3,0.6 P,0,65745,66079,A F,0,65829,66079,1,0 M,0,66079,,264.5556,98.1217 C,0,66079,,252,247,199 F,0,66079,66163,0,1 S,0,66079,66413,0.3,0.6 P,0,66079,66413,A F,0,66163,66413,1,0 M,0,66745,,70.89971,73.1559 C,0,66745,,252,247,199 F,0,66745,66829,0,1 S,0,66745,67079,0.3,0.6 P,0,66745,67079,A F,0,66829,67079,1,0 M,0,67106,,82.59598,192.1826 C,0,67106,,252,247,199 F,0,67106,67190,0,1 S,0,67106,67440,0.3,0.6 P,0,67106,67440,A F,0,67190,67440,1,0
Sprite,Foreground,Centre,"sb\hl.png",0,0 M,0,64773,,395.273,346.389 C,0,64773,,104,137,249 F,0,64773,64856,0,1 S,0,64773,65106,0.3,0.6 P,0,64773,65106,A F,0,64856,65106,1,0 M,0,65107,,441.1387,267.1395 C,0,65107,,104,137,249 F,0,65107,65190,0,1 S,0,65107,65440,0.3,0.6 P,0,65107,65440,A F,0,65190,65440,1,0 M,0,65773,,354.2855,55.85444 C,0,65773,,252,247,199 F,0,65773,65856,0,1 S,0,65773,66106,0.3,0.6 P,0,65773,66106,A F,0,65856,66106,1,0 M,0,66107,,263.1395,109.1387 C,0,66107,,252,247,199 F,0,66107,66190,0,1 S,0,66107,66440,0.3,0.6 P,0,66107,66440,A F,0,66190,66440,1,0 M,0,66773,,71.79942,82.3118 C,0,66773,,252,247,199 F,0,66773,66856,0,1 S,0,66773,67106,0.3,0.6 P,0,66773,67106,A F,0,66856,67106,1,0 M,0,67134,,83.4957,201.3385 C,0,67134,,252,247,199 F,0,67134,67218,0,1 S,0,67134,67468,0.3,0.6 P,0,67134,67468,A F,0,67218,67468,1,0
Sprite,Foreground,Centre,"sb\hl.png",0,0 M,0,64801,,389.3948,336.9513 C,0,64801,,104,137,249 F,0,64801,64884,0,1 S,0,64801,65134,0.3,0.6 P,0,64801,65134,A F,0,64884,65134,1,0 M,0,65135,,451.9205,264.2993 C,0,65135,,104,137,249 F,0,65135,65218,0,1 S,0,65135,65468,0.3,0.6 P,0,65135,65468,A F,0,65218,65468,1,0 M,0,65801,,343.5185,52.9553 C,0,65801,,252,247,199 F,0,65801,65884,0,1 S,0,65801,66134,0.3,0.6 P,0,65801,66134,A F,0,65884,66134,1,0 M,0,66135,,260.2993,119.9205 C,0,66135,,252,247,199 F,0,66135,66218,0,1 S,0,66135,66468,0.3,0.6 P,0,66135,66468,A F,0,66218,66468,1,0 M,0,66801,,72.69914,91.4677 C,0,66801,,252,247,199 F,0,66801,66884,0,1 S,0,66801,67134,0.3,0.6 P,0,66801,67134,A F,0,66884,67134,1,0 M,0,67162,,84.3954,210.4944 C,0,67162,,252,247,199 F,0,67162,67245,0,1 S,0,67162,67495,0.3,0.6 P,0,67162,67495,A F,0,67245,67495,1,0
Sprite,Foreground,Centre,"sb\hl.png",0,0 M,0,64829,,386.0005,326.3597 C,0,64829,,104,137,249 F,0,64829,64912,0,1 S,0,64829,65162,0.3,0.6 P,0,64829,65162,A F,0,64912,65162,1,0 M,0,65163,,461.5824,258.7714 C,0,65163,,104,137,249 F,0,65163,65246,0,1 S,0,65163,65496,0.3,0.6 P,0,65163,65496,A F,0,65246,65496,1,0 M,0,65829,,332.3839,52.83381 C,0,65829,,252,247,199 F,0,65829,65912,0,1 S,0,65829,66162,0.3,0.6 P,0,65829,66162,A F,0,65912,66162,1,0 M,0,66163,,254.7714,129.5824 C,0,66163,,252,247,199 F,0,66163,66246,0,1 S,0,66163,66496,0.3,0.6 P,0,66163,66496,A F,0,66246,66496,1,0 M,0,66829,,73.59885,100.6236 C,0,66829,,252,247,199 F,0,66829,66912,0,1 S,0,66829,67162,0.3,0.6 P,0,66829,67162,A F,0,66912,67162,1,0 M,0,67190,,85.29512,219.6503 C,0,67190,,252,247,199 F,0,67190,67273,0,1 S,0,67190,67523,0.3,0.6 P,0,67190,67523,A F,0,67273,67523,1,0
Sprite,Foreground,Centre,"sb\hl.png",0,0 M,0,64856,,384.5179,315.3555 C,0,64856,,104,137,249 F,0,64856,64940,0,1 S,0,64856,65190,0.3,0.6 P,0,64856,65190,A F,0,64940,65190,1,0 M,0,65190,,470.0944,251.6388 C,0,65190,,104,137,249 F,0,65190,65274,0,1 S,0,65190,65524,0.3,0.6 P,0,65190,65524,A F,0,65274,65524,1,0 M,0,65856,,321.4158,54.61183 C,0,65856,,252,247,199 F,0,65856,65940,0,1 S,0,65856,66190,0.3,0.6 P,0,65856,66190,A F,0,65940,66190,1,0 M,0,66190,,247.6388,138.0944 C,0,66190,,252,247,199 F,0,66190,66274,0,1 S,0,66190,66524,0.3,0.6 P,0,66190,66524,A F,0,66274,66524,1,0 M,0,66856,,74.49857,109.7795 C,0,66856,,252,247,199 F,0,66856,66940,0,1 S,0,66856,67190,0.3,0.6 P,0,66856,67190,A F,0,66940,67190,1,0
Sprite,Foreground,Centre,"sb\hl.png",0,0 M,0,64884,,384.8185,304.274 C,0,64884,,104,137,249 F,0,64884,64968,0,1 S,0,64884,65218,0.3,0.6 P,0,64884,65218,A F,0,64968,65218,1,0 M,0,65218,,477.5991,243.4097 C,0,65218,,104,137,249 F,0,65218,65302,0,1 S,0,65218,65552,0.3,0.6 P,0,65218,65552,A F,0,65302,65552,1,0 M,0,65884,,310.7509,57.81873 C,0,65884,,252,247,199 F,0,65884,65968,0,1 S,0,65884,66218,0.3,0.6 P,0,65884,66218,A F,0,65968,66218,1,0 M,0,66218,,239.4097,145.5991 C,0,66218,,252,247,199 F,0,66218,66302,0,1 S,0,66218,66552,0.3,0.6 P,0,66218,66552,A F,0,66302,66552,1,0 M,0,66884,,75.39828,118.9354 C,0,66884,,252,247,199 F,0,66884,66968,0,1 S,0,66884,67218,0.3,0.6 P,0,66884,67218,A F,0,66968,67218,1,0
Sprite,Foreground,Centre,"sb\hl.png",0,0 M,0,64912,,387.6413,293.5267 C,0,64912,,104,137,249 F,0,64912,64995,0,1 S,0,64912,65245,0.3,0.6 P,0,64912,65245,A F,0,64995,65245,1,0 M,0,65246,,482.7525,233.5473 C,0,65246,,104,137,249 F,0,65246,65329,0,1 S,0,65246,65579,0.3,0.6 P,0,65246,65579,A F,0,65329,65579,1,0 M,0,65912,,301.199,63.53349 C,0,65912,,252,247,199 F,0,65912,65995,0,1 S,0,65912,66245,0.3,0.6 P,0,65912,66245,A F,0,65995,66245,1,0 M,0,66246,,229.5473,150.7525 C,0,66246,,252,247,199 F,0,66246,66329,0,1 S,0,66246,66579,0.3,0.6 P,0,66246,66579,A F,0,66329,66579,1,0 M,0,66912,,76.29799,128.0913 C,0,66912,,252,247,199 F,0,66912,66995,0,1 S,0,66912,67245,0.3,0.6 P,0,66912,67245,A F,0,66995,67245,1,0
Sprite,Foreground,Centre,"sb\hl.png",0,0 M,0,64940,,391.9406,283.2623 C,0,64940,,104,137,249 F,0,64940,65023,0,1 S,0,64940,65273,0.3,0.6 P,0,64940,65273,A F,0,65023,65273,1,0 M,0,65274,,486.0732,222.9523 C,0,65274,,104,137,249 F,0,65274,65357,0,1 S,0,65274,65607,0.3,0.6 P,0,65274,65607,A F,0,65357,65607,1,0 M,0,65940,,292.7802,70.78147 C,0,65940,,252,247,199 F,0,65940,66023,0,1 S,0,65940,66273,0.3,0.6 P,0,65940,66273,A F,0,66023,66273,1,0 M,0,66274,,218.9523,154.0732 C,0,66274,,252,247,199 F,0,66274,66357,0,1 S,0,66274,66607,0.3,0.6 P,0,66274,66607,A F,0,66357,66607,1,0 M,0,66940,,77.1977,137.2472 C,0,66940,,252,247,199 F,0,66940,67023,0,1 S,0,66940,67273,0.3,0.6 P,0,66940,67273,A F,0,67023,67273,1,0
Sprite,Foreground,Centre,"sb\hl.png",0,0 M,0,65385,,508,199 C,0,65385,,104,137,249 F,0,65385,65468,0,1 S,0,65385,65718,0.25,0.5 P,0,65385,65718,A F,0,65468,65718,0.8,0 M,0,66385,,192,178 C,0,66385,,252,247,199 F,0,66385,66468,0,1 S,0,66385,66718,0.25,0.5 P,0,66385,66718,A F,0,66468,66718,0.8,0 M,0,66968,,78.09741,146.4031 C,0,66968,,252,247,199 F,0,66968,67051,0,1 S,0,66968,67301,0.3,0.6 P,0,66968,67301,A F,0,67051,67301,1,0
Sprite,Foreground,Centre,"sb\hl.png",0,0 M,0,66995,,78.99713,155.559 C,0,66995,,252,247,199 F,0,66995,67079,0,1 S,0,66995,67329,0.3,0.6 P,0,66995,67329,A F,0,67079,67329,1,0
Sprite,Foreground,Centre,"sb\hl.png",0,0 M,0,67023,,79.89684,164.7149 C,0,67023,,252,247,199 F,0,67023,67106,0,1 S,0,67023,67356,0.3,0.6 P,0,67023,67356,A F,0,67106,67356,1,0
Sprite,Foreground,Centre,"sb\hl.png",0,0 M,0,74052,,169,428 C,0,74052,,234,119,214 F,0,74052,74135,0,1 S,0,74052,74385,0.25,0.5 P,0,74052,74385,A F,0,74135,74385,0.8,0 M,0,74552,,284,335 C,0,74552,,234,119,214 F,0,74552,74635,0,1 S,0,74552,74885,0.25,0.5 P,0,74552,74885,A F,0,74635,74885,0.8,0 M,0,75052,,407,238 C,0,75052,,234,119,214 F,0,75052,75135,0,1 S,0,75052,75385,0.25,0.5 P,0,75052,75385,A F,0,75135,75385,0.8,0
Sprite,Foreground,Centre,"sb\hl.png",0,0 M,0,74052,,169,428 C,0,74052,,234,119,214 F,0,74052,74135,0,1 S,0,74052,74385,0.3,0.6 P,0,74052,74385,A F,0,74135,74385,1,0 M,0,74718,,362,369 C,0,74718,,234,119,214 F,0,74718,74801,0,1 S,0,74718,75051,0.25,0.5 P,0,74718,75051,A F,0,74801,75051,0.8,0 M,0,75052,,407,238 C,0,75052,,234,119,214 F,0,75052,75135,0,1 S,0,75052,75385,0.3,0.6 P,0,75052,75385,A F,0,75135,75385,1,0
Sprite,Foreground,Centre,"sb\hl.png",0,0 M,0,74079,,180.9897,429.7677 C,0,74079,,234,119,214 F,0,74079,74163,0,1 S,0,74079,74413,0.3,0.6 P,0,74079,74413,A F,0,74163,74413,1,0 M,0,74718,,362,369 C,0,74718,,234,119,214 F,0,74718,74801,0,1 S,0,74718,75051,0.3,0.6 P,0,74718,75051,A F,0,74801,75051,1,0 M,0,75079,,404.9771,229.0251 C,0,75079,,234,119,214 F,0,75079,75163,0,1 S,0,75079,75413,0.3,0.6 P,0,75079,75413,A F,0,75163,75413,1,0
Sprite,Foreground,Centre,"sb\hl.png",0,0 M,0,74107,,193.0686,429.2592 C,0,74107,,234,119,214 F,0,74107,74190,0,1 S,0,74107,74440,0.3,0.6 P,0,74107,74440,A F,0,74190,74440,1,0 M,0,74745,,363.6769,358.9388 C,0,74745,,234,119,214 F,0,74745,74829,0,1 S,0,74745,75079,0.3,0.6 P,0,74745,75079,A F,0,74829,75079,1,0 M,0,75107,,402.973,220.046 C,0,75107,,234,119,214 F,0,75107,75190,0,1 S,0,75107,75440,0.3,0.6 P,0,75107,75440,A F,0,75190,75440,1,0
Sprite,Foreground,Centre,"sb\hl.png",0,0 M,0,74135,,204.8568,426.6828 C,0,74135,,234,119,214 F,0,74135,74218,0,1 S,0,74135,74468,0.3,0.6 P,0,74135,74468,A F,0,74218,74468,1,0 M,0,74773,,365.3537,348.8776 C,0,74773,,234,119,214 F,0,74773,74856,0,1 S,0,74773,75106,0.3,0.6 P,0,74773,75106,A F,0,74856,75106,1,0 M,0,75135,,400.9883,211.0628 C,0,75135,,234,119,214 F,0,75135,75218,0,1 S,0,75135,75468,0.3,0.6 P,0,75135,75468,A F,0,75218,75468,1,0
Sprite,Foreground,Centre,"sb\hl.png",0,0 M,0,74163,,215.6759,421.2776 C,0,74163,,234,119,214 F,0,74163,74246,0,1 S,0,74163,74496,0.3,0.6 P,0,74163,74496,A F,0,74246,74496,1,0 M,0,74801,,367.0833,338.8335 C,0,74801,,234,119,214 F,0,74801,74884,0,1 S,0,74801,75134,0.3,0.6 P,0,74801,75134,A F,0,74884,75134,1,0 M,0,75163,,399.0219,202.0753 C,0,75163,,234,119,214 F,0,75163,75246,0,1 S,0,75163,75496,0.3,0.6 P,0,75163,75496,A F,0,75246,75496,1,0
Sprite,Foreground,Centre,"sb\hl.png",0,0 M,0,74190,,225.4679,414.1912 C,0,74190,,234,119,214 F,0,74190,74274,0,1 S,0,74190,74524,0.3,0.6 P,0,74190,74524,A F,0,74274,74524,1,0 M,0,74829,,370.2272,329.2147 C,0,74829,,234,119,214 F,0,74829,74912,0,1 S,0,74829,75162,0.3,0.6 P,0,74829,75162,A F,0,74912,75162,1,0 M,0,75190,,397.075,193.0838 C,0,75190,,234,119,214 F,0,75190,75274,0,1 S,0,75190,75524,0.3,0.6 P,0,75190,75524,A F,0,75274,75524,1,0
Sprite,Foreground,Centre,"sb\hl.png",0,0 M,0,74385,,284,335 C,0,74385,,234,119,214 F,0,74385,74468,0,1 S,0,74385,74718,0.25,0.5 P,0,74385,74718,A F,0,74468,74718,0.8,0 M,0,74856,,372.3437,319.2367 C,0,74856,,234,119,214 F,0,74856,74940,0,1 S,0,74856,75190,0.3,0.6 P,0,74856,75190,A F,0,74940,75190,1,0
Sprite,Foreground,Centre,"sb\hl.png",0,0 M,0,81385,,183,258 C,0,81385,,104,137,249 F,0,81385,81468,0,1 S,0,81385,81718,0.25,0.5 P,0,81385,81718,A F,0,81468,81718,0.8,0 M,0,81718,,83.17737,199.0319 C,0,81718,,104,137,249 F,0,81718,81801,0,1 S,0,81718,82051,0.3,0.6 P,0,81718,82051,A F,0,81801,82051,1,0 M,0,82051,,148.0351,150.7286 C,0,82051,,104,137,249 F,0,82051,82135,0,1 S,0,82051,82385,0.3,0.6 P,0,82051,82385,A F,0,82135,82385,1,0 M,0,82385,,105.3573,256.0833 C,0,82385,,104,137,249 F,0,82385,82468,0,1 S,0,82385,82718,0.3,0.6 P,0,82385,82718,A F,0,82468,82718,1,0
Sprite,Foreground,Centre,"sb\hl.png",0,0 M,0,81385,,183,258 C,0,81385,,104,137,249 F,0,81385,81468,0,1 S,0,81385,81718,0.3,0.6 P,0,81385,81718,A F,0,81468,81718,1,0 M,0,81746,,79.26178,189.6238 C,0,81746,,104,137,249 F,0,81746,81829,0,1 S,0,81746,82079,0.3,0.6 P,0,81746,82079,A F,0,81829,82079,1,0 M,0,82079,,153.3663,159.3664 C,0,82079,,104,137,249 F,0,82079,82162,0,1 S,0,82079,82412,0.3,0.6 P,0,82079,82412,A F,0,82162,82412,1,0 M,0,82412,,99.78035,264.6221 C,0,82412,,104,137,249 F,0,82412,82496,0,1 S,0,82412,82746,0.3,0.6 P,0,82412,82746,A F,0,82496,82746,1,0
Sprite,Foreground,Centre,"sb\hl.png",0,0 M,0,81412,,172.9325,259.2008 C,0,81412,,104,137,249 F,0,81412,81496,0,1 S,0,81412,81746,0.3,0.6 P,0,81412,81746,A F,0,81496,81746,1,0 M,0,81773,,76.96477,179.7014 C,0,81773,,104,137,249 F,0,81773,81857,0,1 S,0,81773,82107,0.3,0.6 P,0,81773,82107,A F,0,81857,82107,1,0 M,0,82107,,155.5414,169.2821 C,0,82107,,104,137,249 F,0,82107,82190,0,1 S,0,82107,82440,0.3,0.6 P,0,82107,82440,A F,0,82190,82440,1,0 M,0,82440,,94.67166,273.4481 C,0,82440,,104,137,249 F,0,82440,82523,0,1 S,0,82440,82773,0.3,0.6 P,0,82440,82773,A F,0,82523,82773,1,0
Sprite,Foreground,Centre,"sb\hl.png",0,0 M,0,81440,,162.8253,257.9172 C,0,81440,,104,137,249 F,0,81440,81523,0,1 S,0,81440,81773,0.3,0.6 P,0,81440,81773,A F,0,81523,81773,1,0 M,0,81801,,76.78004,169.5271 C,0,81801,,104,137,249 F,0,81801,81885,0,1 S,0,81801,82135,0.3,0.6 P,0,81801,82135,A F,0,81885,82135,1,0 M,0,82135,,154.701,179.4167 C,0,82135,,104,137,249 F,0,82135,82218,0,1 S,0,82135,82468,0.3,0.6 P,0,82135,82468,A F,0,82218,82468,1,0 M,0,82468,,90.1591,282.5925 C,0,82468,,104,137,249 F,0,82468,82551,0,1 S,0,82468,82801,0.3,0.6 P,0,82468,82801,A F,0,82551,82801,1,0
Sprite,Foreground,Centre,"sb\hl.png",0,0 M,0,81468,,152.9684,255.3144 C,0,81468,,104,137,249 F,0,81468,81551,0,1 S,0,81468,81801,0.3,0.6 P,0,81468,81801,A F,0,81551,81801,1,0 M,0,81829,,79.19269,159.6526 C,0,81829,,104,137,249 F,0,81829,81912,0,1 S,0,81829,82162,0.3,0.6 P,0,81829,82162,A F,0,81912,82162,1,0 M,0,82162,,151.6672,189.1396 C,0,82162,,104,137,249 F,0,82162,82246,0,1 S,0,82162,82496,0.3,0.6 P,0,82162,82496,A F,0,82246,82496,1,0 M,0,82496,,86.38656,292.0651 C,0,82496,,104,137,249 F,0,82496,82579,0,1 S,0,82496,82829,0.3,0.6 P,0,82496,82829,A F,0,82579,82829,1,0
Sprite,Foreground,Centre,"sb\hl.png",0,0 M,0,81496,,143.4134,251.7549 C,0,81496,,104,137,249 F,0,81496,81579,0,1 S,0,81496,81829,0.3,0.6 P,0,81496,81829,A F,0,81579,81829,1,0 M,0,81857,,84.37468,150.9153 C,0,81857,,104,137,249 F,0,81857,81940,0,1 S,0,81857,82190,0.3,0.6 P,0,81857,82190,A F,0,81940,82190,1,0 M,0,82190,,147.2246,198.3141 C,0,82190,,104,137,249 F,0,82190,82273,0,1 S,0,82190,82523,0.3,0.6 P,0,82190,82523,A F,0,82273,82523,1,0 M,0,82523,,83.45871,301.8306 C,0,82523,,104,137,249 F,0,82523,82607,0,1 S,0,82523,82857,0.3,0.6 P,0,82523,82857,A F,0,82607,82857,1,0
Sprite,Foreground,Centre,"sb\hl.png",0,0 M,0,81523,,134.1838,247.4195 C,0,81523,,104,137,249 F,0,81523,81607,0,1 S,0,81523,81857,0.3,0.6 P,0,81523,81857,A F,0,81607,81857,1,0 M,0,81885,,91.92404,144.1133 C,0,81885,,104,137,249 F,0,81885,81968,0,1 S,0,81885,82218,0.3,0.6 P,0,81885,82218,A F,0,81968,82218,1,0 M,0,82218,,141.9157,207.0203 C,0,82218,,104,137,249 F,0,82218,82301,0,1 S,0,82218,82551,0.3,0.6 P,0,82218,82551,A F,0,82301,82551,1,0 M,0,82551,,81.46465,311.8279 C,0,82551,,104,137,249 F,0,82551,82635,0,1 S,0,82551,82885,0.3,0.6 P,0,82551,82885,A F,0,82635,82885,1,0
Sprite,Foreground,Centre,"sb\hl.png",0,0 M,0,81551,,125.3114,242.3932 C,0,81551,,104,137,249 F,0,81551,81635,0,1 S,0,81551,81885,0.3,0.6 P,0,81551,81885,A F,0,81635,81885,1,0 M,0,81912,,101.0537,139.6325 C,0,81912,,104,137,249 F,0,81912,81996,0,1 S,0,81912,82246,0.3,0.6 P,0,81912,82246,A F,0,81996,82246,1,0 M,0,82246,,136.0826,215.3865 C,0,82246,,104,137,249 F,0,82246,82329,0,1 S,0,82246,82579,0.3,0.6 P,0,82246,82579,A F,0,82329,82579,1,0 M,0,82579,,80.44311,321.9708 C,0,82579,,104,137,249 F,0,82579,82662,0,1 S,0,82579,82912,0.3,0.6 P,0,82579,82912,A F,0,82662,82912,1,0
Sprite,Foreground,Centre,"sb\hl.png",0,0 M,0,81579,,116.8362,236.7224 C,0,81579,,104,137,249 F,0,81579,81662,0,1 S,0,81579,81912,0.3,0.6 P,0,81579,81912,A F,0,81662,81912,1,0 M,0,81940,,111.0004,137.4802 C,0,81940,,104,137,249 F,0,81940,82023,0,1 S,0,81940,82273,0.3,0.6 P,0,81940,82273,A F,0,82023,82273,1,0 M,0,82273,,129.9536,223.5394 C,0,82273,,104,137,249 F,0,82273,82357,0,1 S,0,82273,82607,0.3,0.6 P,0,82273,82607,A F,0,82357,82607,1,0 M,0,82607,,80.37009,332.1662 C,0,82607,,104,137,249 F,0,82607,82690,0,1 S,0,82607,82940,0.3,0.6 P,0,82607,82940,A F,0,82690,82940,1,0
Sprite,Foreground,Centre,"sb\hl.png",0,0 M,0,81607,,108.8127,230.4291 C,0,81607,,104,137,249 F,0,81607,81690,0,1 S,0,81607,81940,0.3,0.6 P,0,81607,81940,A F,0,81690,81940,1,0 M,0,81968,,121.1803,137.5471 C,0,81968,,104,137,249 F,0,81968,82051,0,1 S,0,81968,82301,0.3,0.6 P,0,81968,82301,A F,0,82051,82301,1,0 M,0,82301,,123.6913,231.5907 C,0,82301,,104,137,249 F,0,82301,82385,0,1 S,0,82301,82635,0.3,0.6 P,0,82301,82635,A F,0,82385,82635,1,0
Sprite,Foreground,Centre,"sb\hl.png",0,0 M,0,81635,,101.3146,223.5188 C,0,81635,,104,137,249 F,0,81635,81718,0,1 S,0,81635,81968,0.3,0.6 P,0,81635,81968,A F,0,81718,81968,1,0 M,0,81996,,131.1169,139.7573 C,0,81996,,104,137,249 F,0,81996,82079,0,1 S,0,81996,82329,0.3,0.6 P,0,81996,82329,A F,0,82079,82329,1,0 M,0,82329,,117.4271,239.6405 C,0,82329,,104,137,249 F,0,82329,82412,0,1 S,0,82329,82662,0.3,0.6 P,0,82329,82662,A F,0,82412,82662,1,0
Sprite,Foreground,Centre,"sb\hl.png",0,0 M,0,81662,,94.44203,215.9869 C,0,81662,,104,137,249 F,0,81662,81746,0,1 S,0,81662,81996,0.3,0.6 P,0,81662,81996,A F,0,81746,81996,1,0 M,0,82023,,140.3027,144.1322 C,0,82023,,104,137,249 F,0,82023,82107,0,1 S,0,82023,82357,0.3,0.6 P,0,82023,82357,A F,0,82107,82357,1,0 M,0,82357,,111.2786,247.7787 C,0,82357,,104,137,249 F,0,82357,82440,0,1 S,0,82357,82690,0.3,0.6 P,0,82357,82690,A F,0,82440,82690,1,0
Sprite,Foreground,Centre,"sb\hl.png",0,0 M,0,81690,,88.33234,207.8256 C,0,81690,,104,137,249 F,0,81690,81773,0,1 S,0,81690,82023,0.3,0.6 P,0,81690,82023,A F,0,81773,82023,1,0
Sprite,Foreground,Centre,"sb\hl.png",0,0 M,0,84718,,320,79 C,0,84718,,234,119,214 F,0,84718,84801,0,1 S,0,84718,85051,0.25,0.5 P,0,84718,85051,A F,0,84801,85051,0.8,0 M,0,85052,,400,181 C,0,85052,,234,119,214 F,0,85052,85135,0,1 S,0,85052,85385,0.25,0.5 P,0,85052,85385,A F,0,85135,85385,0.8,0 M,0,85412,,364.181,307.2384 C,0,85412,,234,119,214 F,0,85412,85496,0,1 S,0,85412,85746,0.3,0.6 P,0,85412,85746,A F,0,85496,85746,1,0 M,0,85746,,260.4592,252.1868 C,0,85746,,234,119,214 F,0,85746,85829,0,1 S,0,85746,86079,0.3,0.6 P,0,85746,86079,A F,0,85829,86079,1,0 M,0,86079,,135.5098,290.336 C,0,86079,,104,137,249 F,0,86079,86163,0,1 S,0,86079,86413,0.3,0.6 P,0,86079,86413,A F,0,86163,86413,1,0 M,0,86440,,146.3567,123.832 C,0,86440,,104,137,249 F,0,86440,86523,0,1 S,0,86440,86773,0.3,0.6 P,0,86440,86773,A F,0,86523,86773,1,0 M,0,87052,,157,69 C,0,87052,,104,137,249 F,0,87052,87135,0,1 S,0,87052,87385,0.25,0.5 P,0,87052,87385,A F,0,87135,87385,0.8,0 M,0,87552,,384,57 C,0,87552,,252,247,199 F,0,87552,87635,0,1 S,0,87552,87885,0.25,0.5 P,0,87552,87885,A F,0,87635,87885,0.8,0 M,0,88052,,463,252 C,0,88052,,86,239,243 F,0,88052,88135,0,1 S,0,88052,88385,0.25,0.5 P,0,88052,88385,A F,0,88135,88385,0.8,0 M,0,88718,,407,418 C,0,88718,,234,119,214 F,0,88718,88801,0,1 S,0,88718,89051,0.25,0.5 P,0,88718,89051,A F,0,88801,89051,0.8,0 M,0,89052,,248,384 C,0,89052,,234,119,214 F,0,89052,89135,0,1 S,0,89052,89385,0.25,0.5 P,0,89052,89385,A F,0,89135,89385,0.8,0 M,0,89718,,168,370 C,0,89718,,234,119,214 F,0,89718,89801,0,1 S,0,89718,90051,0.25,0.5 P,0,89718,90051,A F,0,89801,90051,0.8,0 M,0,90052,,116,226 C,0,90052,,234,119,214 F,0,90052,90135,0,1 S,0,90052,90385,0.25,0.5 P,0,90052,90385,A F,0,90135,90385,0.8,0 M,0,90552,,139,143 C,0,90552,,234,119,214 F,0,90552,90635,0,1 S,0,90552,90885,0.25,0.5 P,0,90552,90885,A F,0,90635,90885,0.8,0 M,0,90912,,304.9104,137.5885 C,0,90912,,104,137,249 F,0,90912,90995,0,1 S,0,90912,91245,0.3,0.6 P,0,90912,91245,A F,0,90995,91245,1,0 M,0,91385,,500,107 C,0,91385,,252,247,199 F,0,91385,91468,0,1 S,0,91385,91718,0.25,0.5 P,0,91385,91718,A F,0,91468,91718,0.8,0 M,0,91745,,497.9027,270.0507 C,0,91745,,252,247,199 F,0,91745,91829,0,1 S,0,91745,92079,0.3,0.6 P,0,91745,92079,A F,0,91829,92079,1,0 M,0,92385,,515,336 C,0,92385,,252,247,199 F,0,92385,92468,0,1 S,0,92385,92718,0.25,0.5 P,0,92385,92718,A F,0,92468,92718,0.8,0 M,0,92885,,299,318 C,0,92885,,252,247,199 F,0,92885,92968,0,1 S,0,92885,93218,0.25,0.5 P,0,92885,93218,A F,0,92968,93218,0.8,0 M,0,93385,,99,358 C,0,93385,,86,239,243 F,0,93385,93468,0,1 S,0,93385,93718,0.25,0.5 P,0,93385,93718,A F,0,93468,93718,0.8,0 M,0,94052,,252,272 C,0,94052,,234,119,214 F,0,94052,94135,0,1 S,0,94052,94385,0.25,0.5 P,0,94052,94385,A F,0,94135,94385,0.8,0 M,0,94412,,183.0663,143.8951 C,0,94412,,234,119,214 F,0,94412,94496,0,1 S,0,94412,94746,0.3,0.6 P,0,94412,94746,A F,0,94496,94746,1,0 M,0,95052,,291,62 C,0,95052,,234,119,214 F,0,95052,95135,0,1 S,0,95052,95385,0.25,0.5 P,0,95052,95385,A F,0,95135,95385,0.8,0 M,0,95412,,425.4868,125.1058 C,0,95412,,104,137,249 F,0,95412,95496,0,1 S,0,95412,95746,0.3,0.6 P,0,95412,95746,A F,0,95496,95746,1,0 M,0,95885,,367,259 C,0,95885,,104,137,249 F,0,95885,95968,0,1 S,0,95885,96218,0.25,0.5 P,0,95885,96218,A F,0,95968,96218,0.8,0 M,0,96385,,376,411 C,0,96385,,104,137,249 F,0,96385,96468,0,1 S,0,96385,96718,0.25,0.5 P,0,96385,96718,A F,0,96468,96718,0.8,0 M,0,96745,,254.8955,314.8501 C,0,96745,,252,247,199 F,0,96745,96829,0,1 S,0,96745,97079,0.3,0.6 P,0,96745,97079,A F,0,96829,97079,1,0 M,0,97079,,227.0471,155.9573 C,0,97079,,252,247,199 F,0,97079,97163,0,1 S,0,97079,97413,0.3,0.6 P,0,97079,97413,A F,0,97163,97413,1,0 M,0,97718,,215,88 C,0,97718,,252,247,199 F,0,97718,97801,0,1 S,0,97718,98051,0.25,0.5 P,0,97718,98051,A F,0,97801,98051,0.8,0 M,0,98052,,133,171 C,0,98052,,86,239,243 F,0,98052,98135,0,1 S,0,98052,98385,0.25,0.5 P,0,98052,98385,A F,0,98135,98385,0.8,0 M,0,98412,,124.0381,310.019 C,0,98412,,86,239,243 F,0,98412,98496,0,1 S,0,98412,98746,0.3,0.6 P,0,98412,98746,A F,0,98496,98746,1,0 M,0,98773,,274.898,352.0864 C,0,98773,,234,119,214 F,0,98773,98856,0,1 S,0,98773,99106,0.3,0.6 P,0,98773,99106,A F,0,98856,99106,1,0 M,0,99385,,334,166 C,0,99385,,104,137,249 F,0,99385,99468,0,1 S,0,99385,99718,0.25,0.5 P,0,99385,99718,A F,0,99468,99718,0.8,0 M,0,99745,,501.084,181.6783 C,0,99745,,104,137,249 F,0,99745,99829,0,1 S,0,99745,100079,0.3,0.6 P,0,99745,100079,A F,0,99829,100079,1,0 M,0,100385,,568,196 C,0,100385,,104,137,249 F,0,100385,100468,0,1 S,0,100385,100718,0.25,0.5 P,0,100385,100718,A F,0,100468,100718,0.8,0 M,0,100885,,573,359 C,0,100885,,104,137,249 F,0,100885,100968,0,1 S,0,100885,101218,0.25,0.5 P,0,100885,101218,A F,0,100968,101218,0.8,0 M,0,101385,,432,327 C,0,101385,,252,247,199 F,0,101385,101468,0,1 S,0,101385,101718,0.25,0.5 P,0,101385,101718,A F,0,101468,101718,0.8,0 M,0,101745,,273.3854,371.2556 C,0,101745,,252,247,199 F,0,101745,101829,0,1 S,0,101745,102079,0.3,0.6 P,0,101745,102079,A F,0,101829,102079,1,0
Sprite,Foreground,Centre,"sb\hl.png",0,0 M,0,84718,,320,79 C,0,84718,,234,119,214 F,0,84718,84801,0,1 S,0,84718,85051,0.3,0.6 P,0,84718,85051,A F,0,84801,85051,1,0 M,0,85052,,400,181 C,0,85052,,234,119,214 F,0,85052,85135,0,1 S,0,85052,85385,0.3,0.6 P,0,85052,85385,A F,0,85135,85385,1,0 M,0,85440,,354.3619,304.4768 C,0,85440,,234,119,214 F,0,85440,85523,0,1 S,0,85440,85773,0.3,0.6 P,0,85440,85773,A F,0,85523,85773,1,0 M,0,85773,,250.4919,250.02 C,0,85773,,234,119,214 F,0,85773,85857,0,1 S,0,85773,86107,0.3,0.6 P,0,85773,86107,A F,0,85857,86107,1,0 M,0,86107,,128.676,280.3467 C,0,86107,,104,137,249 F,0,86107,86190,0,1 S,0,86107,86440,0.3,0.6 P,0,86107,86440,A F,0,86190,86440,1,0 M,0,86468,,148,112 C,0,86468,,104,137,249 F,0,86468,86551,0,1 S,0,86468,86801,0.3,0.6 P,0,86468,86801,A F,0,86551,86801,1,0 M,0,87052,,157,69 C,0,87052,,104,137,249 F,0,87052,87135,0,1 S,0,87052,87385,0.3,0.6 P,0,87052,87385,A F,0,87135,87385,1,0 M,0,87718,,459,100 C,0,87718,,252,247,199 F,0,87718,87801,0,1 S,0,87718,88051,0.25,0.5 P,0,87718,88051,A F,0,87801,88051,0.8,0 M,0,88052,,463,252 C,0,88052,,86,239,243 F,0,88052,88135,0,1 S,0,88052,88385,0.3,0.6 P,0,88052,88385,A F,0,88135,88385,1,0 M,0,88718,,407,418 C,0,88718,,234,119,214 F,0,88718,88801,0,1 S,0,88718,89051,0.3,0.6 P,0,88718,89051,A F,0,88801,89051,1,0 M,0,89052,,248,384 C,0,89052,,234,119,214 F,0,89052,89135,0,1 S,0,89052,89385,0.3,0.6 P,0,89052,89385,A F,0,89135,89385,1,0 M,0,89718,,168,370 C,0,89718,,234,119,214 F,0,89718,89801,0,1 S,0,89718,90051,0.3,0.6 P,0,89718,90051,A F,0,89801,90051,1,0 M,0,90218,,116,226 C,0,90218,,234,119,214 F,0,90218,90301,0,1 S,0,90218,90551,0.25,0.5 P,0,90218,90551,A F,0,90301,90551,0.8,0 M,0,90718,,223,120 C,0,90718,,104,137,249 F,0,90718,90801,0,1 S,0,90718,91051,0.25,0.5 P,0,90718,91051,A F,0,90801,91051,0.8,0 M,0,91052,,360,176 C,0,91052,,104,137,249 F,0,91052,91135,0,1 S,0,91052,91385,0.25,0.5 P,0,91052,91385,A F,0,91135,91385,0.8,0 M,0,91412,,491.7065,115.872 C,0,91412,,252,247,199 F,0,91412,91496,0,1 S,0,91412,91746,0.3,0.6 P,0,91412,91746,A F,0,91496,91746,1,0 M,0,91773,,499.8055,282.1014 C,0,91773,,252,247,199 F,0,91773,91856,0,1 S,0,91773,92106,0.3,0.6 P,0,91773,92106,A F,0,91856,92106,1,0 M,0,92385,,515,336 C,0,92385,,252,247,199 F,0,92385,92468,0,1 S,0,92385,92718,0.3,0.6 P,0,92385,92718,A F,0,92468,92718,1,0 M,0,93052,,240,383 C,0,93052,,252,247,199 F,0,93052,93135,0,1 S,0,93052,93385,0.25,0.5 P,0,93052,93385,A F,0,93135,93385,0.8,0 M,0,93412,,96.04106,369.8357 C,0,93412,,86,239,243 F,0,93412,93496,0,1 S,0,93412,93746,0.3,0.6 P,0,93412,93746,A F,0,93496,93746,1,0 M,0,94052,,252,272 C,0,94052,,234,119,214 F,0,94052,94135,0,1 S,0,94052,94385,0.3,0.6 P,0,94052,94385,A F,0,94135,94385,1,0 M,0,94440,,184.0846,131.8174 C,0,94440,,234,119,214 F,0,94440,94523,0,1 S,0,94440,94773,0.3,0.6 P,0,94440,94773,A F,0,94523,94773,1,0 M,0,95052,,291,62 C,0,95052,,234,119,214 F,0,95052,95135,0,1 S,0,95052,95385,0.3,0.6 P,0,95052,95385,A F,0,95135,95385,1,0 M,0,95440,,423.9735,137.2116 C,0,95440,,104,137,249 F,0,95440,95523,0,1 S,0,95440,95773,0.3,0.6 P,0,95440,95773,A F,0,95523,95773,1,0 M,0,96052,,420,335 C,0,96052,,104,137,249 F,0,96052,96135,0,1 S,0,96052,96385,0.25,0.5 P,0,96052,96385,A F,0,96135,96385,0.8,0 M,0,96412,,364.4566,414.6699 C,0,96412,,104,137,249 F,0,96412,96496,0,1 S,0,96412,96746,0.3,0.6 P,0,96412,96746,A F,0,96496,96746,1,0 M,0,96773,,253.7909,302.7002 C,0,96773,,252,247,199 F,0,96773,96856,0,1 S,0,96773,97106,0.3,0.6 P,0,96773,97106,A F,0,96856,97106,1,0 M,0,97107,,225.0943,143.9146 C,0,97107,,252,247,199 F,0,97107,97190,0,1 S,0,97107,97440,0.3,0.6 P,0,97107,97440,A F,0,97190,97440,1,0 M,0,97718,,215,88 C,0,97718,,252,247,199 F,0,97718,97801,0,1 S,0,97718,98051,0.3,0.6 P,0,97718,98051,A F,0,97801,98051,1,0 M,0,98218,,72,234 C,0,98218,,86,239,243 F,0,98218,98301,0,1 S,0,98218,98551,0.25,0.5 P,0,98218,98551,A F,0,98301,98551,0.8,0 M,0,98718,,267,329 C,0,98718,,234,119,214 F,0,98718,98801,0,1 S,0,98718,99051,0.25,0.5 P,0,98718,99051,A F,0,98801,99051,0.8,0 M,0,99385,,334,166 C,0,99385,,104,137,249 F,0,99385,99468,0,1 S,0,99385,99718,0.3,0.6 P,0,99385,99718,A F,0,99468,99718,1,0 M,0,99773,,513.168,183.3567 C,0,99773,,104,137,249 F,0,99773,99856,0,1 S,0,99773,100106,0.3,0.6 P,0,99773,100106,A F,0,99856,100106,1,0 M,0,100385,,568,196 C,0,100385,,104,137,249 F,0,100385,100468,0,1 S,0,100385,100718,0.3,0.6 P,0,100385,100718,A F,0,100468,100718,1,0 M,0,101052,,493,392 C,0,101052,,104,137,249 F,0,101052,101135,0,1 S,0,101052,101385,0.25,0.5 P,0,101052,101385,A F,0,101135,101385,0.8,0 M,0,101412,,419.8376,327.9268 C,0,101412,,252,247,199 F,0,101412,101496,0,1 S,0,101412,101746,0.3,0.6 P,0,101412,101746,A F,0,101496,101746,1,0 M,0,101773,,264.4757,363.1843 C,0,101773,,252,247,199 F,0,101773,101856,0,1 S,0,101773,102106,0.3,0.6 P,0,101773,102106,A F,0,101856,102106,1,0
Sprite,Foreground,Centre,"sb\hl.png",0,0 M,0,84745,,321.399,89.10361 C,0,84745,,234,119,214 F,0,84745,84829,0,1 S,0,84745,85079,0.3,0.6 P,0,84745,85079,A F,0,84829,85079,1,0 M,0,85079,,398.8581,189.1201 C,0,85079,,234,119,214 F,0,85079,85163,0,1 S,0,85079,85413,0.3,0.6 P,0,85079,85413,A F,0,85163,85413,1,0 M,0,85468,,344.5429,301.7152 C,0,85468,,234,119,214 F,0,85468,85551,0,1 S,0,85468,85801,0.3,0.6 P,0,85468,85801,A F,0,85551,85801,1,0 M,0,85801,,240.5247,247.8532 C,0,85801,,234,119,214 F,0,85801,85885,0,1 S,0,85801,86135,0.3,0.6 P,0,85801,86135,A F,0,85885,86135,1,0 M,0,86135,,123.4052,269.4537 C,0,86135,,104,137,249 F,0,86135,86218,0,1 S,0,86135,86468,0.3,0.6 P,0,86135,86468,A F,0,86218,86468,1,0 M,0,86496,,146.3567,123.832 C,0,86496,,104,137,249 F,0,86496,86579,0,1 S,0,86496,86829,0.3,0.6 P,0,86496,86829,A F,0,86579,86829,1,0 M,0,87079,,169.1888,68.51495 C,0,87079,,104,137,249 F,0,87079,87163,0,1 S,0,87079,87413,0.3,0.6 P,0,87079,87413,A F,0,87163,87413,1,0 M,0,87718,,459,100 C,0,87718,,252,247,199 F,0,87718,87801,0,1 S,0,87718,88051,0.3,0.6 P,0,87718,88051,A F,0,87801,88051,1,0 M,0,88079,,474.8933,249.2815 C,0,88079,,86,239,243 F,0,88079,88163,0,1 S,0,88079,88413,0.3,0.6 P,0,88079,88413,A F,0,88163,88413,1,0 M,0,88745,,395.1107,415.2647 C,0,88745,,234,119,214 F,0,88745,88829,0,1 S,0,88745,89079,0.3,0.6 P,0,88745,89079,A F,0,88829,89079,1,0 M,0,89079,,235.916,382.3217 C,0,89079,,234,119,214 F,0,89079,89163,0,1 S,0,89079,89413,0.3,0.6 P,0,89079,89413,A F,0,89163,89413,1,0 M,0,89745,,166.5837,357.8825 C,0,89745,,234,119,214 F,0,89745,89829,0,1 S,0,89745,90079,0.3,0.6 P,0,89745,90079,A F,0,89829,90079,1,0 M,0,90385,,139,143 C,0,90385,,234,119,214 F,0,90385,90468,0,1 S,0,90385,90718,0.25,0.5 P,0,90385,90718,A F,0,90468,90718,0.8,0 M,0,90745,,235.0399,121.9702 C,0,90745,,104,137,249 F,0,90745,90829,0,1 S,0,90745,91079,0.3,0.6 P,0,90745,91079,A F,0,90829,91079,1,0 M,0,91079,,372.0174,173.897 C,0,91079,,104,137,249 F,0,91079,91163,0,1 S,0,91079,91413,0.3,0.6 P,0,91079,91413,A F,0,91163,91413,1,0 M,0,91440,,484.906,125.9083 C,0,91440,,252,247,199 F,0,91440,91523,0,1 S,0,91440,91773,0.3,0.6 P,0,91440,91773,A F,0,91523,91773,1,0 M,0,91801,,501.7082,294.1521 C,0,91801,,252,247,199 F,0,91801,91884,0,1 S,0,91801,92134,0.3,0.6 P,0,91801,92134,A F,0,91884,92134,1,0 M,0,92412,,502.9856,338.1202 C,0,92412,,252,247,199 F,0,92412,92496,0,1 S,0,92412,92746,0.3,0.6 P,0,92412,92746,A F,0,92496,92746,1,0 M,0,93052,,240,383 C,0,93052,,252,247,199 F,0,93052,93135,0,1 S,0,93052,93385,0.3,0.6 P,0,93052,93385,A F,0,93135,93385,1,0 M,0,93440,,93.08213,381.6715 C,0,93440,,86,239,243 F,0,93440,93523,0,1 S,0,93440,93773,0.3,0.6 P,0,93440,93773,A F,0,93523,93773,1,0 M,0,94079,,249.4684,260.0656 C,0,94079,,234,119,214 F,0,94079,94163,0,1 S,0,94079,94413,0.3,0.6 P,0,94079,94413,A F,0,94163,94413,1,0 M,0,94468,,186.9808,120.0757 C,0,94468,,234,119,214 F,0,94468,94551,0,1 S,0,94468,94801,0.3,0.6 P,0,94468,94801,A F,0,94551,94801,1,0 M,0,95079,,303.1131,63.45357 C,0,95079,,234,119,214 F,0,95079,95163,0,1 S,0,95079,95413,0.3,0.6 P,0,95079,95413,A F,0,95163,95413,1,0 M,0,95468,,422.4603,149.3174 C,0,95468,,104,137,249 F,0,95468,95551,0,1 S,0,95468,95801,0.3,0.6 P,0,95468,95801,A F,0,95551,95801,1,0 M,0,96218,,420,335 C,0,96218,,104,137,249 F,0,96218,96301,0,1 S,0,96218,96551,0.25,0.5 P,0,96218,96551,A F,0,96301,96551,0.8,0 M,0,96718,,256,327 C,0,96718,,252,247,199 F,0,96718,96801,0,1 S,0,96718,97051,0.25,0.5 P,0,96718,97051,A F,0,96801,97051,0.8,0 M,0,97052,,229,168 C,0,97052,,252,247,199 F,0,97052,97135,0,1 S,0,97052,97385,0.25,0.5 P,0,97052,97385,A F,0,97135,97385,0.8,0 M,0,97745,,204.3157,82.33879 C,0,97745,,252,247,199 F,0,97745,97829,0,1 S,0,97745,98079,0.3,0.6 P,0,97745,98079,A F,0,97829,98079,1,0 M,0,98385,,112,312 C,0,98385,,86,239,243 F,0,98385,98468,0,1 S,0,98385,98718,0.25,0.5 P,0,98385,98718,A F,0,98468,98718,0.8,0 M,0,98745,,270.949,340.5432 C,0,98745,,234,119,214 F,0,98745,98829,0,1 S,0,98745,99079,0.3,0.6 P,0,98745,99079,A F,0,98829,99079,1,0 M,0,99412,,345.5432,162.051 C,0,99412,,104,137,249 F,0,99412,99496,0,1 S,0,99412,99746,0.3,0.6 P,0,99412,99746,A F,0,99496,99746,1,0 M,0,99801,,525,185 C,0,99801,,104,137,249 F,0,99801,99884,0,1 S,0,99801,100134,0.3,0.6 P,0,99801,100134,A F,0,99884,100134,1,0 M,0,100412,,566.2747,208.0774 C,0,100412,,104,137,249 F,0,100412,100496,0,1 S,0,100412,100746,0.3,0.6 P,0,100412,100746,A F,0,100496,100746,1,0 M,0,101218,,493,392 C,0,101218,,104,137,249 F,0,101218,101301,0,1 S,0,101218,101551,0.25,0.5 P,0,101218,101551,A F,0,101301,101551,0.8,0 M,0,101551,,363.5516,349.8419 C,0,101551,,252,247,199 F,0,101551,101635,0,1 S,0,101551,101885,0.3,0.6 P,0,101551,101885,A F,0,101635,101885,1,0
Sprite,Foreground,Centre,"sb\hl.png",0,0 M,0,84773,,322.7979,99.20721 C,0,84773,,234,119,214 F,0,84773,84856,0,1 S,0,84773,85106,0.3,0.6 P,0,84773,85106,A F,0,84856,85106,1,0 M,0,85107,,397.7162,197.2402 C,0,85107,,234,119,214 F,0,85107,85190,0,1 S,0,85107,85440,0.3,0.6 P,0,85107,85440,A F,0,85190,85440,1,0 M,0,85496,,334.7238,298.9536 C,0,85496,,234,119,214 F,0,85496,85579,0,1 S,0,85496,85829,0.3,0.6 P,0,85496,85829,A F,0,85579,85829,1,0 M,0,85829,,230.5576,245.6864 C,0,85829,,234,119,214 F,0,85829,85912,0,1 S,0,85829,86162,0.3,0.6 P,0,85829,86162,A F,0,85912,86162,1,0 M,0,86163,,120.8796,257.6072 C,0,86163,,104,137,249 F,0,86163,86246,0,1 S,0,86163,86496,0.3,0.6 P,0,86163,86496,A F,0,86246,86496,1,0 M,0,86523,,144.6783,135.916 C,0,86523,,104,137,249 F,0,86523,86607,0,1 S,0,86523,86857,0.3,0.6 P,0,86523,86857,A F,0,86607,86857,1,0 M,0,87107,,181.3792,68.8676 C,0,87107,,104,137,249 F,0,87107,87190,0,1 S,0,87107,87440,0.3,0.6 P,0,87107,87440,A F,0,87190,87440,1,0 M,0,87745,,467.4903,108.664 C,0,87745,,252,247,199 F,0,87745,87829,0,1 S,0,87745,88079,0.3,0.6 P,0,87745,88079,A F,0,87829,88079,1,0 M,0,88107,,486.7866,246.5631 C,0,88107,,86,239,243 F,0,88107,88190,0,1 S,0,88107,88440,0.3,0.6 P,0,88107,88440,A F,0,88190,88440,1,0 M,0,88773,,383.2004,412.623 C,0,88773,,234,119,214 F,0,88773,88856,0,1 S,0,88773,89106,0.3,0.6 P,0,88773,89106,A F,0,88856,89106,1,0 M,0,89107,,223.832,380.6433 C,0,89107,,234,119,214 F,0,89107,89190,0,1 S,0,89107,89440,0.3,0.6 P,0,89107,89440,A F,0,89190,89440,1,0 M,0,89773,,165.1673,345.765 C,0,89773,,234,119,214 F,0,89773,89856,0,1 S,0,89773,90106,0.3,0.6 P,0,89773,90106,A F,0,89856,90106,1,0 M,0,90718,,223,120 C,0,90718,,104,137,249 F,0,90718,90801,0,1 S,0,90718,91051,0.3,0.6 P,0,90718,91051,A F,0,90801,91051,1,0 M,0,91052,,360,176 C,0,91052,,104,137,249 F,0,91052,91135,0,1 S,0,91052,91385,0.3,0.6 P,0,91052,91385,A F,0,91135,91385,1,0 M,0,91468,,479.5296,136.7678 C,0,91468,,252,247,199 F,0,91468,91551,0,1 S,0,91468,91801,0.3,0.6 P,0,91468,91801,A F,0,91551,91801,1,0 M,0,91829,,499.8055,282.1014 C,0,91829,,252,247,199 F,0,91829,91912,0,1 S,0,91829,92162,0.3,0.6 P,0,91829,92162,A F,0,91912,92162,1,0 M,0,92440,,490.9713,340.2404 C,0,92440,,252,247,199 F,0,92440,92523,0,1 S,0,92440,92773,0.3,0.6 P,0,92440,92773,A F,0,92523,92773,1,0 M,0,93079,,231.1443,391.2952 C,0,93079,,252,247,199 F,0,93079,93163,0,1 S,0,93079,93413,0.3,0.6 P,0,93079,93413,A F,0,93163,93413,1,0 M,0,93468,,90.1232,393.5072 C,0,93468,,86,239,243 F,0,93468,93551,0,1 S,0,93468,93801,0.3,0.6 P,0,93468,93801,A F,0,93551,93801,1,0 M,0,94107,,246.9369,248.1311 C,0,94107,,234,119,214 F,0,94107,94190,0,1 S,0,94107,94440,0.3,0.6 P,0,94107,94440,A F,0,94190,94440,1,0 M,0,94496,,192.208,109.1396 C,0,94496,,234,119,214 F,0,94496,94579,0,1 S,0,94496,94829,0.3,0.6 P,0,94496,94829,A F,0,94579,94829,1,0 M,0,95107,,315.2262,64.90714 C,0,95107,,234,119,214 F,0,95107,95190,0,1 S,0,95107,95440,0.3,0.6 P,0,95107,95440,A F,0,95190,95440,1,0 M,0,95496,,420.9471,161.4232 C,0,95496,,104,137,249 F,0,95496,95579,0,1 S,0,95496,95829,0.3,0.6 P,0,95496,95829,A F,0,95579,95829,1,0 M,0,96385,,376,411 C,0,96385,,104,137,249 F,0,96385,96468,0,1 S,0,96385,96718,0.3,0.6 P,0,96385,96718,A F,0,96468,96718,1,0 M,0,96801,,250.9216,291.2289 C,0,96801,,252,247,199 F,0,96801,96884,0,1 S,0,96801,97134,0.3,0.6 P,0,96801,97134,A F,0,96884,97134,1,0 M,0,97135,,223.1414,131.8719 C,0,97135,,252,247,199 F,0,97135,97218,0,1 S,0,97135,97468,0.3,0.6 P,0,97135,97468,A F,0,97218,97468,1,0 M,0,97773,,192.6945,79.13766 C,0,97773,,252,247,199 F,0,97773,97856,0,1 S,0,97773,98106,0.3,0.6 P,0,97773,98106,A F,0,97856,98106,1,0 M,0,98385,,112,312 C,0,98385,,86,239,243 F,0,98385,98468,0,1 S,0,98385,98718,0.3,0.6 P,0,98385,98718,A F,0,98468,98718,1,0 M,0,98801,,278.847,363.6296 C,0,98801,,234,119,214 F,0,98801,98884,0,1 S,0,98801,99134,0.3,0.6 P,0,98801,99134,A F,0,98884,99134,1,0 M,0,99440,,357.0864,158.102 C,0,99440,,104,137,249 F,0,99440,99523,0,1 S,0,99440,99773,0.3,0.6 P,0,99440,99773,A F,0,99523,99773,1,0 M,0,99829,,513.168,183.3567 C,0,99829,,104,137,249 F,0,99829,99912,0,1 S,0,99829,100162,0.3,0.6 P,0,99829,100162,A F,0,99912,100162,1,0 M,0,100440,,564.5493,220.1548 C,0,100440,,104,137,249 F,0,100440,100523,0,1 S,0,100440,100773,0.3,0.6 P,0,100440,100773,A F,0,100523,100773,1,0 M,0,101385,,432,327 C,0,101385,,252,247,199 F,0,101385,101468,0,1 S,0,101385,101718,0.3,0.6 P,0,101385,101718,A F,0,101468,101718,1,0 M,0,101801,,257.6028,353.3732 C,0,101801,,252,247,199 F,0,101801,101884,0,1 S,0,101801,102134,0.3,0.6 P,0,101801,102134,A F,0,101884,102134,1,0
Sprite,Foreground,Centre,"sb\hl.png",0,0 M,0,84801,,324.1969,109.3108 C,0,84801,,234,119,214 F,0,84801,84884,0,1 S,0,84801,85134,0.3,0.6 P,0,84801,85134,A F,0,84884,85134,1,0 M,0,85135,,396.5743,205.3603 C,0,85135,,234,119,214 F,0,85135,85218,0,1 S,0,85135,85468,0.3,0.6 P,0,85135,85468,A F,0,85218,85468,1,0 M,0,85523,,324.9048,296.192 C,0,85523,,234,119,214 F,0,85523,85607,0,1 S,0,85523,85857,0.3,0.6 P,0,85523,85857,A F,0,85607,85857,1,0 M,0,85857,,220.5904,243.5196 C,0,85857,,234,119,214 F,0,85857,85940,0,1 S,0,85857,86190,0.3,0.6 P,0,85857,86190,A F,0,85940,86190,1,0 M,0,86190,,119.9374,245.4975 C,0,86190,,104,137,249 F,0,86190,86274,0,1 S,0,86190,86524,0.3,0.6 P,0,86190,86524,A F,0,86274,86524,1,0 M,0,86551,,143,148 C,0,86551,,104,137,249 F,0,86551,86635,0,1 S,0,86551,86885,0.3,0.6 P,0,86551,86885,A F,0,86635,86885,1,0 M,0,87135,,193.4227,70.71822 C,0,87135,,104,137,249 F,0,87135,87218,0,1 S,0,87135,87468,0.3,0.6 P,0,87135,87468,A F,0,87218,87468,1,0 M,0,87773,,474.324,118.6533 C,0,87773,,252,247,199 F,0,87773,87856,0,1 S,0,87773,88106,0.3,0.6 P,0,87773,88106,A F,0,87856,88106,1,0 M,0,88135,,498.6879,244.1146 C,0,88135,,86,239,243 F,0,88135,88218,0,1 S,0,88135,88468,0.3,0.6 P,0,88135,88468,A F,0,88218,88468,1,0 M,0,88801,,371.2699,410.0742 C,0,88801,,234,119,214 F,0,88801,88884,0,1 S,0,88801,89134,0.3,0.6 P,0,88801,89134,A F,0,88884,89134,1,0 M,0,89135,,212,379 C,0,89135,,234,119,214 F,0,89135,89218,0,1 S,0,89135,89468,0.3,0.6 P,0,89135,89468,A F,0,89218,89468,1,0 M,0,89801,,163.751,333.6475 C,0,89801,,234,119,214 F,0,89801,89884,0,1 S,0,89801,90134,0.3,0.6 P,0,89801,90134,A F,0,89884,90134,1,0 M,0,90773,,247.0797,123.9403 C,0,90773,,104,137,249 F,0,90773,90856,0,1 S,0,90773,91106,0.3,0.6 P,0,90773,91106,A F,0,90856,91106,1,0 M,0,91107,,384.0347,171.7939 C,0,91107,,104,137,249 F,0,91107,91190,0,1 S,0,91107,91440,0.3,0.6 P,0,91107,91440,A F,0,91190,91440,1,0 M,0,91496,,476.5563,148.5273 C,0,91496,,252,247,199 F,0,91496,91579,0,1 S,0,91496,91829,0.3,0.6 P,0,91496,91829,A F,0,91579,91829,1,0 M,0,91856,,497.9027,270.0507 C,0,91856,,252,247,199 F,0,91856,91940,0,1 S,0,91856,92190,0.3,0.6 P,0,91856,92190,A F,0,91940,92190,1,0 M,0,92468,,478.9569,342.3605 C,0,92468,,252,247,199 F,0,92468,92551,0,1 S,0,92468,92801,0.3,0.6 P,0,92468,92801,A F,0,92551,92801,1,0 M,0,93107,,221.0307,397.9576 C,0,93107,,252,247,199 F,0,93107,93190,0,1 S,0,93107,93440,0.3,0.6 P,0,93107,93440,A F,0,93190,93440,1,0 M,0,93496,,89.11138,405.3161 C,0,93496,,86,239,243 F,0,93496,93579,0,1 S,0,93496,93829,0.3,0.6 P,0,93496,93829,A F,0,93579,93829,1,0 M,0,94135,,245,236.1343 C,0,94135,,234,119,214 F,0,94135,94218,0,1 S,0,94135,94468,0.3,0.6 P,0,94135,94468,A F,0,94218,94468,1,0 M,0,94523,,199.0527,99.16626 C,0,94523,,234,119,214 F,0,94523,94607,0,1 S,0,94523,94857,0.3,0.6 P,0,94523,94857,A F,0,94607,94857,1,0 M,0,95135,,327.3393,66.36072 C,0,95135,,234,119,214 F,0,95135,95218,0,1 S,0,95135,95468,0.3,0.6 P,0,95135,95468,A F,0,95218,95468,1,0 M,0,95523,,419.4339,173.529 C,0,95523,,104,137,249 F,0,95523,95607,0,1 S,0,95523,95857,0.3,0.6 P,0,95523,95857,A F,0,95607,95857,1,0 M,0,96440,,352.4508,416.0193 C,0,96440,,104,137,249 F,0,96440,96523,0,1 S,0,96440,96773,0.3,0.6 P,0,96440,96773,A F,0,96523,96773,1,0 M,0,96829,,249.2578,279.3619 C,0,96829,,252,247,199 F,0,96829,96912,0,1 S,0,96829,97162,0.3,0.6 P,0,96829,97162,A F,0,96912,97162,1,0 M,0,97163,,225.0943,143.9146 C,0,97163,,252,247,199 F,0,97163,97246,0,1 S,0,97163,97496,0.3,0.6 P,0,97163,97496,A F,0,97246,97496,1,0 M,0,97801,,180.7073,78.46102 C,0,97801,,252,247,199 F,0,97801,97884,0,1 S,0,97801,98134,0.3,0.6 P,0,97801,98134,A F,0,97884,98134,1,0 M,0,98440,,136.0762,308.0381 C,0,98440,,86,239,243 F,0,98440,98523,0,1 S,0,98440,98773,0.3,0.6 P,0,98440,98773,A F,0,98523,98773,1,0 M,0,98829,,276.5715,374.9283 C,0,98829,,234,119,214 F,0,98829,98912,0,1 S,0,98829,99162,0.3,0.6 P,0,98829,99162,A F,0,98912,99162,1,0 M,0,99468,,368.6296,154.153 C,0,99468,,104,137,249 F,0,99468,99551,0,1 S,0,99468,99801,0.3,0.6 P,0,99468,99801,A F,0,99551,99801,1,0 M,0,99856,,501.084,181.6783 C,0,99856,,104,137,249 F,0,99856,99940,0,1 S,0,99856,100190,0.3,0.6 P,0,99856,100190,A F,0,99940,100190,1,0 M,0,100468,,562.824,232.2321 C,0,100468,,104,137,249 F,0,100468,100551,0,1 S,0,100468,100801,0.3,0.6 P,0,100468,100801,A F,0,100551,100801,1,0 M,0,101440,,407.7946,329.8439 C,0,101440,,252,247,199 F,0,101440,101523,0,1 S,0,101440,101773,0.3,0.6 P,0,101440,101773,A F,0,101523,101773,1,0 M,0,101829,,254.0732,341.8752 C,0,101829,,252,247,199 F,0,101829,101912,0,1 S,0,101829,102162,0.3,0.6 P,0,101829,102162,A F,0,101912,102162,1,0
Sprite,Foreground,Centre,"sb\hl.png",0,0 M,0,84829,,325.5959,119.4144 C,0,84829,,234,119,214 F,0,84829,84912,0,1 S,0,84829,85162,0.3,0.6 P,0,84829,85162,A F,0,84912,85162,1,0 M,0,85163,,395.4324,213.4804 C,0,85163,,234,119,214 F,0,85163,85246,0,1 S,0,85163,85496,0.3,0.6 P,0,85163,85496,A F,0,85246,85496,1,0 M,0,85551,,315.0858,293.4304 C,0,85551,,234,119,214 F,0,85551,85635,0,1 S,0,85551,85885,0.3,0.6 P,0,85551,85885,A F,0,85635,85885,1,0 M,0,86052,,144,299 C,0,86052,,104,137,249 F,0,86052,86135,0,1 S,0,86052,86385,0.25,0.5 P,0,86052,86385,A F,0,86135,86385,0.8,0 M,0,86412,,144.6783,135.916 C,0,86412,,104,137,249 F,0,86412,86496,0,1 S,0,86412,86746,0.3,0.6 P,0,86412,86746,A F,0,86496,86746,1,0 M,0,87163,,204.7097,75.23072 C,0,87163,,104,137,249 F,0,87163,87246,0,1 S,0,87163,87496,0.3,0.6 P,0,87163,87496,A F,0,87246,87496,1,0 M,0,87801,,479.5948,129.5463 C,0,87801,,252,247,199 F,0,87801,87884,0,1 S,0,87801,88134,0.3,0.6 P,0,87801,88134,A F,0,87884,88134,1,0 M,0,88163,,510.6684,243.5961 C,0,88163,,86,239,243 F,0,88163,88246,0,1 S,0,88163,88496,0.3,0.6 P,0,88163,88496,A F,0,88246,88496,1,0 M,0,88829,,359.3146,407.6436 C,0,88829,,234,119,214 F,0,88829,88912,0,1 S,0,88829,89162,0.3,0.6 P,0,88829,89162,A F,0,88912,89162,1,0 M,0,89163,,223.832,380.6433 C,0,89163,,234,119,214 F,0,89163,89246,0,1 S,0,89163,89496,0.3,0.6 P,0,89163,89496,A F,0,89246,89496,1,0 M,0,89829,,162.3347,321.53 C,0,89829,,234,119,214 F,0,89829,89912,0,1 S,0,89829,90162,0.3,0.6 P,0,89829,90162,A F,0,89912,90162,1,0 M,0,90801,,259.1196,125.9105 C,0,90801,,104,137,249 F,0,90801,90884,0,1 S,0,90801,91134,0.3,0.6 P,0,90801,91134,A F,0,90884,91134,1,0 M,0,91135,,396.0521,169.6909 C,0,91135,,104,137,249 F,0,91135,91218,0,1 S,0,91135,91468,0.3,0.6 P,0,91135,91468,A F,0,91218,91468,1,0 M,0,91523,,475.0399,160.5791 C,0,91523,,252,247,199 F,0,91523,91607,0,1 S,0,91523,91857,0.3,0.6 P,0,91523,91857,A F,0,91607,91857,1,0 M,0,91884,,496,258 C,0,91884,,252,247,199 F,0,91884,91968,0,1 S,0,91884,92218,0.3,0.6 P,0,91884,92218,A F,0,91968,92218,1,0 M,0,92496,,466.9426,344.4807 C,0,92496,,252,247,199 F,0,92496,92579,0,1 S,0,92496,92829,0.3,0.6 P,0,92496,92829,A F,0,92579,92829,1,0 M,0,93135,,209.9926,402.8751 C,0,93135,,252,247,199 F,0,93135,93218,0,1 S,0,93135,93468,0.3,0.6 P,0,93135,93468,A F,0,93218,93468,1,0 M,0,93523,,86.65121,417.2655 C,0,93523,,86,239,243 F,0,93523,93607,0,1 S,0,93523,93857,0.3,0.6 P,0,93523,93857,A F,0,93607,93857,1,0 M,0,94163,,241.96,224.36 C,0,94163,,234,119,214 F,0,94163,94246,0,1 S,0,94163,94496,0.3,0.6 P,0,94163,94496,A F,0,94246,94496,1,0 M,0,94718,,291,62 C,0,94718,,234,119,214 F,0,94718,94801,0,1 S,0,94718,95051,0.25,0.5 P,0,94718,95051,A F,0,94801,95051,0.8,0 M,0,95163,,339.4524,67.81429 C,0,95163,,234,119,214 F,0,95163,95246,0,1 S,0,95163,95496,0.3,0.6 P,0,95163,95496,A F,0,95246,95496,1,0 M,0,95718,,367,259 C,0,95718,,104,137,249 F,0,95718,95801,0,1 S,0,95718,96051,0.25,0.5 P,0,95718,96051,A F,0,95801,96051,0.8,0 M,0,96468,,340.431,415.1538 C,0,96468,,104,137,249 F,0,96468,96551,0,1 S,0,96468,96801,0.3,0.6 P,0,96468,96801,A F,0,96551,96801,1,0 M,0,96856,,248.4087,267.1915 C,0,96856,,252,247,199 F,0,96856,96940,0,1 S,0,96856,97190,0.3,0.6 P,0,96856,97190,A F,0,96940,97190,1,0 M,0,97190,,227.0471,155.9573 C,0,97190,,252,247,199 F,0,97190,97274,0,1 S,0,97190,97524,0.3,0.6 P,0,97190,97524,A F,0,97274,97524,1,0 M,0,97829,,168.9461,81.10828 C,0,97829,,252,247,199 F,0,97829,97912,0,1 S,0,97829,98162,0.3,0.6 P,0,97829,98162,A F,0,97912,98162,1,0 M,0,98468,,148.1143,306.0571 C,0,98468,,86,239,243 F,0,98468,98551,0,1 S,0,98468,98801,0.3,0.6 P,0,98468,98801,A F,0,98551,98801,1,0 M,0,98856,,271.7292,386.1262 C,0,98856,,234,119,214 F,0,98856,98940,0,1 S,0,98856,99190,0.3,0.6 P,0,98856,99190,A F,0,98940,99190,1,0 M,0,99496,,380.4701,154.694 C,0,99496,,104,137,249 F,0,99496,99579,0,1 S,0,99496,99829,0.3,0.6 P,0,99496,99829,A F,0,99579,99829,1,0 M,0,99884,,489,180 C,0,99884,,104,137,249 F,0,99884,99968,0,1 S,0,99884,100218,0.3,0.6 P,0,99884,100218,A F,0,99968,100218,1,0 M,0,100496,,561.0986,244.3095 C,0,100496,,104,137,249 F,0,100496,100579,0,1 S,0,100496,100829,0.3,0.6 P,0,100496,100829,A F,0,100579,100829,1,0 M,0,101468,,396.0652,333.1605 C,0,101468,,252,247,199 F,0,101468,101551,0,1 S,0,101468,101801,0.3,0.6 P,0,101468,101801,A F,0,101551,101801,1,0 M,0,101856,,253.0585,329.9139 C,0,101856,,252,247,199 F,0,101856,101940,0,1 S,0,101856,102190,0.3,0.6 P,0,101856,102190,A F,0,101940,102190,1,0
Sprite,Foreground,Centre,"sb\hl.png",0,0 M,0,84856,,326.9948,129.518 C,0,84856,,234,119,214 F,0,84856,84940,0,1 S,0,84856,85190,0.3,0.6 P,0,84856,85190,A F,0,84940,85190,1,0 M,0,85190,,394.2906,221.6005 C,0,85190,,234,119,214 F,0,85190,85274,0,1 S,0,85190,85524,0.3,0.6 P,0,85190,85524,A F,0,85274,85524,1,0 M,0,85579,,306.7334,288.325 C,0,85579,,234,119,214 F,0,85579,85662,0,1 S,0,85579,85912,0.3,0.6 P,0,85579,85912,A F,0,85662,85912,1,0 M,0,86052,,144,299 C,0,86052,,104,137,249 F,0,86052,86135,0,1 S,0,86052,86385,0.3,0.6 P,0,86052,86385,A F,0,86135,86385,1,0 M,0,86579,,144.6783,135.916 C,0,86579,,104,137,249 F,0,86579,86662,0,1 S,0,86579,86912,0.3,0.6 P,0,86579,86912,A F,0,86662,86912,1,0 M,0,87190,,214.6054,82.34894 C,0,87190,,104,137,249 F,0,87190,87274,0,1 S,0,87190,87524,0.3,0.6 P,0,87190,87524,A F,0,87274,87524,1,0 M,0,87829,,482.1204,141.3928 C,0,87829,,252,247,199 F,0,87829,87912,0,1 S,0,87829,88162,0.3,0.6 P,0,87829,88162,A F,0,87912,88162,1,0 M,0,88190,,522.6067,241.0828 C,0,88190,,86,239,243 F,0,88190,88274,0,1 S,0,88190,88524,0.3,0.6 P,0,88190,88524,A F,0,88274,88524,1,0 M,0,88856,,347.341,405.3055 C,0,88856,,234,119,214 F,0,88856,88940,0,1 S,0,88856,89190,0.3,0.6 P,0,88856,89190,A F,0,88940,89190,1,0 M,0,89190,,235.916,382.3217 C,0,89190,,234,119,214 F,0,89190,89274,0,1 S,0,89190,89524,0.3,0.6 P,0,89190,89524,A F,0,89274,89524,1,0 M,0,89856,,160.9183,309.4125 C,0,89856,,234,119,214 F,0,89856,89940,0,1 S,0,89856,90190,0.3,0.6 P,0,89856,90190,A F,0,89940,90190,1,0 M,0,90829,,271.1595,127.8806 C,0,90829,,104,137,249 F,0,90829,90912,0,1 S,0,90829,91162,0.3,0.6 P,0,90829,91162,A F,0,90912,91162,1,0 M,0,91163,,408.0695,167.5878 C,0,91163,,104,137,249 F,0,91163,91246,0,1 S,0,91163,91496,0.3,0.6 P,0,91163,91496,A F,0,91246,91496,1,0 M,0,91718,,496,258 C,0,91718,,252,247,199 F,0,91718,91801,0,1 S,0,91718,92051,0.25,0.5 P,0,91718,92051,A F,0,91801,92051,0.8,0 M,0,92052,,515,336 C,0,92052,,252,247,199 F,0,92052,92135,0,1 S,0,92052,92385,0.25,0.5 P,0,92052,92385,A F,0,92135,92385,0.8,0 M,0,92523,,457.3423,349.8788 C,0,92523,,252,247,199 F,0,92523,92607,0,1 S,0,92523,92857,0.3,0.6 P,0,92523,92857,A F,0,92607,92857,1,0 M,0,93163,,198.1237,405.2911 C,0,93163,,252,247,199 F,0,93163,93246,0,1 S,0,93163,93496,0.3,0.6 P,0,93163,93496,A F,0,93246,93496,1,0 M,0,93551,,84.19106,429.2149 C,0,93551,,86,239,243 F,0,93551,93635,0,1 S,0,93551,93885,0.3,0.6 P,0,93551,93885,A F,0,93635,93885,1,0 M,0,94190,,238.6084,212.6294 C,0,94190,,234,119,214 F,0,94190,94274,0,1 S,0,94190,94524,0.3,0.6 P,0,94190,94524,A F,0,94274,94524,1,0 M,0,95190,,351.5655,69.26786 C,0,95190,,234,119,214 F,0,95190,95274,0,1 S,0,95190,95524,0.3,0.6 P,0,95190,95524,A F,0,95274,95524,1,0 M,0,96496,,328.985,411.2772 C,0,96496,,104,137,249 F,0,96496,96579,0,1 S,0,96496,96829,0.3,0.6 P,0,96496,96829,A F,0,96579,96829,1,0 M,0,97052,,229,168 C,0,97052,,252,247,199 F,0,97052,97135,0,1 S,0,97052,97385,0.3,0.6 P,0,97052,97385,A F,0,97135,97385,1,0 M,0,97856,,158.0275,86.11668 C,0,97856,,252,247,199 F,0,97856,97940,0,1 S,0,97856,98190,0.3,0.6 P,0,97856,98190,A F,0,97940,98190,1,0 M,0,98496,,160.1524,304.0762 C,0,98496,,86,239,243 F,0,98496,98579,0,1 S,0,98496,98829,0.3,0.6 P,0,98496,98829,A F,0,98579,98829,1,0 M,0,98884,,266.8869,397.324 C,0,98884,,234,119,214 F,0,98884,98968,0,1 S,0,98884,99218,0.3,0.6 P,0,98884,99218,A F,0,98968,99218,1,0 M,0,99523,,392.4332,157.0866 C,0,99523,,104,137,249 F,0,99523,99607,0,1 S,0,99523,99857,0.3,0.6 P,0,99523,99857,A F,0,99607,99857,1,0 M,0,99912,,501.084,181.6783 C,0,99912,,104,137,249 F,0,99912,99995,0,1 S,0,99912,100245,0.3,0.6 P,0,99912,100245,A F,0,99995,100245,1,0 M,0,100523,,559.3733,256.3869 C,0,100523,,104,137,249 F,0,100523,100607,0,1 S,0,100523,100857,0.3,0.6 P,0,100523,100857,A F,0,100607,100857,1,0 M,0,101496,,384.9634,338.1897 C,0,101496,,252,247,199 F,0,101496,101579,0,1 S,0,101496,101829,0.3,0.6 P,0,101496,101829,A F,0,101579,101829,1,0
Sprite,Foreground,Centre,"sb\hl.png",0,0 M,0,85385,,374,310 C,0,85385,,234,119,214 F,0,85385,85468,0,1 S,0,85385,85718,0.25,0.5 P,0,85385,85718,A F,0,85468,85718,0.8,0 M,0,85718,,270.4263,254.3536 C,0,85718,,234,119,214 F,0,85718,85801,0,1 S,0,85718,86051,0.3,0.6 P,0,85718,86051,A F,0,85801,86051,1,0 M,0,86385,,143,148 C,0,86385,,104,137,249 F,0,86385,86468,0,1 S,0,86385,86718,0.25,0.5 P,0,86385,86718,A F,0,86468,86718,0.8,0 M,0,87218,,224.9045,88.84581 C,0,87218,,104,137,249 F,0,87218,87302,0,1 S,0,87218,87552,0.3,0.6 P,0,87218,87552,A F,0,87302,87552,1,0 M,0,87856,,483.0627,153.5025 C,0,87856,,252,247,199 F,0,87856,87940,0,1 S,0,87856,88190,0.3,0.6 P,0,87856,88190,A F,0,87940,88190,1,0 M,0,88218,,534.545,238.5695 C,0,88218,,86,239,243 F,0,88218,88302,0,1 S,0,88218,88552,0.3,0.6 P,0,88218,88552,A F,0,88302,88552,1,0 M,0,89218,,248,384 C,0,89218,,234,119,214 F,0,89218,89302,0,1 S,0,89218,89552,0.3,0.6 P,0,89218,89552,A F,0,89302,89552,1,0 M,0,90856,,281.0589,132.4441 C,0,90856,,104,137,249 F,0,90856,90940,0,1 S,0,90856,91190,0.3,0.6 P,0,90856,91190,A F,0,90940,91190,1,0 M,0,91190,,420.0869,165.4848 C,0,91190,,104,137,249 F,0,91190,91274,0,1 S,0,91190,91524,0.3,0.6 P,0,91190,91524,A F,0,91274,91524,1,0 M,0,91718,,496,258 C,0,91718,,252,247,199 F,0,91718,91801,0,1 S,0,91718,92051,0.3,0.6 P,0,91718,92051,A F,0,91801,92051,1,0 M,0,92551,,445.3539,352.1408 C,0,92551,,252,247,199 F,0,92551,92635,0,1 S,0,92551,92885,0.3,0.6 P,0,92551,92885,A F,0,92635,92885,1,0 M,0,93190,,186.0441,405.7966 C,0,93190,,252,247,199 F,0,93190,93274,0,1 S,0,93190,93524,0.3,0.6 P,0,93190,93524,A F,0,93274,93524,1,0 M,0,93579,,86.65121,417.2655 C,0,93579,,86,239,243 F,0,93579,93662,0,1 S,0,93579,93912,0.3,0.6 P,0,93579,93912,A F,0,93662,93912,1,0 M,0,94218,,235.2568,200.8988 C,0,94218,,234,119,214 F,0,94218,94302,0,1 S,0,94218,94552,0.3,0.6 P,0,94218,94552,A F,0,94302,94552,1,0 M,0,95218,,363.6786,70.72143 C,0,95218,,234,119,214 F,0,95218,95302,0,1 S,0,95218,95552,0.3,0.6 P,0,95218,95552,A F,0,95302,95552,1,0 M,0,96523,,318.4111,405.4652 C,0,96523,,104,137,249 F,0,96523,96607,0,1 S,0,96523,96857,0.3,0.6 P,0,96523,96857,A F,0,96607,96857,1,0 M,0,97218,,229,168 C,0,97218,,252,247,199 F,0,97218,97302,0,1 S,0,97218,97552,0.3,0.6 P,0,97218,97552,A F,0,97302,97552,1,0 M,0,97884,,148.8963,93.99034 C,0,97884,,252,247,199 F,0,97884,97968,0,1 S,0,97884,98218,0.3,0.6 P,0,97884,98218,A F,0,97968,98218,1,0 M,0,98523,,172.1905,302.0952 C,0,98523,,86,239,243 F,0,98523,98607,0,1 S,0,98523,98857,0.3,0.6 P,0,98523,98857,A F,0,98607,98857,1,0 M,0,98912,,271.7292,386.1262 C,0,98912,,234,119,214 F,0,98912,98995,0,1 S,0,98912,99245,0.3,0.6 P,0,98912,99245,A F,0,98995,99245,1,0 M,0,99718,,489,180 C,0,99718,,104,137,249 F,0,99718,99801,0,1 S,0,99718,100051,0.25,0.5 P,0,99718,100051,A F,0,99801,100051,0.8,0 M,0,100052,,568,196 C,0,100052,,104,137,249 F,0,100052,100135,0,1 S,0,100052,100385,0.25,0.5 P,0,100052,100385,A F,0,100135,100385,0.8,0 M,0,100718,,573,359 C,0,100718,,104,137,249 F,0,100718,100801,0,1 S,0,100718,101051,0.25,0.5 P,0,100718,101051,A F,0,100801,101051,0.8,0 M,0,101523,,374.4292,344.3419 C,0,101523,,252,247,199 F,0,101523,101607,0,1 S,0,101523,101857,0.3,0.6 P,0,101523,101857,A F,0,101607,101857,1,0
Sprite,Foreground,Centre,"sb\hl.png",0,0 M,0,85385,,374,310 C,0,85385,,234,119,214 F,0,85385,85468,0,1 S,0,85385,85718,0.3,0.6 P,0,85385,85718,A F,0,85468,85718,1,0 M,0,86385,,143,148 C,0,86385,,104,137,249 F,0,86385,86468,0,1 S,0,86385,86718,0.3,0.6 P,0,86385,86718,A F,0,86468,86718,1,0 M,0,87246,,236.3619,92.97787 C,0,87246,,104,137,249 F,0,87246,87329,0,1 S,0,87246,87579,0.3,0.6 P,0,87246,87579,A F,0,87329,87579,1,0 M,0,88246,,522.6067,241.0828 C,0,88246,,86,239,243 F,0,88246,88329,0,1 S,0,88246,88579,0.3,0.6 P,0,88246,88579,A F,0,88329,88579,1,0 M,0,89246,,235.916,382.3217 C,0,89246,,234,119,214 F,0,89246,89329,0,1 S,0,89246,89579,0.3,0.6 P,0,89246,89579,A F,0,89329,89579,1,0 M,0,90884,,292.9846,135.0163 C,0,90884,,104,137,249 F,0,90884,90968,0,1 S,0,90884,91218,0.3,0.6 P,0,90884,91218,A F,0,90968,91218,1,0 M,0,91385,,500,107 C,0,91385,,252,247,199 F,0,91385,91468,0,1 S,0,91385,91718,0.3,0.6 P,0,91385,91718,A F,0,91468,91718,1,0 M,0,91912,,497.9027,270.0507 C,0,91912,,252,247,199 F,0,91912,91995,0,1 S,0,91912,92245,0.3,0.6 P,0,91912,92245,A F,0,91995,92245,1,0 M,0,92579,,433.3654,354.4027 C,0,92579,,252,247,199 F,0,92579,92662,0,1 S,0,92579,92912,0.3,0.6 P,0,92579,92912,A F,0,92662,92912,1,0 M,0,93385,,99,358 C,0,93385,,86,239,243 F,0,93385,93468,0,1 S,0,93385,93718,0.3,0.6 P,0,93385,93718,A F,0,93468,93718,1,0 M,0,94246,,233.3232,188.9634 C,0,94246,,234,119,214 F,0,94246,94329,0,1 S,0,94246,94579,0.3,0.6 P,0,94246,94579,A F,0,94329,94579,1,0 M,0,95246,,371.9171,78.88954 C,0,95246,,234,119,214 F,0,95246,95329,0,1 S,0,95246,95579,0.3,0.6 P,0,95246,95579,A F,0,95329,95579,1,0 M,0,96718,,256,327 C,0,96718,,252,247,199 F,0,96718,96801,0,1 S,0,96718,97051,0.3,0.6 P,0,96718,97051,A F,0,96801,97051,1,0 M,0,97246,,227.0471,155.9573 C,0,97246,,252,247,199 F,0,97246,97329,0,1 S,0,97246,97579,0.3,0.6 P,0,97246,97579,A F,0,97329,97579,1,0 M,0,97912,,141.5815,103.5276 C,0,97912,,252,247,199 F,0,97912,97995,0,1 S,0,97912,98245,0.3,0.6 P,0,97912,98245,A F,0,97995,98245,1,0 M,0,98718,,267,329 C,0,98718,,234,119,214 F,0,98718,98801,0,1 S,0,98718,99051,0.3,0.6 P,0,98718,99051,A F,0,98801,99051,1,0 M,0,99718,,489,180 C,0,99718,,104,137,249 F,0,99718,99801,0,1 S,0,99718,100051,0.3,0.6 P,0,99718,100051,A F,0,99801,100051,1,0 M,0,101579,,351.9022,353.4106 C,0,101579,,252,247,199 F,0,101579,101662,0,1 S,0,101579,101912,0.3,0.6 P,0,101579,101912,A F,0,101662,101912,1,0
Sprite,Foreground,Centre,"sb\hl.png",0,0 M,0,85607,,299.9568,280.7015 C,0,85607,,234,119,214 F,0,85607,85690,0,1 S,0,85607,85940,0.3,0.6 P,0,85607,85940,A F,0,85690,85940,1,0 M,0,86607,,146.3567,123.832 C,0,86607,,104,137,249 F,0,86607,86690,0,1 S,0,86607,86940,0.3,0.6 P,0,86607,86940,A F,0,86690,86940,1,0 M,0,87274,,248.3315,95.29906 C,0,87274,,104,137,249 F,0,87274,87357,0,1 S,0,87274,87607,0.3,0.6 P,0,87274,87607,A F,0,87357,87607,1,0 M,0,88274,,510.6684,243.5961 C,0,88274,,86,239,243 F,0,88274,88357,0,1 S,0,88274,88607,0.3,0.6 P,0,88274,88607,A F,0,88357,88607,1,0 M,0,89274,,223.832,380.6433 C,0,89274,,234,119,214 F,0,89274,89357,0,1 S,0,89274,89607,0.3,0.6 P,0,89274,89607,A F,0,89357,89607,1,0 M,0,90940,,316.8362,140.1607 C,0,90940,,104,137,249 F,0,90940,91023,0,1 S,0,90940,91273,0.3,0.6 P,0,90940,91273,A F,0,91023,91273,1,0 M,0,91940,,499.8055,282.1014 C,0,91940,,252,247,199 F,0,91940,92023,0,1 S,0,91940,92273,0.3,0.6 P,0,91940,92273,A F,0,92023,92273,1,0 M,0,92607,,421.3769,356.6647 C,0,92607,,252,247,199 F,0,92607,92690,0,1 S,0,92607,92940,0.3,0.6 P,0,92607,92940,A F,0,92690,92940,1,0 M,0,93607,,89.11138,405.3161 C,0,93607,,86,239,243 F,0,93607,93690,0,1 S,0,93607,93940,0.3,0.6 P,0,93607,93940,A F,0,93690,93940,1,0 M,0,94274,,230.0579,177.2085 C,0,94274,,234,119,214 F,0,94274,94357,0,1 S,0,94274,94607,0.3,0.6 P,0,94274,94607,A F,0,94357,94607,1,0 M,0,95274,,379.2372,88.64954 C,0,95274,,234,119,214 F,0,95274,95357,0,1 S,0,95274,95607,0.3,0.6 P,0,95274,95607,A F,0,95357,95607,1,0 M,0,97274,,225.0943,143.9146 C,0,97274,,252,247,199 F,0,97274,97357,0,1 S,0,97274,97607,0.3,0.6 P,0,97274,97607,A F,0,97357,97607,1,0 M,0,97940,,137.2318,114.7747 C,0,97940,,252,247,199 F,0,97940,98023,0,1 S,0,97940,98273,0.3,0.6 P,0,97940,98273,A F,0,98023,98273,1,0 M,0,98940,,276.5715,374.9283 C,0,98940,,234,119,214 F,0,98940,99023,0,1 S,0,98940,99273,0.3,0.6 P,0,98940,99273,A F,0,99023,99273,1,0 M,0,99940,,513.168,183.3567 C,0,99940,,104,137,249 F,0,99940,100023,0,1 S,0,99940,100273,0.3,0.6 P,0,99940,100273,A F,0,100023,100273,1,0 M,0,101607,,339.8422,355.1969 C,0,101607,,252,247,199 F,0,101607,101690,0,1 S,0,101607,101940,0.3,0.6 P,0,101607,101940,A F,0,101690,101940,1,0
Sprite,Foreground,Centre,"sb\hl.png",0,0 M,0,85635,,293.1804,273.0779 C,0,85635,,234,119,214 F,0,85635,85718,0,1 S,0,85635,85968,0.3,0.6 P,0,85635,85968,A F,0,85718,85968,1,0 M,0,86718,,157,69 C,0,86718,,104,137,249 F,0,86718,86801,0,1 S,0,86718,87051,0.25,0.5 P,0,86718,87051,A F,0,86801,87051,0.8,0 M,0,87385,,304,94 C,0,87385,,252,247,199 F,0,87385,87468,0,1 S,0,87385,87718,0.25,0.5 P,0,87385,87718,A F,0,87468,87718,0.8,0 M,0,88302,,498.6879,244.1146 C,0,88302,,86,239,243 F,0,88302,88385,0,1 S,0,88302,88635,0.3,0.6 P,0,88302,88635,A F,0,88385,88635,1,0 M,0,89385,,168,370 C,0,89385,,234,119,214 F,0,89385,89468,0,1 S,0,89385,89718,0.25,0.5 P,0,89385,89718,A F,0,89468,89718,0.8,0 M,0,92718,,368,374 C,0,92718,,252,247,199 F,0,92718,92801,0,1 S,0,92718,93051,0.25,0.5 P,0,92718,93051,A F,0,92801,93051,0.8,0 M,0,93635,,90.1232,393.5072 C,0,93635,,86,239,243 F,0,93635,93718,0,1 S,0,93635,93968,0.3,0.6 P,0,93635,93968,A F,0,93718,93968,1,0 M,0,94385,,184,156 C,0,94385,,234,119,214 F,0,94385,94468,0,1 S,0,94385,94718,0.25,0.5 P,0,94385,94718,A F,0,94468,94718,0.8,0 M,0,95385,,427,113 C,0,95385,,104,137,249 F,0,95385,95468,0,1 S,0,95385,95718,0.25,0.5 P,0,95385,95718,A F,0,95468,95718,0.8,0 M,0,97385,,215,88 C,0,97385,,252,247,199 F,0,97385,97468,0,1 S,0,97385,97718,0.25,0.5 P,0,97385,97718,A F,0,97468,97718,0.8,0 M,0,98968,,278.847,363.6296 C,0,98968,,234,119,214 F,0,98968,99051,0,1 S,0,98968,99301,0.3,0.6 P,0,98968,99301,A F,0,99051,99301,1,0 M,0,101718,,284,377 C,0,101718,,252,247,199 F,0,101718,101801,0,1 S,0,101718,102051,0.25,0.5 P,0,101718,102051,A F,0,101801,102051,0.8,0
Sprite,Foreground,Centre,"sb\hl.png",0,0 M,0,85662,,286.4038,265.4543 C,0,85662,,234,119,214 F,0,85662,85746,0,1 S,0,85662,85996,0.3,0.6 P,0,85662,85996,A F,0,85746,85996,1,0 M,0,88329,,486.7865,246.5631 C,0,88329,,86,239,243 F,0,88329,88413,0,1 S,0,88329,88663,0.3,0.6 P,0,88329,88663,A F,0,88413,88663,1,0 M,0,93662,,93.08213,381.6715 C,0,93662,,86,239,243 F,0,93662,93746,0,1 S,0,93662,93996,0.3,0.6 P,0,93662,93996,A F,0,93746,93996,1,0 M,0,94385,,184,156 C,0,94385,,234,119,214 F,0,94385,94468,0,1 S,0,94385,94718,0.3,0.6 P,0,94385,94718,A F,0,94468,94718,1,0 M,0,95385,,427,113 C,0,95385,,104,137,249 F,0,95385,95468,0,1 S,0,95385,95718,0.3,0.6 P,0,95385,95718,A F,0,95468,95718,1,0 M,0,98995,,274.898,352.0864 C,0,98995,,234,119,214 F,0,98995,99079,0,1 S,0,98995,99329,0.3,0.6 P,0,98995,99329,A F,0,99079,99329,1,0 M,0,101718,,284,377 C,0,101718,,252,247,199 F,0,101718,101801,0,1 S,0,101718,102051,0.3,0.6 P,0,101718,102051,A F,0,101801,102051,1,0
Sprite,Foreground,Centre,"sb\hl.png",0,0 M,0,85690,,279.6273,257.8307 C,0,85690,,234,119,214 F,0,85690,85773,0,1 S,0,85690,86023,0.3,0.6 P,0,85690,86023,A F,0,85773,86023,1,0 M,0,88357,,474.8933,249.2815 C,0,88357,,86,239,243 F,0,88357,88440,0,1 S,0,88357,88690,0.3,0.6 P,0,88357,88690,A F,0,88440,88690,1,0 M,0,93690,,96.04106,369.8357 C,0,93690,,86,239,243 F,0,93690,93773,0,1 S,0,93690,94023,0.3,0.6 P,0,93690,94023,A F,0,93773,94023,1,0 M,0,99023,,270.949,340.5432 C,0,99023,,234,119,214 F,0,99023,99106,0,1 S,0,99023,99356,0.3,0.6 P,0,99023,99356,A F,0,99106,99356,1,0
//Storyboard Layer 4 (Overlay)
//Storyboard Sound Samples

[TimingPoints]
719,333.333333333333,4,2,12,42,1,0
719,-108.695652173913,4,2,12,42,0,0
2385,-108.695652173913,4,2,12,42,0,0
2635,-108.695652173913,4,2,12,5,0,0
2718,-108.695652173913,4,2,12,42,0,0
3385,-108.695652173913,4,2,12,42,0,0
7718,-108.695652173913,4,2,12,42,0,0
7968,-108.695652173913,4,2,12,5,0,0
8052,-108.695652173913,4,2,12,42,0,0
10052,-81.9672131147541,4,2,12,42,0,0
10385,-89.2857142857143,4,2,12,42,0,0
10718,-98.0392156862745,4,2,12,42,0,0
11052,-108.695652173913,4,2,12,42,0,0
11385,-108.695652173913,4,2,12,42,0,0
13052,-108.695652173913,4,2,12,42,0,0
13302,-108.695652173913,4,2,12,5,0,0
13385,-108.695652173913,4,2,12,42,0,0
16385,-108.695652173913,4,2,12,42,0,0
16635,-108.695652173913,4,2,12,5,0,0
16718,-108.695652173913,4,2,12,42,0,0
18385,-108.695652173913,4,2,12,42,0,0
18635,-108.695652173913,4,2,12,5,0,0
18718,-108.695652173913,4,2,12,42,0,0
19385,-108.695652173913,4,2,22,52,0,0
19885,-108.695652173913,4,2,23,52,0,0
20385,-108.695652173913,4,2,24,52,0,0
20885,-108.695652173913,4,2,25,52,0,0
21052,-75.7575757575758,4,2,25,52,0,0
21302,-108.695652173913,4,2,25,5,0,0
21385,-108.695652173913,4,2,12,42,0,0
22052,-98.0392156862745,4,2,12,62,0,0
29052,-121.951219512195,4,2,12,62,0,0
30052,-98.0392156862744,4,2,12,62,0,0
31385,-81.9672131147541,4,2,12,62,0,0
31718,-89.2857142857143,4,2,12,62,0,0
32052,-98.0392156862745,4,2,12,62,0,0
32385,-108.695652173913,4,2,12,62,0,0
32718,-98.0392156862745,4,2,12,62,0,0
40385,-98.0392156862745,4,2,12,62,0,0
40635,-98.0392156862745,4,2,12,5,0,0
40718,-98.0392156862745,4,2,22,52,0,0
41218,-98.0392156862745,4,2,23,52,0,0
41385,-121.951219512195,4,2,23,52,0,0
41968,-121.951219512195,4,2,23,5,0,0
42052,-121.951219512195,4,2,13,62,0,0
42093,-121.951219512195,4,2,12,42,0,0
43052,-121.951219512195,4,2,13,52,0,0
43385,-92.5925925925926,4,2,14,62,0,0
43718,-92.5925925925926,4,2,12,62,0,0
46385,-128.205128205128,4,2,12,62,0,0
48385,-92.5925925925925,4,2,12,62,0,0
48718,-92.5925925925925,4,2,12,62,0,0
51718,-128.205128205128,4,2,12,62,0,0
53718,-121.951219512195,4,2,13,52,0,0
54052,-89.2857142857143,4,2,14,62,0,0
54385,-89.2857142857143,4,2,12,62,0,0
56218,-89.2857142857143,4,2,11,62,0,0
56274,-89.2857142857143,4,2,12,62,0,0
59052,-89.2857142857143,4,2,13,52,0,0
59385,-89.2857142857143,4,3,69,62,0,0
62052,-89.2857142857143,4,2,13,62,0,0
62385,-89.2857142857143,4,2,13,52,0,0
62718,-89.2857142857143,4,2,13,42,0,0
63052,-89.2857142857143,4,2,13,32,0,0
63385,-89.2857142857143,4,2,13,62,0,0
63718,-89.2857142857143,4,2,12,52,0,0
64718,-89.2857142857143,4,2,12,52,0,0
64968,-89.2857142857143,4,2,12,5,0,0
65052,-89.2857142857143,4,2,12,52,0,0
65302,-89.2857142857143,4,2,12,5,0,0
65385,-89.2857142857143,4,2,12,52,0,0
65718,-89.2857142857143,4,2,12,52,0,0
65968,-89.2857142857143,4,2,12,5,0,0
66052,-89.2857142857143,4,2,12,52,0,0
66302,-89.2857142857143,4,2,12,5,0,0
66385,-89.2857142857143,4,2,12,52,0,0
66718,-108.695652173913,4,2,14,62,0,0
67385,-81.9672131147541,4,2,14,72,0,1
68052,-81.9672131147541,4,2,14,72,0,1
68385,-81.9672131147541,4,2,14,72,0,1
68635,-81.9672131147541,4,2,14,5,0,1
68718,-81.9672131147541,4,2,14,72,0,1
70718,-81.9672131147541,4,2,14,72,0,1
71052,-81.9672131147541,4,2,14,72,0,1
71302,-81.9672131147541,4,2,14,5,0,1
71385,-81.9672131147541,4,2,14,72,0,1
72718,-81.9672131147541,4,2,14,72,0,1
72968,-81.9672131147541,4,2,14,5,0,1
73052,-81.9672131147541,4,2,14,72,0,1
73385,-81.9672131147541,4,2,14,72,0,1
73635,-81.9672131147541,4,2,14,5,0,1
73718,-81.9672131147541,4,2,14,72,0,1
74385,-89.2857142857143,4,2,14,72,0,1
74718,-98.0392156862745,4,2,14,72,0,1
75052,-108.695652173913,4,2,14,72,0,1
75385,-81.9672131147541,4,2,14,72,0,1
76052,-81.9672131147541,4,2,14,72,0,1
76385,-81.9672131147541,4,2,14,72,0,1
76635,-81.9672131147541,4,2,14,5,0,1
76718,-81.9672131147541,4,2,14,72,0,1
78385,-81.9672131147541,4,2,14,72,0,1
78718,-81.9672131147541,4,2,14,72,0,1
79052,-81.9672131147541,4,2,14,72,0,1
79302,-81.9672131147541,4,2,14,5,0,1
79385,-81.9672131147541,4,2,14,72,0,1
81385,-98.0392156862745,4,2,14,72,0,1
82635,-98.0392156862745,4,2,14,5,0,1
82718,-81.9672131147541,4,2,14,72,0,1
84718,-98.0392156862745,4,2,14,72,0,0
85052,-121.951219512195,4,2,14,72,0,0
85385,-98.0392156862744,4,2,14,72,0,0
86052,-81.9672131147541,4,2,14,72,0,1
86718,-81.9672131147541,4,2,14,72,0,1
87052,-81.9672131147541,4,2,14,72,0,1
87302,-81.9672131147541,4,2,14,5,0,1
87385,-81.9672131147541,4,2,14,72,0,1
89385,-81.9672131147541,4,2,14,72,0,1
90718,-81.9672131147541,4,2,14,72,0,1
90968,-81.9672131147541,4,2,14,5,0,1
91052,-81.9672131147541,4,2,14,72,0,1
92052,-81.9672131147541,4,2,14,72,0,1
92385,-81.9672131147541,4,2,14,72,0,1
92635,-81.9672131147541,4,2,14,5,0,1
92718,-81.9672131147541,4,2,14,72,0,1
94052,-81.9672131147541,4,2,14,72,0,1
94302,-81.9672131147541,4,2,14,5,0,1
94385,-81.9672131147541,4,2,14,72,0,1
95052,-81.9672131147541,4,2,14,72,0,1
95302,-81.9672131147541,4,2,14,5,0,1
95385,-81.9672131147541,4,2,14,72,0,1
97385,-81.9672131147541,4,2,14,72,0,1
97718,-81.9672131147541,4,2,14,72,0,1
97968,-81.9672131147541,4,2,14,5,0,1
98052,-81.9672131147541,4,2,14,72,0,1
100052,-81.9672131147541,4,2,14,72,0,1
101385,-81.9672131147541,4,2,14,72,0,1
101635,-81.9672131147541,4,2,14,5,0,1
101718,-81.9672131147541,4,2,14,72,0,1
102052,-81.9672131147541,4,2,13,72,0,0

[Colours]
Combo1 : 104,137,249
Combo2 : 252,247,199
Combo3 : 86,239,243
Combo4 : 234,119,214
SliderBorder : 186,196,222
SliderTrackOverride : 0,5,15

[HitObjects]
432,304,719,6,0,P|442:327|446:363,2,55.1999981469727,0|2|2,3:2|0:0|0:0,0:0:0:0:
374,252,1218,1,2,0:0:0:0:
374,252,1385,2,0,B|311:245|336:292|262:283,1,110.399996293945,10|0,0:0|3:2,0:0:0:0:
197,262,1885,1,2,0:0:0:0:
197,262,2052,2,0,P|191:229|186:208,1,55.1999981469727,0|2,0:0|0:0,0:0:0:0:
249,154,2385,2,0,P|256:109|267:66,1,82.7999972204591,2|0,0:0|0:0,0:0:0:0:
282,35,2718,6,0,L|309:39,3,27.5999990734864,10|0|0|0,0:0|0:0|0:0|0:0,0:0:0:0:
346,58,3052,2,0,L|373:54,3,27.5999990734864
403,24,3385,5,0,3:2:0:0:
487,45,3552,1,2,0:0:0:0:
487,45,3718,2,0,L|496:107,1,55.1999981469727,2|2,0:0|0:0,0:0:0:0:
422,140,4052,2,0,L|409:262,1,110.399996293945,10|0,0:0|3:2,0:0:0:0:
439,326,4552,2,0,P|473:319|501:313,2,55.1999981469727,2|2|2,0:0|0:0|0:0,0:0:0:0:
369,371,5052,1,2,0:0:0:0:
369,371,5218,1,2,0:0:0:0:
310,312,5385,2,0,P|276:305|248:299,1,55.1999981469727,10|2,0:0|0:0,0:0:0:0:
175,279,5718,1,2,0:0:0:0:
17,331,6052,6,0,P|7:354|3:390,2,55.1999981469727,0|2|2,3:2|0:0|0:0,0:0:0:0:
75,272,6551,1,2,0:0:0:0:
75,272,6718,2,0,P|97:215|77:164,1,110.399996293945,10|0,0:0|3:2,0:0:0:0:
38,106,7218,1,2,0:0:0:0:
38,106,7385,2,0,P|62:93|94:92,1,55.1999981469727,2|2,0:0|0:0,0:0:0:0:
152,36,7718,2,0,P|176:49|247:45,1,82.7999972204591,2|0,0:0|0:0,0:0:0:0:
269,36,8052,1,10,0:0:0:0:
269,36,8718,5,0,3:2:0:0:
340,87,8885,1,2,0:0:0:0:
340,87,9051,2,0,P|351:119|349:149,1,55.1999981469727,2|2,0:0|0:0,0:0:0:0:
350,223,9385,2,0,B|291:222|307:187|240:188,1,110.399996293945,10|0,0:0|3:2,0:0:0:0:
179,245,9885,1,2,0:0:0:0:
179,245,10052,6,0,L|190:322,1,73.199996984253,2|2,0:0|0:0,0:0:0:0:
101,348,10385,2,0,L|91:280,1,67.2000008203125,2|2,0:0|0:0,0:0:0:0:
41,204,10718,2,0,P|69:187|101:185,1,61.2000003735352,10|2,0:0|0:0,0:0:0:0:
158,128,11052,2,0,P|186:145|214:146,1,55.1999981469727,2|2,0:0|0:0,0:0:0:0:
290,151,11385,6,0,P|288:121|275:98,2,55.1999981469727,0|2|2,3:2|0:0|0:0,0:0:0:0:
276,235,11884,1,2,0:0:0:0:
276,235,12051,2,0,P|331:225|384:214,1,110.399996293945,8|0,0:0|3:2,0:0:0:0:
453,167,12551,1,2,0:0:0:0:
453,167,12718,2,0,P|466:191|467:223,1,55.1999981469727,2|2,0:0|0:0,0:0:0:0:
427,291,13052,2,0,P|372:302|331:311,1,82.7999972204591,2|0,0:0|0:0,0:0:0:0:
313,334,13385,6,0,L|286:330,3,27.5999990734864,10|0|0|0,0:0|0:0|0:0|0:0,0:0:0:0:
255,300,13718,2,0,L|228:304,3,27.5999990734864
195,330,14052,5,0,3:2:0:0:
132,284,14218,1,2,0:0:0:0:
132,284,14385,2,0,L|142:220,1,55.1999981469727,2|2,0:0|0:0,0:0:0:0:
219,204,14718,2,0,L|202:81,1,110.399996293945,10|0,0:0|3:2,0:0:0:0:
282,61,15218,1,2,0:0:0:0:
282,61,15385,2,0,L|292:125,1,55.1999981469727,0|2,0:0|0:0,0:0:0:0:
354,176,15718,1,2,0:0:0:0:
354,176,15885,1,2,0:0:0:0:
288,226,16052,2,0,P|271:257|274:286,1,55.1999981469727,10|2,0:0|0:0,0:0:0:0:
302,353,16385,1,2,0:0:0:0:
460,305,16718,6,0,P|488:309|513:320,2,55.1999981469727,0|2|2,3:2|0:0|0:0,0:0:0:0:
412,243,17218,1,2,0:0:0:0:
412,243,17385,2,0,P|434:186|414:135,1,110.399996293945,10|0,0:0|3:2,0:0:0:0:
366,84,17885,1,2,0:0:0:0:
366,84,18052,2,0,P|338:85|314:98,1,55.1999981469727,2|2,0:0|0:0,0:0:0:0:
251,151,18385,2,0,P|223:149|187:102,1,82.7999972204591,2|0,0:0|0:0,0:0:0:0:
148,96,18718,6,0,L|121:100,3,27.5999990734864,8|0|0|0,0:0|0:0|0:0|0:0,0:0:0:0:
95,133,19052,2,0,L|68:129,3,27.5999990734864
25,126,19385,5,8,0:3:0:0:
25,126,19552,1,8,0:3:0:0:
34,286,19885,1,8,0:3:0:0:
34,286,20052,1,8,0:3:0:0:
197,278,20385,1,8,0:3:0:0:
197,278,20552,1,8,0:3:0:0:
188,115,20885,1,8,0:3:0:0:
188,115,21052,2,0,B|241:104|241:104|252:106|252:106|310:94,1,118.799999637451,8|0,0:3|0:0,0:0:0:0:
346,85,21385,1,8,0:0:0:0:
346,85,22052,6,0,P|396:125|397:183,1,122.40000074707,0|2,3:2|0:0,0:0:0:0:
418,261,22552,1,2,0:0:0:0:
418,261,22718,2,0,P|390:265|356:254,1,61.2000003735352,8|0,0:0|0:0,0:0:0:0:
295,205,23052,2,0,L|228:219,2,61.2000003735352,2|2|2,3:2|0:0|0:0,0:0:0:0:
432,123,23718,2,0,L|491:135,2,61.2000003735352,2|2|10,0:0|0:0|0:0,0:0:0:0:
388,62,24218,1,2,0:0:0:0:
388,62,24385,2,0,L|326:71,1,61.2000003735352,2|0,0:0|0:0,0:0:0:0:
288,140,24718,6,0,B|231:130|231:130|219:133|219:133|158:123,1,122.40000074707,2|0,3:2|0:0,0:0:0:0:
107,76,25218,1,0,0:0:0:0:
107,76,25385,2,0,P|91:108|91:140,1,61.2000003735352,10|0,0:0|0:0,0:0:0:0:
46,199,25718,2,0,P|62:231|62:263,1,61.2000003735352,2|2,3:2|0:0,0:0:0:0:
111,322,26052,5,2,0:0:0:0:
193,304,26218,1,2,0:0:0:0:
193,304,26302,1,0,0:0:0:0:
193,304,26385,2,0,P|194:335|181:372,1,61.2000003735352,2|2,0:0|0:0,0:0:0:0:
285,263,26718,2,0,P|257:248|235:220,1,61.2000003735352,10|2,0:0|0:0,0:0:0:0:
269,356,27052,2,0,P|295:339|329:334,1,61.2000003735352,2|0,0:0|0:0,0:0:0:0:
401,352,27385,6,0,P|413:288|426:215,1,122.40000074707,0|2,3:2|0:0,0:0:0:0:
467,166,27885,1,2,0:0:0:0:
467,166,28052,1,10,0:0:0:0:
392,25,28385,6,0,B|343:32|343:32|319:48|319:48|269:56,1,122.40000074707,0|0,3:2|0:0,0:0:0:0:
80,95,29052,2,0,L|88:155,1,49.2000007507324,2|0,0:0|0:0,0:0:0:0:
163,162,29385,2,0,L|154:222,1,49.2000007507324,8|0,0:0|0:0,0:0:0:0:
111,275,29718,1,0,0:0:0:0:
290,374,30052,6,0,B|333:364|333:364|356:347|356:347|404:337,1,122.40000074707,2|0,3:2|0:0,0:0:0:0:
483,369,30552,1,0,0:0:0:0:
483,369,30718,2,0,P|503:327|476:245,1,122.40000074707,10|2,0:0|0:0,0:0:0:0:
426,211,31218,1,10,0:0:0:0:
426,211,31385,6,0,P|389:217|353:223,1,73.199996984253,2|0,0:0|0:0,0:0:0:0:
313,136,31718,2,0,P|276:129|243:125,1,67.2000008203125,2|0,3:2|0:0,0:0:0:0:
171,172,32052,2,0,P|187:197|190:227,1,61.2000003735352,10|0,0:0|0:0,0:0:0:0:
259,272,32385,2,0,P|242:297|239:328,1,55.1999981469727,2|0,0:0|0:0,0:0:0:0:
189,381,32718,5,2,3:2:0:0:
144,316,32885,1,2,0:0:0:0:
144,316,32968,1,0,0:0:0:0:
144,316,33052,2,0,P|116:312|83:310,1,61.2000003735352,2|2,0:0|0:0,0:0:0:0:
13,349,33385,2,0,P|47:307|29:234,1,122.40000074707,10|2,0:0|3:2,0:0:0:0:
11,172,33885,1,2,0:0:0:0:
11,172,34052,6,0,P|45:165|71:160,1,61.2000003735352,2|2,0:0|0:0,0:0:0:0:
112,91,34385,2,0,P|142:96|172:103,1,61.2000003735352,2|2,0:0|0:0,0:0:0:0:
224,163,34718,2,0,B|306:155|266:198|347:190,1,122.40000074707,10|2,0:0|0:0,0:0:0:0:
480,116,35385,6,0,P|446:158|464:231,1,122.40000074707,0|2,3:2|0:0,0:0:0:0:
506,290,35885,1,2,0:0:0:0:
506,290,36052,2,0,P|472:297|446:302,1,61.2000003735352,10|0,0:0|0:0,0:0:0:0:
400,367,36385,2,0,P|369:361|339:354,1,61.2000003735352,2|2,3:2|0:0,0:0:0:0:
276,307,36718,6,0,P|261:337|261:370,2,61.2000003735352,2|2|2,0:0|0:0|0:0,0:0:0:0:
348,270,37218,1,2,0:0:0:0:
348,270,37385,2,0,B|356:211|356:211|354:206|354:206|363:138,1,122.40000074707,10|2,0:0|0:0,0:0:0:0:
373,73,37885,1,0,0:0:0:0:
373,73,38052,6,0,B|299:69|334:105|257:100,1,122.40000074707,2|2,3:2|0:0,0:0:0:0:
196,57,38552,1,2,0:0:0:0:
196,57,38718,2,0,P|182:83|181:114,1,61.2000003735352,10|0,0:0|0:0,0:0:0:0:
234,173,39052,2,0,P|249:199|250:230,1,61.2000003735352,2|2,3:2|0:0,0:0:0:0:
198,290,39385,1,0,0:0:0:0:
270,344,39552,1,2,0:0:0:0:
270,344,39635,1,0,0:0:0:0:
270,344,39718,2,0,P|300:338|330:331,1,61.2000003735352,2|0,0:0|0:0,0:0:0:0:
343,251,40052,6,0,P|372:257|402:263,1,61.2000003735352,10|0,0:0|0:0,0:0:0:0:
460,319,40385,2,0,P|443:275|459:227,1,91.8000005603027,2|0,0:0|0:0,0:0:0:0:
482,205,40718,1,8,0:3:0:0:
482,205,40885,1,8,0:3:0:0:
453,53,41218,1,8,0:3:0:0:
453,53,41385,2,0,B|351:66|406:115|304:132,1,172.200002627564,8|0,0:3|0:0,0:0:0:0:
265,141,42052,5,2,0:3:0:0:
48,32,43052,2,0,L|42:56,3,24.6000003753662,8|0|8|0,0:2|0:0|0:3|0:0,0:0:0:0:
10,82,43385,6,0,P|22:152|30:211,1,129.600003164063,6|2,3:2|0:0,0:0:0:0:
182,281,44052,2,0,P|190:216|201:152,1,129.600003164063,2|2,0:0|0:0,0:0:0:0:
304,19,44718,2,0,P|369:24|387:135,1,194.400004746094,2|0,0:0|0:0,0:0:0:0:
328,194,45385,2,0,L|286:182,3,43.2000010546875,2|2|2|2,0:0|0:0|0:0|0:0,0:0:0:0:
448,229,46052,2,0,L|457:300,1,64.8000015820313,2|0,0:0|0:0,0:0:0:0:
416,368,46385,6,0,B|268:360|367:279|205:270,1,234.000007855225,2|0,0:0|0:0,0:0:0:0:
149,306,47385,2,0,P|181:275|88:160,1,234.000007855225,2|0,0:0|0:0,0:0:0:0:
20,208,48385,2,0,P|2:174|9:136,1,64.8000015820313,2|2,0:0|0:0,0:0:0:0:
47,76,48718,6,0,B|123:79|101:40|176:35,1,129.600003164063,2|2,0:0|0:0,0:0:0:0:
252,181,49385,2,0,B|328:178|306:217|372:221,1,129.600003164063,2|2,0:0|0:0,0:0:0:0:
488,99,50052,2,0,P|473:190|457:297,1,194.400004746094,2|0,0:0|0:0,0:0:0:0:
464,374,50718,2,0,P|488:371|511:359,3,43.2000010546875,2|2|2|2,0:0|0:0|0:0|0:0,0:0:0:0:
352,290,51385,2,0,P|317:279|287:281,1,64.8000015820313,2|0,0:0|0:0,0:0:0:0:
227,332,51718,6,0,B|177:267|177:267|225:122,1,234.000007855225,2|0,0:0|0:0,0:0:0:0:
296,87,52718,2,0,B|186:89|246:12|132:14,1,187.20000628418,2|8,0:0|0:0,0:0:0:0:
0,125,53718,2,0,P|4:140|8:154,3,24.6000003753662,8|0|8|0,0:3|0:0|0:3|0:0,0:0:0:0:
47,166,54052,6,0,B|37:230|37:230|40:230|40:230|28:300,1,134.400001640625,6|2,3:2|0:0,0:0:0:0:
78,373,54552,1,4,3:3:0:0:
78,373,54718,2,0,P|111:378|150:385,1,67.2000008203125,10|4,3:2|0:3,0:0:0:0:
167,298,55052,2,0,P|200:293|239:286,1,67.2000008203125,2|4,0:0|0:3,0:0:0:0:
314,320,55385,2,0,B|325:351|325:351|311:393,2,67.2000008203125,2|4|2,3:2|0:3|0:0,0:0:0:0:
409,171,56052,6,0,B|398:138|398:138|409:107,2,67.2000008203125,8|4|2,3:2|0:3|0:0,0:0:0:0:
468,242,56552,1,4,3:3:0:0:
468,242,56718,2,0,P|434:248|401:253,1,67.2000008203125,2|4,3:2|0:3,0:0:0:0:
381,338,57052,2,0,P|333:331|233:314,1,134.400001640625,2|10,0:0|3:2,0:0:0:0:
131,185,57718,2,0,P|130:151|144:121,1,67.2000008203125,2|4,0:0|0:3,0:0:0:0:
188,47,58052,1,2,3:2:0:0:
188,47,58218,2,0,P|147:37|118:30,2,67.2000008203125,4|2|4,0:3|0:0|0:3,0:0:0:0:
271,19,58718,2,0,P|303:11|336:3,1,67.2000008203125,8|4,3:2|0:3,0:0:0:0:
399,64,59052,2,0,P|431:71|457:79,3,33.6000004101563,8|8|8|8,0:3|0:3|0:3|0:3,0:0:0:0:
464,100,59385,6,0,L|480:168,1,67.2000008203125,6|4,0:3|0:3,0:0:0:0:
396,192,59718,2,0,L|380:260,1,67.2000008203125,6|4,0:3|0:3,0:0:0:0:
428,330,60052,2,0,P|399:346|362:345,1,67.2000008203125,6|4,0:3|0:3,0:0:0:0:
307,280,60385,2,0,P|278:264|241:264,1,67.2000008203125,6|4,0:3|0:3,0:0:0:0:
173,313,60718,1,6,0:3:0:0:
173,313,60885,1,4,0:3:0:0:
106,255,61052,2,0,P|91:220|94:186,1,67.2000008203125,4|4,0:3|0:3,0:0:0:0:
124,112,61385,1,6,0:3:0:0:
124,112,61552,1,6,0:3:0:0:
194,61,61718,2,0,P|226:68|259:77,1,67.2000008203125,6|4,0:3|0:3,0:0:0:0:
343,101,62052,6,0,L|347:136,3,33.6000004101563,8|4|8|4,0:0|0:3|0:0|0:3,0:0:0:0:
314,163,62385,2,0,L|310:198,3,33.6000004101563,8|4|8|4,0:0|0:3|0:0|0:3,0:0:0:0:
338,230,62718,6,0,L|342:265,7,33.6000004101563,8|4|8|4|8|4|8|4,0:0|0:3|0:0|0:3|0:0|0:3|0:0|0:3,0:0:0:0:
347,306,63385,1,2,0:3:0:0:
347,306,64718,6,0,P|320:260|343:210,1,100.800001230469,2|0,0:0|0:0,0:0:0:0:
355,212,65052,2,0,P|402:200|424:157,1,100.800001230469,2|0,0:0|0:0,0:0:0:0:
444,143,65385,1,2,0:0:0:0:
310,10,65718,6,0,P|263:-3|222:22,1,100.800001230469,2|0,0:0|0:0,0:0:0:0:
200,31,66052,2,0,P|188:78|145:100,1,100.800001230469,2|0,0:0|0:0,0:0:0:0:
128,122,66385,1,2,0:0:0:0:
6,8,66718,2,0,L|23:181,1,165.599994440918,10|0,0:0|0:0,0:0:0:0:
34,267,67385,6,0,B|71:272|71:272|75:274|75:274|111:279,1,73.199996984253,4|0,3:2|0:0,0:0:0:0:
199,296,67718,2,0,L|268:307,3,36.5999984921265,2|0|0|0,0:0|0:0|0:0|0:0,0:0:0:0:
282,309,68052,1,10,0:0:0:0:
282,309,68385,2,0,P|308:281|307:204,1,109.79999547638,2|0,3:2|0:0,0:0:0:0:
289,169,68718,1,2,0:0:0:0:
215,107,68885,1,2,0:0:0:0:
248,17,69052,2,0,L|328:31,1,73.199996984253,2|0,3:2|0:0,0:0:0:0:
358,117,69385,6,0,B|393:109|393:109|399:111|399:111|429:102,1,73.199996984253,10|0,0:0|0:0,0:0:0:0:
499,38,69718,1,2,0:0:0:0:
499,38,70052,6,0,P|475:80|478:116,1,73.199996984253,2|0,3:2|0:0,0:0:0:0:
493,197,70385,2,0,L|504:266,3,36.5999984921265,2|0|0|0,0:0|0:0|0:0|0:0,0:0:0:0:
509,279,70718,1,10,0:0:0:0:
509,279,71052,2,0,B|437:274|467:310|395:304,1,109.79999547638,2|0,3:2|0:0,0:0:0:0:
359,292,71385,1,2,0:0:0:0:
296,220,71552,1,2,3:2:0:0:
216,270,71718,2,0,P|208:230|202:198,1,73.199996984253,4|0,3:0|0:0,0:0:0:0:
281,144,72052,6,0,B|287:106|287:106|290:103|290:103|295:72,1,73.199996984253,10|0,0:0|0:0,0:0:0:0:
235,5,72385,1,2,0:0:0:0:
235,5,72718,6,0,B|182:15|182:15|180:19|180:19|125:29,1,109.79999547638,2|0,3:2|0:0,0:0:0:0:
83,43,73052,1,2,0:0:0:0:
0,197,73385,2,0,P|39:221|37:284,1,109.79999547638,10|0,0:0|0:0,0:0:0:0:
23,324,73718,1,2,3:2:0:0:
23,324,73885,1,0,0:0:0:0:
105,372,74052,6,0,P|141:371|171:347,1,73.199996984253,2|2,0:0|0:0,0:0:0:0:
220,279,74385,1,2,3:2:0:0:
220,279,74552,1,2,0:0:0:0:
298,313,74718,2,0,B|303:283|303:283|305:279|305:279|312:246,1,61.2000003735352,10|2,0:0|0:0,0:0:0:0:
343,182,75052,2,0,P|335:146|329:118,1,55.1999981469727,2|2,0:0|0:0,0:0:0:0:
429,97,75385,6,0,B|435:133|435:133|437:137|437:137|443:173,1,73.199996984253,6|0,3:2|0:0,0:0:0:0:
461,269,75718,2,0,L|472:338,3,36.5999984921265,2|0|0|0,0:0|0:0|0:0|0:0,0:0:0:0:
478,350,76052,1,10,0:0:0:0:
478,350,76385,2,0,P|434:382|381:379,1,109.79999547638,2|0,3:2|0:0,0:0:0:0:
344,359,76718,1,2,0:0:0:0:
268,289,76885,1,2,3:2:0:0:
176,336,77052,2,0,P|145:354|108:355,1,73.199996984253,4|0,3:0|0:0,0:0:0:0:
32,292,77385,6,0,B|26:254|26:254|23:251|23:251|18:220,1,73.199996984253,10|0,0:0|0:0,0:0:0:0:
7,130,77718,1,2,0:0:0:0:
7,130,78052,6,0,P|49:106|85:109,1,73.199996984253,2|0,3:2|0:0,0:0:0:0:
167,120,78385,2,0,L|203:125,3,36.5999984921265,2|0|0|0,0:0|0:0|0:0|0:0,0:0:0:0:
254,134,78718,1,10,0:0:0:0:
254,134,79052,2,0,B|311:115|277:93|342:74,1,109.79999547638,2|0,3:2|0:0,0:0:0:0:
389,72,79385,1,2,0:0:0:0:
475,107,79552,1,2,0:0:0:0:
500,198,79718,2,0,P|493:233|486:269,1,73.199996984253,2|0,3:2|0:0,0:0:0:0:
407,325,80052,6,0,B|400:291|400:291|401:287|401:287|394:253,1,73.199996984253,8|0,0:0|0:0,0:0:0:0:
367,161,80385,1,2,0:0:0:0:
367,161,80718,2,0,B|331:167|331:167|327:169|327:169|291:175,1,73.199996984253,2|0,3:2|0:0,0:0:0:0:
200,191,81052,2,0,L|163:196,3,36.5999984921265,2|0|2|0,0:0|0:0|0:0|0:0,0:0:0:0:
119,202,81385,6,0,B|92:212|-14:177|-77:67|38:13|128:62|206:155|-24:140|21:305,1,459.000002801514,10|0,0:0|0:0,0:0:0:0:
31,335,82718,1,8,0:0:0:0:
31,335,82885,1,0,0:0:0:0:
117,384,83052,1,2,0:0:0:0:
117,384,83218,1,0,0:0:0:0:
178,311,83385,6,0,P|192:274|187:232,1,73.199996984253,4|0,3:2|0:0,0:0:0:0:
276,225,83718,2,0,P|260:188|226:162,1,73.199996984253,2|0,0:0|0:0,0:0:0:0:
139,156,84052,6,0,P|147:117|176:86,1,73.199996984253,2|0,0:0|0:0,0:0:0:0:
110,26,84385,2,0,P|143:5|186:3,1,73.199996984253,2|0,0:0|0:0,0:0:0:0:
256,23,84718,6,0,L|265:88,1,61.2000003735352,2|2,0:0|0:0,0:0:0:0:
336,125,85052,2,0,L|327:189,1,49.2000007507324,2|2,0:0|0:0,0:0:0:0:
310,254,85385,2,0,B|246:236|246:236|214:200|214:200|145:185,1,183.600001120605,10|2,0:0|0:0,0:0:0:0:
80,243,86052,6,0,P|59:213|59:173,1,73.199996984253,4|0,3:2|0:0,0:0:0:0:
79,92,86385,2,0,L|84:56,3,36.5999984921265,2|0|0|0,0:0|0:0|0:0|0:0,0:0:0:0:
93,13,86718,1,10,0:0:0:0:
93,13,87052,2,0,B|167:13|130:42|218:41,1,109.79999547638,2|0,3:2|0:0,0:0:0:0:
240,38,87385,5,2,0:0:0:0:
320,1,87552,1,0,3:2:0:0:
395,44,87718,2,0,P|416:74|416:114,1,73.199996984253,4|0,3:3|0:0,0:0:0:0:
399,196,88052,6,0,B|434:188|434:188|440:189|440:189|478:181,2,73.199996984253,10|0|2,0:0|0:0|0:0,0:0:0:0:
343,362,88718,6,0,P|307:354|271:347,1,73.199996984253,2|0,3:2|0:0,0:0:0:0:
184,328,89052,2,0,L|148:323,3,36.5999984921265,2|0|0|0,0:0|0:0|0:0|0:0,0:0:0:0:
104,314,89385,1,10,0:0:0:0:
104,314,89718,2,0,L|95:237,1,73.199996984253,2|0,3:2|0:0,0:0:0:0:
52,170,90052,1,2,0:0:0:0:
52,170,90218,1,0,0:0:0:0:
75,87,90385,1,2,3:2:0:0:
75,87,90552,1,2,0:0:0:0:
159,64,90718,6,0,B|214:73|214:73|215:76|215:76|266:87,1,109.79999547638,10|0,0:0|0:0,0:0:0:0:
296,120,91052,2,0,L|376:106,1,73.199996984253,2|0,0:0|0:0,0:0:0:0:
436,51,91385,6,0,P|412:93|415:129,1,73.199996984253,2|0,3:2|0:0,0:0:0:0:
432,202,91718,2,0,L|438:240,3,36.5999984921265,2|0|0|0,0:0|0:0|0:0|0:0,0:0:0:0:
451,280,92052,1,10,0:0:0:0:
451,280,92385,2,0,B|400:289|400:289|398:293|398:293|345:303,1,109.79999547638,2|0,3:2|0:0,0:0:0:0:
304,318,92718,1,2,0:0:0:0:
235,262,92885,1,0,3:2:0:0:
176,327,93052,2,0,P|152:345|101:345,1,73.199996984253,4|0,3:3|0:0,0:0:0:0:
35,302,93385,6,0,B|25:342|25:342|26:345|26:345|19:379,2,73.199996984253,10|2|2,0:0|0:0|0:0,0:0:0:0:
188,216,94052,6,0,B|181:183|181:183|181:179|181:179|171:144|171:144|171:139|171:139|161:103,1,109.79999547638,2|0,3:2|0:0,0:0:0:0:
120,100,94385,2,0,P|123:63|144:34,1,73.199996984253,2|0,0:0|0:0,0:0:0:0:
227,6,94718,1,8,0:0:0:0:
227,6,95052,2,0,B|302:15|302:15|326:47,1,109.79999547638,2|0,3:2|0:0,0:0:0:0:
363,57,95385,6,0,L|354:129,1,73.199996984253,2|2,0:0|0:0,0:0:0:0:
303,203,95718,1,2,3:2:0:0:
303,203,95885,1,2,0:0:0:0:
356,279,96052,1,10,0:0:0:0:
356,279,96218,1,2,0:0:0:0:
312,355,96385,2,0,P|279:360|244:340,1,73.199996984253,2|2,0:0|0:0,0:0:0:0:
192,271,96718,6,0,B|189:238|189:238|186:234|186:234|183:191,1,73.199996984253,4|0,3:2|0:0,0:0:0:0:
165,112,97052,2,0,L|159:75,3,36.5999984921265,2|0|0|0,0:0|0:0|0:0|0:0,0:0:0:0:
151,32,97385,1,10,0:0:0:0:
151,32,97718,2,0,P|97:31|66:73,1,109.79999547638,2|0,3:2|0:0,0:0:0:0:
69,115,98052,5,2,0:0:0:0:
5,182,98218,1,0,3:2:0:0:
48,256,98385,2,0,L|127:243,1,73.199996984253,4|0,3:0|0:0,0:0:0:0:
203,273,98718,6,0,B|216:311|216:311|200:348,2,73.199996984253,8|0|2,0:0|0:0|0:0,0:0:0:0:
270,110,99385,6,0,B|308:97|308:97|353:106,1,73.199996984253,2|0,3:2|0:0,0:0:0:0:
425,124,99718,2,0,L|461:129,3,36.5999984921265,2|0|0|0,0:0|0:0|0:0|0:0,0:0:0:0:
504,140,100052,1,10,0:0:0:0:
504,140,100385,2,0,B|514:173|514:173|493:217,1,73.199996984253,2|0,3:2|0:0,0:0:0:0:
449,282,100718,1,2,0:0:0:0:
449,282,100885,1,0,0:0:0:0:
375,244,101052,1,2,3:2:0:0:
375,244,101218,1,2,0:0:0:0:
315,308,101385,6,0,B|248:323|278:349|204:362,1,109.79999547638,10|0,0:0|0:0,0:0:0:0:
177,369,101718,2,0,P|154:352|149:308,1,73.199996984253,2|0,0:0|0:0,0:0:0:0:
176,225,102052,5,4,3:2:0:0:
256,192,102135,12,0,105385,0:0:0:0:
