osu file format v14

[General]
AudioFilename: audio.mp3
AudioLeadIn: 0
PreviewTime: 63635
Countdown: 0
SampleSet: Soft
StackLeniency: 0.7
Mode: 0
LetterboxInBreaks: 0
EpilepsyWarning: 1
WidescreenStoryboard: 1

[Editor]
DistanceSpacing: 1.7
BeatDivisor: 4
GridSize: 32
TimelineZoom: 2.1

[Metadata]
Title:Never Count On Me (Cut Ver.)
TitleUnicode:Never Count On Me (Cut Ver.)
Artist:Haywyre
ArtistUnicode:Haywyre
Creator:Tachibana_
Version:Betrayal
Source:
Tags:electronic featured artist english fa Ryxliee mrforse -Magic- Syodou
BeatmapID:3414590
BeatmapSetID:1671815

[Difficulty]
HPDrainRate:6
CircleSize:3.9
OverallDifficulty:8.6
ApproachRate:9.2
SliderMultiplier:1.8
SliderTickRate:1

[Events]
//Background and Video events
0,0,"bg.jpg",0,0
//Break Periods
//Storyboard Layer 0 (Background)
//Storyboard Layer 1 (Fail)
//Storyboard Layer 2 (Pass)
//Storyboard Layer 3 (Foreground)
Sprite,Foreground,Centre,"sb\hl.png",0,0 M,0,19385,,186,132 C,0,19385,,252,247,199 F,0,19385,19468,0,1 S,0,19385,19718,0.25,0.5 P,0,19385,19718,A F,0,19468,19718,0.8,0 M,0,19885,,433,226 C,0,19885,,252,247,199 F,0,19885,19968,0,1 S,0,19885,20218,0.25,0.5 P,0,19885,20218,A F,0,19968,20218,0.8,0 M,0,20385,,238,374 C,0,20385,,252,247,199 F,0,20385,20468,0,1 S,0,20385,20718,0.25,0.5 P,0,20385,20718,A F,0,20468,20718,0.8,0 M,0,20745,,263.0567,260.1455 C,0,20745,,86,239,243 F,0,20745,20829,0,1 S,0,20745,21079,0.3,0.6 P,0,20745,21079,A F,0,20829,21079,1,0 M,0,21079,,280.2657,141.2828 C,0,21079,,86,239,243 F,0,21079,21163,0,1 S,0,21079,21413,0.3,0.6 P,0,21079,21413,A F,0,21163,21413,1,0 M,0,21440,,308.6659,143.7619 C,0,21440,,86,239,243 F,0,21440,21523,0,1 S,0,21440,21773,0.3,0.6 P,0,21440,21773,A F,0,21523,21773,1,0 M,0,21801,,405.5666,228.9399 C,0,21801,,234,119,214 F,0,21801,21884,0,1 S,0,21801,22134,0.3,0.6 P,0,21801,22134,A F,0,21884,22134,1,0
Sprite,Foreground,Centre,"sb\hl.png",0,0 M,0,19385,,186,132 C,0,19385,,252,247,199 F,0,19385,19468,0,1 S,0,19385,19718,0.3,0.6 P,0,19385,19718,A F,0,19468,19718,1,0 M,0,19885,,433,226 C,0,19885,,252,247,199 F,0,19885,19968,0,1 S,0,19885,20218,0.3,0.6 P,0,19885,20218,A F,0,19968,20218,1,0 M,0,20385,,238,374 C,0,20385,,252,247,199 F,0,20385,20468,0,1 S,0,20385,20718,0.3,0.6 P,0,20385,20718,A F,0,20468,20718,1,0 M,0,20773,,261.1134,272.291 C,0,20773,,86,239,243 F,0,20773,20856,0,1 S,0,20773,21106,0.3,0.6 P,0,20773,21106,A F,0,20856,21106,1,0 M,0,21107,,288.9977,142.5144 C,0,21107,,86,239,243 F,0,21107,21190,0,1 S,0,21107,21440,0.3,0.6 P,0,21107,21440,A F,0,21190,21440,1,0 M,0,21468,,324.6402,152.5513 C,0,21468,,86,239,243 F,0,21468,21551,0,1 S,0,21468,21801,0.3,0.6 P,0,21468,21801,A F,0,21551,21801,1,0 M,0,21829,,400.7487,234.9607 C,0,21829,,234,119,214 F,0,21829,21912,0,1 S,0,21829,22162,0.3,0.6 P,0,21829,22162,A F,0,21912,22162,1,0
Sprite,Foreground,Centre,"sb\hl.png",0,0 M,0,19412,,174.0854,135.055 C,0,19412,,252,247,199 F,0,19412,19496,0,1 S,0,19412,19746,0.3,0.6 P,0,19412,19746,A F,0,19496,19746,1,0 M,0,19912,,447.7463,230.0788 C,0,19912,,252,247,199 F,0,19912,19996,0,1 S,0,19912,20246,0.3,0.6 P,0,19912,20246,A F,0,19996,20246,1,0 M,0,20412,,220.5446,379.4952 C,0,20412,,252,247,199 F,0,20412,20496,0,1 S,0,20412,20746,0.3,0.6 P,0,20412,20746,A F,0,20496,20746,1,0 M,0,20885,,191,202 C,0,20885,,86,239,243 F,0,20885,20968,0,1 S,0,20885,21218,0.25,0.5 P,0,20885,21218,A F,0,20968,21218,0.8,0 M,0,21218,,302.6691,116.7128 C,0,21218,,86,239,243 F,0,21218,21301,0,1 S,0,21218,21551,0.3,0.6 P,0,21218,21551,A F,0,21301,21551,1,0 M,0,21579,,371.7479,207.2887 C,0,21579,,86,239,243 F,0,21579,21662,0,1 S,0,21579,21912,0.3,0.6 P,0,21579,21912,A F,0,21662,21912,1,0 M,0,21940,,390.7998,263.8099 C,0,21940,,234,119,214 F,0,21940,22023,0,1 S,0,21940,22273,0.3,0.6 P,0,21940,22273,A F,0,22023,22273,1,0
Sprite,Foreground,Centre,"sb\hl.png",0,0 M,0,19440,,162.1709,138.11 C,0,19440,,252,247,199 F,0,19440,19523,0,1 S,0,19440,19773,0.3,0.6 P,0,19440,19773,A F,0,19523,19773,1,0 M,0,19940,,462.4926,234.1575 C,0,19940,,252,247,199 F,0,19940,20023,0,1 S,0,19940,20273,0.3,0.6 P,0,19940,20273,A F,0,20023,20273,1,0 M,0,20440,,203.0891,384.9904 C,0,20440,,252,247,199 F,0,20440,20523,0,1 S,0,20440,20773,0.3,0.6 P,0,20440,20773,A F,0,20523,20773,1,0 M,0,20885,,191,202 C,0,20885,,86,239,243 F,0,20885,20968,0,1 S,0,20885,21218,0.3,0.6 P,0,20885,21218,A F,0,20968,21218,1,0 M,0,21246,,297.7759,109.375 C,0,21246,,86,239,243 F,0,21246,21329,0,1 S,0,21246,21579,0.3,0.6 P,0,21246,21579,A F,0,21329,21579,1,0 M,0,21607,,388.4625,214.6801 C,0,21607,,86,239,243 F,0,21607,21690,0,1 S,0,21607,21940,0.3,0.6 P,0,21607,21940,A F,0,21690,21940,1,0
Sprite,Foreground,Centre,"sb\hl.png",0,0 M,0,19552,,279,106 C,0,19552,,252,247,199 F,0,19552,19635,0,1 S,0,19552,19885,0.25,0.5 P,0,19552,19885,A F,0,19635,19885,0.8,0 M,0,20052,,356,197 C,0,20052,,252,247,199 F,0,20052,20135,0,1 S,0,20052,20385,0.25,0.5 P,0,20052,20385,A F,0,20135,20385,0.8,0 M,0,20552,,309,347 C,0,20552,,252,247,199 F,0,20552,20635,0,1 S,0,20552,20885,0.25,0.5 P,0,20552,20885,A F,0,20635,20885,0.8,0 M,0,20912,,183.2507,204.9123 C,0,20912,,86,239,243 F,0,20912,20996,0,1 S,0,20912,21246,0.3,0.6 P,0,20912,21246,A F,0,20996,21246,1,0 M,0,21274,,289.209,106.959 C,0,21274,,86,239,243 F,0,21274,21357,0,1 S,0,21274,21607,0.3,0.6 P,0,21274,21607,A F,0,21357,21607,1,0 M,0,21718,,424,215 C,0,21718,,234,119,214 F,0,21718,21801,0,1 S,0,21718,22051,0.25,0.5 P,0,21718,22051,A F,0,21801,22051,0.8,0
Sprite,Foreground,Centre,"sb\hl.png",0,0 M,0,20718,,265,248 C,0,20718,,86,239,243 F,0,20718,20801,0,1 S,0,20718,21051,0.25,0.5 P,0,20718,21051,A F,0,20801,21051,0.8,0 M,0,21052,,273,136 C,0,21052,,86,239,243 F,0,21052,21135,0,1 S,0,21052,21385,0.25,0.5 P,0,21052,21385,A F,0,21135,21385,0.8,0 M,0,21412,,291.0834,138.7634 C,0,21412,,86,239,243 F,0,21412,21496,0,1 S,0,21412,21746,0.3,0.6 P,0,21412,21746,A F,0,21496,21746,1,0 M,0,21773,,411.1605,223.6353 C,0,21773,,234,119,214 F,0,21773,21856,0,1 S,0,21773,22106,0.3,0.6 P,0,21773,22106,A F,0,21856,22106,1,0
Sprite,Foreground,Centre,"sb\hl.png",0,0 M,0,20718,,265,248 C,0,20718,,86,239,243 F,0,20718,20801,0,1 S,0,20718,21051,0.3,0.6 P,0,20718,21051,A F,0,20801,21051,1,0 M,0,21052,,273,136 C,0,21052,,86,239,243 F,0,21052,21135,0,1 S,0,21052,21385,0.3,0.6 P,0,21052,21385,A F,0,21135,21385,1,0 M,0,21496,,336.7807,166.1263 C,0,21496,,86,239,243 F,0,21496,21579,0,1 S,0,21496,21829,0.3,0.6 P,0,21496,21829,A F,0,21579,21829,1,0 M,0,21856,,396.7972,241.5856 C,0,21856,,234,119,214 F,0,21856,21940,0,1 S,0,21856,22190,0.3,0.6 P,0,21856,22190,A F,0,21940,22190,1,0
Sprite,Foreground,Centre,"sb\hl.png",0,0 M,0,20940,,176.7672,197.3412 C,0,20940,,86,239,243 F,0,20940,21023,0,1 S,0,20940,21273,0.3,0.6 P,0,20940,21273,A F,0,21023,21273,1,0 M,0,21385,,273,136 C,0,21385,,86,239,243 F,0,21385,21468,0,1 S,0,21385,21718,0.25,0.5 P,0,21385,21718,A F,0,21468,21718,0.8,0 M,0,21745,,417.4257,219.1455 C,0,21745,,234,119,214 F,0,21745,21829,0,1 S,0,21745,22079,0.3,0.6 P,0,21745,22079,A F,0,21829,22079,1,0
Sprite,Foreground,Centre,"sb\hl.png",0,0 M,0,21135,,297.1514,139.5349 C,0,21135,,86,239,243 F,0,21135,21218,0,1 S,0,21135,21468,0.3,0.6 P,0,21135,21468,A F,0,21218,21468,1,0 M,0,21523,,346.0009,181.9306 C,0,21523,,86,239,243 F,0,21523,21607,0,1 S,0,21523,21857,0.3,0.6 P,0,21523,21857,A F,0,21607,21857,1,0 M,0,21884,,393.7869,248.6914 C,0,21884,,234,119,214 F,0,21884,21967,0,1 S,0,21884,22217,0.3,0.6 P,0,21884,22217,A F,0,21967,22217,1,0
Sprite,Foreground,Centre,"sb\hl.png",0,0 M,0,21163,,302.8576,133.1373 C,0,21163,,86,239,243 F,0,21163,21246,0,1 S,0,21163,21496,0.3,0.6 P,0,21163,21496,A F,0,21246,21496,1,0 M,0,21551,,357.0967,196.4189 C,0,21551,,86,239,243 F,0,21551,21634,0,1 S,0,21551,21884,0.3,0.6 P,0,21551,21884,A F,0,21634,21884,1,0 M,0,21912,,391.7748,256.1458 C,0,21912,,234,119,214 F,0,21912,21995,0,1 S,0,21912,22245,0.3,0.6 P,0,21912,22245,A F,0,21995,22245,1,0
Sprite,Foreground,Centre,"sb\hl.png",0,0 M,0,21190,,304.835,124.8767 C,0,21190,,86,239,243 F,0,21190,21274,0,1 S,0,21190,21524,0.3,0.6 P,0,21190,21524,A F,0,21274,21524,1,0 M,0,21718,,424,215 C,0,21718,,234,119,214 F,0,21718,21801,0,1 S,0,21718,22051,0.3,0.6 P,0,21718,22051,A F,0,21801,22051,1,0
Sprite,Foreground,Centre,"sb\hl.png",0,0 M,0,21385,,273,136 C,0,21385,,86,239,243 F,0,21385,21468,0,1 S,0,21385,21718,0.3,0.6 P,0,21385,21718,A F,0,21468,21718,1,0
Sprite,Foreground,Centre,"sb\hl.png",0,0 M,0,64718,,309,281 C,0,64718,,252,247,199 F,0,64718,64801,0,1 S,0,64718,65051,0.25,0.5 P,0,64718,65051,A F,0,64801,65051,0.8,0 M,0,65052,,440,333 C,0,65052,,86,239,243 F,0,65052,65135,0,1 S,0,65052,65385,0.25,0.5 P,0,65052,65385,A F,0,65135,65385,0.8,0 M,0,65412,,472.4944,353.7513 C,0,65412,,86,239,243 F,0,65412,65496,0,1 S,0,65412,65746,0.3,0.6 P,0,65412,65746,A F,0,65496,65746,1,0 M,0,65773,,480.5628,197.5027 C,0,65773,,234,119,214 F,0,65773,65856,0,1 S,0,65773,66106,0.3,0.6 P,0,65773,66106,A F,0,65856,66106,1,0 M,0,66107,,508.2161,131.6741 C,0,66107,,234,119,214 F,0,66107,66190,0,1 S,0,66107,66440,0.3,0.6 P,0,66107,66440,A F,0,66190,66440,1,0 M,0,66468,,410.6557,105.7541 C,0,66468,,104,137,249 F,0,66468,66551,0,1 S,0,66468,66801,0.3,0.6 P,0,66468,66801,A F,0,66551,66801,1,0 M,0,66829,,391.2663,254.3538 C,0,66829,,252,247,199 F,0,66829,66912,0,1 S,0,66829,67162,0.3,0.6 P,0,66829,67162,A F,0,66912,67162,1,0 M,0,67162,,392.0318,218.537 C,0,67162,,252,247,199 F,0,67162,67245,0,1 S,0,67162,67495,0.3,0.6 P,0,67162,67495,A F,0,67245,67495,1,0
Sprite,Foreground,Centre,"sb\hl.png",0,0 M,0,64718,,309,281 C,0,64718,,252,247,199 F,0,64718,64801,0,1 S,0,64718,65051,0.3,0.6 P,0,64718,65051,A F,0,64801,65051,1,0 M,0,65052,,440,333 C,0,65052,,86,239,243 F,0,65052,65135,0,1 S,0,65052,65385,0.3,0.6 P,0,65052,65385,A F,0,65135,65385,1,0 M,0,65440,,493.1606,366.3688 C,0,65440,,86,239,243 F,0,65440,65523,0,1 S,0,65440,65773,0.3,0.6 P,0,65440,65773,A F,0,65523,65773,1,0 M,0,65801,,481.3443,203.7541 C,0,65801,,234,119,214 F,0,65801,65884,0,1 S,0,65801,66134,0.3,0.6 P,0,65801,66134,A F,0,65884,66134,1,0 M,0,66135,,514.0227,108.1915 C,0,66135,,234,119,214 F,0,66135,66218,0,1 S,0,66135,66468,0.3,0.6 P,0,66135,66468,A F,0,66218,66468,1,0 M,0,66496,,409.8743,112.0054 C,0,66496,,104,137,249 F,0,66496,66579,0,1 S,0,66496,66829,0.3,0.6 P,0,66496,66829,A F,0,66579,66829,1,0 M,0,66856,,387.0576,252.3906 C,0,66856,,252,247,199 F,0,66856,66940,0,1 S,0,66856,67190,0.3,0.6 P,0,66856,67190,A F,0,66940,67190,1,0 M,0,67190,,396.2415,218.4059 C,0,67190,,252,247,199 F,0,67190,67273,0,1 S,0,67190,67523,0.3,0.6 P,0,67190,67523,A F,0,67273,67523,1,0
Sprite,Foreground,Centre,"sb\hl.png",0,0 M,0,64745,,315.1475,282.3779 C,0,64745,,252,247,199 F,0,64745,64829,0,1 S,0,64745,65079,0.3,0.6 P,0,64745,65079,A F,0,64829,65079,1,0 M,0,65079,,424.9082,330.4847 C,0,65079,,86,239,243 F,0,65079,65163,0,1 S,0,65079,65413,0.3,0.6 P,0,65079,65413,A F,0,65163,65413,1,0 M,0,65468,,516.6676,372.0553 C,0,65468,,86,239,243 F,0,65468,65551,0,1 S,0,65468,65801,0.3,0.6 P,0,65468,65801,A F,0,65551,65801,1,0 M,0,65829,,482.1257,210.0054 C,0,65829,,234,119,214 F,0,65829,65912,0,1 S,0,65829,66162,0.3,0.6 P,0,65829,66162,A F,0,65912,66162,1,0 M,0,66163,,511.3882,84.17912 C,0,66163,,234,119,214 F,0,66163,66246,0,1 S,0,66163,66496,0.3,0.6 P,0,66163,66496,A F,0,66246,66496,1,0 M,0,66523,,409.0929,118.2568 C,0,66523,,104,137,249 F,0,66523,66607,0,1 S,0,66523,66857,0.3,0.6 P,0,66523,66857,A F,0,66607,66857,1,0 M,0,66884,,382.8776,251.0612 C,0,66884,,252,247,199 F,0,66884,66968,0,1 S,0,66884,67218,0.3,0.6 P,0,66884,67218,A F,0,66968,67218,1,0 M,0,67218,,401.0308,218.7956 C,0,67218,,252,247,199 F,0,67218,67301,0,1 S,0,67218,67551,0.3,0.6 P,0,67218,67551,A F,0,67301,67551,1,0
Sprite,Foreground,Centre,"sb\hl.png",0,0 M,0,64773,,321.295,283.7558 C,0,64773,,252,247,199 F,0,64773,64856,0,1 S,0,64773,65106,0.3,0.6 P,0,64773,65106,A F,0,64856,65106,1,0 M,0,65107,,409.8163,327.9694 C,0,65107,,86,239,243 F,0,65107,65190,0,1 S,0,65107,65440,0.3,0.6 P,0,65107,65440,A F,0,65190,65440,1,0 M,0,65496,,540.6534,369.2149 C,0,65496,,86,239,243 F,0,65496,65579,0,1 S,0,65496,65829,0.3,0.6 P,0,65496,65829,A F,0,65579,65829,1,0 M,0,65856,,482.9071,216.2568 C,0,65856,,234,119,214 F,0,65856,65940,0,1 S,0,65856,66190,0.3,0.6 P,0,65856,66190,A F,0,65940,66190,1,0 M,0,66190,,499.745,63.04908 C,0,66190,,234,119,214 F,0,66190,66274,0,1 S,0,66190,66524,0.3,0.6 P,0,66190,66524,A F,0,66274,66524,1,0 M,0,66551,,408.3115,124.5081 C,0,66551,,104,137,249 F,0,66551,66635,0,1 S,0,66551,66885,0.3,0.6 P,0,66551,66885,A F,0,66635,66885,1,0 M,0,66912,,379.9188,247.4816 C,0,66912,,252,247,199 F,0,66912,66995,0,1 S,0,66912,67245,0.3,0.6 P,0,66912,67245,A F,0,66995,67245,1,0 M,0,67245,,404.1181,222.2649 C,0,67245,,252,247,199 F,0,67245,67329,0,1 S,0,67245,67579,0.3,0.6 P,0,67245,67579,A F,0,67329,67579,1,0
Sprite,Foreground,Centre,"sb\hl.png",0,0 M,0,64801,,327.4424,285.1337 C,0,64801,,252,247,199 F,0,64801,64884,0,1 S,0,64801,65134,0.3,0.6 P,0,64801,65134,A F,0,64884,65134,1,0 M,0,65135,,394.7245,325.4541 C,0,65135,,86,239,243 F,0,65135,65218,0,1 S,0,65135,65468,0.3,0.6 P,0,65135,65468,A F,0,65218,65468,1,0 M,0,65523,,561.679,357.3861 C,0,65523,,86,239,243 F,0,65523,65607,0,1 S,0,65523,65857,0.3,0.6 P,0,65523,65857,A F,0,65607,65857,1,0 M,0,65884,,483.6885,222.5081 C,0,65884,,234,119,214 F,0,65884,65968,0,1 S,0,65884,66218,0.3,0.6 P,0,65884,66218,A F,0,65968,66218,1,0 M,0,66218,,480.2879,48.86774 C,0,66218,,234,119,214 F,0,66218,66302,0,1 S,0,66218,66552,0.3,0.6 P,0,66218,66552,A F,0,66302,66552,1,0 M,0,66579,,407.5301,130.7595 C,0,66579,,104,137,249 F,0,66579,66662,0,1 S,0,66579,66912,0.3,0.6 P,0,66579,66912,A F,0,66662,66912,1,0 M,0,66940,,377.1114,244.2856 C,0,66940,,252,247,199 F,0,66940,67023,0,1 S,0,66940,67273,0.3,0.6 P,0,66940,67273,A F,0,67023,67273,1,0 M,0,67273,,407.8867,224.888 C,0,67273,,252,247,199 F,0,67273,67356,0,1 S,0,67273,67606,0.3,0.6 P,0,67273,67606,A F,0,67356,67606,1,0
Sprite,Foreground,Centre,"sb\hl.png",0,0 M,0,64829,,333.5899,286.5115 C,0,64829,,252,247,199 F,0,64829,64912,0,1 S,0,64829,65162,0.3,0.6 P,0,64829,65162,A F,0,64912,65162,1,0 M,0,65163,,379.6327,322.9388 C,0,65163,,86,239,243 F,0,65163,65246,0,1 S,0,65163,65496,0.3,0.6 P,0,65163,65496,A F,0,65246,65496,1,0 M,0,65551,,575.6849,337.8053 C,0,65551,,86,239,243 F,0,65551,65635,0,1 S,0,65551,65885,0.3,0.6 P,0,65551,65885,A F,0,65635,65885,1,0 M,0,65912,,484.4699,228.7595 C,0,65912,,234,119,214 F,0,65912,65995,0,1 S,0,65912,66245,0.3,0.6 P,0,65912,66245,A F,0,65995,66245,1,0 M,0,66246,,456.4852,46.39805 C,0,66246,,234,119,214 F,0,66246,66329,0,1 S,0,66246,66579,0.3,0.6 P,0,66246,66579,A F,0,66329,66579,1,0 M,0,66607,,406.7487,137.0108 C,0,66607,,104,137,249 F,0,66607,66690,0,1 S,0,66607,66940,0.3,0.6 P,0,66607,66940,A F,0,66690,66940,1,0 M,0,66968,,374.3503,240.2345 C,0,66968,,252,247,199 F,0,66968,67051,0,1 S,0,66968,67301,0.3,0.6 P,0,66968,67301,A F,0,67051,67301,1,0
Sprite,Foreground,Centre,"sb\hl.png",0,0 M,0,64856,,339.7374,287.8894 C,0,64856,,252,247,199 F,0,64856,64940,0,1 S,0,64856,65190,0.3,0.6 P,0,64856,65190,A F,0,64940,65190,1,0 M,0,65190,,368.0094,314.5118 C,0,65190,,86,239,243 F,0,65190,65274,0,1 S,0,65190,65524,0.3,0.6 P,0,65190,65524,A F,0,65274,65524,1,0 M,0,65579,,577.8087,313.9789 C,0,65579,,86,239,243 F,0,65579,65662,0,1 S,0,65579,65912,0.3,0.6 P,0,65579,65912,A F,0,65662,65912,1,0 M,0,65940,,485.2513,235.0108 C,0,65940,,234,119,214 F,0,65940,66023,0,1 S,0,65940,66273,0.3,0.6 P,0,65940,66273,A F,0,66023,66273,1,0 M,0,66274,,436.6974,59.48815 C,0,66274,,234,119,214 F,0,66274,66357,0,1 S,0,66274,66607,0.3,0.6 P,0,66274,66607,A F,0,66357,66607,1,0 M,0,66718,,408,248 C,0,66718,,252,247,199 F,0,66718,66801,0,1 S,0,66718,67051,0.25,0.5 P,0,66718,67051,A F,0,66801,67051,0.8,0 M,0,67051,,377.6821,227.2916 C,0,67051,,252,247,199 F,0,67051,67134,0,1 S,0,67051,67384,0.3,0.6 P,0,67051,67384,A F,0,67134,67384,1,0
Sprite,Foreground,Centre,"sb\hl.png",0,0 M,0,64884,,345.8849,289.2673 C,0,64884,,252,247,199 F,0,64884,64968,0,1 S,0,64884,65218,0.3,0.6 P,0,64884,65218,A F,0,64968,65218,1,0 M,0,65218,,356.4129,305.9757 C,0,65218,,86,239,243 F,0,65218,65302,0,1 S,0,65218,65552,0.3,0.6 P,0,65218,65552,A F,0,65302,65552,1,0 M,0,65607,,564.3262,294.4498 C,0,65607,,86,239,243 F,0,65607,65690,0,1 S,0,65607,65940,0.3,0.6 P,0,65607,65940,A F,0,65690,65940,1,0 M,0,66052,,478,169 C,0,66052,,234,119,214 F,0,66052,66135,0,1 S,0,66052,66385,0.25,0.5 P,0,66052,66385,A F,0,66135,66385,0.8,0 M,0,66412,,412.2186,93.25135 C,0,66412,,104,137,249 F,0,66412,66496,0,1 S,0,66412,66746,0.3,0.6 P,0,66412,66746,A F,0,66496,66746,1,0 M,0,66773,,400.3512,253.292 C,0,66773,,252,247,199 F,0,66773,66856,0,1 S,0,66773,67106,0.3,0.6 P,0,66773,67106,A F,0,66856,67106,1,0 M,0,67106,,383.7629,221.0945 C,0,67106,,252,247,199 F,0,67106,67190,0,1 S,0,67106,67440,0.3,0.6 P,0,67106,67440,A F,0,67190,67440,1,0
Sprite,Foreground,Centre,"sb\hl.png",0,0 M,0,64912,,352.0323,290.6452 C,0,64912,,252,247,199 F,0,64912,64995,0,1 S,0,64912,65245,0.3,0.6 P,0,64912,65245,A F,0,64995,65245,1,0 M,0,65246,,341.3637,303.2167 C,0,65246,,86,239,243 F,0,65246,65329,0,1 S,0,65246,65579,0.3,0.6 P,0,65246,65579,A F,0,65329,65579,1,0 M,0,65718,,479,185 C,0,65718,,234,119,214 F,0,65718,65801,0,1 S,0,65718,66051,0.25,0.5 P,0,65718,66051,A F,0,65801,66051,0.8,0 M,0,66052,,478,169 C,0,66052,,234,119,214 F,0,66052,66135,0,1 S,0,66052,66385,0.3,0.6 P,0,66052,66385,A F,0,66135,66385,1,0 M,0,66440,,411.4372,99.5027 C,0,66440,,104,137,249 F,0,66440,66523,0,1 S,0,66440,66773,0.3,0.6 P,0,66440,66773,A F,0,66523,66773,1,0 M,0,66801,,395.7072,253.3252 C,0,66801,,252,247,199 F,0,66801,66884,0,1 S,0,66801,67134,0.3,0.6 P,0,66801,67134,A F,0,66884,67134,1,0 M,0,67134,,387.3921,218.7393 C,0,67134,,252,247,199 F,0,67134,67218,0,1 S,0,67134,67468,0.3,0.6 P,0,67134,67468,A F,0,67218,67468,1,0
Sprite,Foreground,Centre,"sb\hl.png",0,0 M,0,64940,,358.1798,292.0231 C,0,64940,,252,247,199 F,0,64940,65023,0,1 S,0,64940,65273,0.3,0.6 P,0,64940,65273,A F,0,65023,65273,1,0 M,0,65274,,326.3145,300.4576 C,0,65274,,86,239,243 F,0,65274,65357,0,1 S,0,65274,65607,0.3,0.6 P,0,65274,65607,A F,0,65357,65607,1,0 M,0,65718,,479,185 C,0,65718,,234,119,214 F,0,65718,65801,0,1 S,0,65718,66051,0.3,0.6 P,0,65718,66051,A F,0,65801,66051,1,0 M,0,66079,,495.6098,152.3511 C,0,66079,,234,119,214 F,0,66079,66163,0,1 S,0,66079,66413,0.3,0.6 P,0,66079,66413,A F,0,66163,66413,1,0 M,0,66718,,408,248 C,0,66718,,252,247,199 F,0,66718,66801,0,1 S,0,66718,67051,0.3,0.6 P,0,66718,67051,A F,0,66801,67051,1,0 M,0,67079,,379.6591,223.2686 C,0,67079,,252,247,199 F,0,67079,67162,0,1 S,0,67079,67412,0.3,0.6 P,0,67079,67412,A F,0,67162,67412,1,0
Sprite,Foreground,Centre,"sb\hl.png",0,0 M,0,65385,,456,336 C,0,65385,,86,239,243 F,0,65385,65468,0,1 S,0,65385,65718,0.25,0.5 P,0,65385,65718,A F,0,65468,65718,0.8,0 M,0,65745,,479.7814,191.2514 C,0,65745,,234,119,214 F,0,65745,65829,0,1 S,0,65745,66079,0.3,0.6 P,0,65745,66079,A F,0,65829,66079,1,0 M,0,66385,,413,87 C,0,66385,,104,137,249 F,0,66385,66468,0,1 S,0,66385,66718,0.25,0.5 P,0,66385,66718,A F,0,66468,66718,0.8,0 M,0,66745,,403.8197,250.0231 C,0,66745,,252,247,199 F,0,66745,66829,0,1 S,0,66745,67079,0.3,0.6 P,0,66745,67079,A F,0,66829,67079,1,0
Sprite,Foreground,Centre,"sb\hl.png",0,0 M,0,65385,,456,336 C,0,65385,,86,239,243 F,0,65385,65468,0,1 S,0,65385,65718,0.3,0.6 P,0,65385,65718,A F,0,65468,65718,1,0 M,0,66385,,413,87 C,0,66385,,104,137,249 F,0,66385,66468,0,1 S,0,66385,66718,0.3,0.6 P,0,66385,66718,A F,0,66468,66718,1,0 M,0,66995,,375.2566,235.6797 C,0,66995,,252,247,199 F,0,66995,67079,0,1 S,0,66995,67329,0.3,0.6 P,0,66995,67329,A F,0,67079,67329,1,0
Sprite,Foreground,Centre,"sb\hl.png",0,0 M,0,67023,,374.9086,231.0166 C,0,67023,,252,247,199 F,0,67023,67106,0,1 S,0,67023,67356,0.3,0.6 P,0,67023,67356,A F,0,67106,67356,1,0
Sprite,Foreground,Centre,"sb\hl.png",0,0 M,0,74052,,399,104 C,0,74052,,234,119,214 F,0,74052,74135,0,1 S,0,74052,74385,0.25,0.5 P,0,74052,74385,A F,0,74135,74385,0.8,0 M,0,74412,,420.5145,318.8186 C,0,74412,,234,119,214 F,0,74412,74496,0,1 S,0,74412,74746,0.3,0.6 P,0,74412,74746,A F,0,74496,74746,1,0 M,0,74773,,268.766,328.9465 C,0,74773,,234,119,214 F,0,74773,74856,0,1 S,0,74773,75106,0.3,0.6 P,0,74773,75106,A F,0,74856,75106,1,0 M,0,75107,,286.259,85.07927 C,0,75107,,234,119,214 F,0,75107,75190,0,1 S,0,75107,75440,0.3,0.6 P,0,75107,75440,A F,0,75190,75440,1,0
Sprite,Foreground,Centre,"sb\hl.png",0,0 M,0,74052,,399,104 C,0,74052,,234,119,214 F,0,74052,74135,0,1 S,0,74052,74385,0.3,0.6 P,0,74052,74385,A F,0,74135,74385,1,0 M,0,74440,,441.7671,337.8818 C,0,74440,,234,119,214 F,0,74440,74523,0,1 S,0,74440,74773,0.3,0.6 P,0,74440,74773,A F,0,74523,74773,1,0 M,0,74885,,435,187 C,0,74885,,234,119,214 F,0,74885,74968,0,1 S,0,74885,75218,0.25,0.5 P,0,74885,75218,A F,0,74968,75218,0.8,0 M,0,75218,,268.2871,80.1485 C,0,75218,,234,119,214 F,0,75218,75302,0,1 S,0,75218,75552,0.3,0.6 P,0,75218,75552,A F,0,75302,75552,1,0
Sprite,Foreground,Centre,"sb\hl.png",0,0 M,0,74079,,413.2771,79.03553 C,0,74079,,234,119,214 F,0,74079,74163,0,1 S,0,74079,74413,0.3,0.6 P,0,74079,74413,A F,0,74163,74413,1,0 M,0,74552,,384,98 C,0,74552,,234,119,214 F,0,74552,74635,0,1 S,0,74552,74885,0.25,0.5 P,0,74552,74885,A F,0,74635,74885,0.8,0 M,0,74912,,469.8363,185.0517 C,0,74912,,234,119,214 F,0,74912,74996,0,1 S,0,74912,75246,0.3,0.6 P,0,74912,75246,A F,0,74996,75246,1,0 M,0,75246,,271.8462,91.72533 C,0,75246,,234,119,214 F,0,75246,75329,0,1 S,0,75246,75579,0.3,0.6 P,0,75246,75579,A F,0,75329,75579,1,0
Sprite,Foreground,Centre,"sb\hl.png",0,0 M,0,74107,,420.0402,51.24738 C,0,74107,,234,119,214 F,0,74107,74190,0,1 S,0,74107,74440,0.3,0.6 P,0,74107,74440,A F,0,74190,74440,1,0 M,0,74552,,384,98 C,0,74552,,234,119,214 F,0,74552,74635,0,1 S,0,74552,74885,0.3,0.6 P,0,74552,74885,A F,0,74635,74885,1,0 M,0,74940,,468.3268,174.1064 C,0,74940,,234,119,214 F,0,74940,75023,0,1 S,0,74940,75273,0.3,0.6 P,0,74940,75273,A F,0,75023,75273,1,0 M,0,75274,,281.1851,99.73006 C,0,75274,,234,119,214 F,0,75274,75357,0,1 S,0,75274,75607,0.3,0.6 P,0,75274,75607,A F,0,75357,75607,1,0
Sprite,Foreground,Centre,"sb\hl.png",0,0 M,0,74218,,233,195 C,0,74218,,234,119,214 F,0,74218,74301,0,1 S,0,74218,74551,0.25,0.5 P,0,74218,74551,A F,0,74301,74551,0.8,0 M,0,74579,,398.2771,73.03553 C,0,74579,,234,119,214 F,0,74579,74663,0,1 S,0,74579,74913,0.3,0.6 P,0,74579,74913,A F,0,74663,74913,1,0 M,0,75052,,292,109 C,0,75052,,234,119,214 F,0,75052,75135,0,1 S,0,75052,75385,0.25,0.5 P,0,75052,75385,A F,0,75135,75385,0.8,0
Sprite,Foreground,Centre,"sb\hl.png",0,0 M,0,74218,,233,195 C,0,74218,,234,119,214 F,0,74218,74301,0,1 S,0,74218,74551,0.3,0.6 P,0,74218,74551,A F,0,74301,74551,1,0 M,0,74607,,405.0402,45.24738 C,0,74607,,234,119,214 F,0,74607,74690,0,1 S,0,74607,74940,0.3,0.6 P,0,74607,74940,A F,0,74690,74940,1,0 M,0,75052,,292,109 C,0,75052,,234,119,214 F,0,75052,75135,0,1 S,0,75052,75385,0.3,0.6 P,0,75052,75385,A F,0,75135,75385,1,0
Sprite,Foreground,Centre,"sb\hl.png",0,0 M,0,74245,,204.2535,194.6414 C,0,74245,,234,119,214 F,0,74245,74329,0,1 S,0,74245,74579,0.3,0.6 P,0,74245,74579,A F,0,74329,74579,1,0 M,0,74718,,287,285 C,0,74718,,234,119,214 F,0,74718,74801,0,1 S,0,74718,75051,0.25,0.5 P,0,74718,75051,A F,0,74801,75051,0.8,0 M,0,75079,,289.1295,97.03963 C,0,75079,,234,119,214 F,0,75079,75163,0,1 S,0,75079,75413,0.3,0.6 P,0,75079,75413,A F,0,75163,75413,1,0
Sprite,Foreground,Centre,"sb\hl.png",0,0 M,0,74273,,176.8759,202.8448 C,0,74273,,234,119,214 F,0,74273,74356,0,1 S,0,74273,74606,0.3,0.6 P,0,74273,74606,A F,0,74356,74606,1,0 M,0,74718,,287,285 C,0,74718,,234,119,214 F,0,74718,74801,0,1 S,0,74718,75051,0.3,0.6 P,0,74718,75051,A F,0,74801,75051,1,0 M,0,75135,,277.9056,76.27352 C,0,75135,,234,119,214 F,0,75135,75218,0,1 S,0,75135,75468,0.3,0.6 P,0,75135,75468,A F,0,75218,75468,1,0
Sprite,Foreground,Centre,"sb\hl.png",0,0 M,0,74385,,406,294 C,0,74385,,234,119,214 F,0,74385,74468,0,1 S,0,74385,74718,0.25,0.5 P,0,74385,74718,A F,0,74468,74718,0.8,0 M,0,74745,,259.5707,315.5591 C,0,74745,,234,119,214 F,0,74745,74829,0,1 S,0,74745,75079,0.3,0.6 P,0,74745,75079,A F,0,74829,75079,1,0 M,0,75163,,269.0083,67.78067 C,0,75163,,234,119,214 F,0,75163,75246,0,1 S,0,75163,75496,0.3,0.6 P,0,75163,75496,A F,0,75246,75496,1,0
Sprite,Foreground,Centre,"sb\hl.png",0,0 M,0,74385,,406,294 C,0,74385,,234,119,214 F,0,74385,74468,0,1 S,0,74385,74718,0.3,0.6 P,0,74385,74718,A F,0,74468,74718,1,0 M,0,74885,,435,187 C,0,74885,,234,119,214 F,0,74885,74968,0,1 S,0,74885,75218,0.3,0.6 P,0,74885,75218,A F,0,74968,75218,1,0
Sprite,Foreground,Centre,"sb\hl.png",0,0 M,0,75190,,265.304,68.21574 C,0,75190,,234,119,214 F,0,75190,75274,0,1 S,0,75190,75524,0.3,0.6 P,0,75190,75524,A F,0,75274,75524,1,0
Sprite,Foreground,Centre,"sb\hl.png",0,0 M,0,81385,,359,376 C,0,81385,,104,137,249 F,0,81385,81468,0,1 S,0,81385,81718,0.25,0.5 P,0,81385,81718,A F,0,81468,81718,0.8,0 M,0,81718,,426.0539,413.9786 C,0,81718,,104,137,249 F,0,81718,81801,0,1 S,0,81718,82051,0.3,0.6 P,0,81718,82051,A F,0,81801,82051,1,0 M,0,82051,,411.3226,272.8226 C,0,82051,,104,137,249 F,0,82051,82135,0,1 S,0,82051,82385,0.3,0.6 P,0,82051,82385,A F,0,82135,82385,1,0 M,0,82385,,520.3271,265.0503 C,0,82385,,104,137,249 F,0,82385,82468,0,1 S,0,82385,82718,0.3,0.6 P,0,82385,82718,A F,0,82468,82718,1,0
Sprite,Foreground,Centre,"sb\hl.png",0,0 M,0,81385,,359,376 C,0,81385,,104,137,249 F,0,81385,81468,0,1 S,0,81385,81718,0.3,0.6 P,0,81385,81718,A F,0,81468,81718,1,0 M,0,81746,,431.3421,402.8973 C,0,81746,,104,137,249 F,0,81746,81829,0,1 S,0,81746,82079,0.3,0.6 P,0,81746,82079,A F,0,81829,82079,1,0 M,0,82079,,415.1183,261.1444 C,0,82079,,104,137,249 F,0,82079,82162,0,1 S,0,82079,82412,0.3,0.6 P,0,82079,82412,A F,0,82162,82412,1,0 M,0,82412,,523.1021,277.0085 C,0,82412,,104,137,249 F,0,82412,82496,0,1 S,0,82412,82746,0.3,0.6 P,0,82412,82746,A F,0,82496,82746,1,0
Sprite,Foreground,Centre,"sb\hl.png",0,0 M,0,81412,,348.6095,382.3169 C,0,81412,,104,137,249 F,0,81412,81496,0,1 S,0,81412,81746,0.3,0.6 P,0,81412,81746,A F,0,81496,81746,1,0 M,0,81773,,434.4065,391.0027 C,0,81773,,104,137,249 F,0,81773,81857,0,1 S,0,81773,82107,0.3,0.6 P,0,81773,82107,A F,0,81857,82107,1,0 M,0,82107,,421.2108,250.4861 C,0,82107,,104,137,249 F,0,82107,82190,0,1 S,0,82107,82440,0.3,0.6 P,0,82107,82440,A F,0,82190,82440,1,0 M,0,82440,,523.2953,289.2841 C,0,82440,,104,137,249 F,0,82440,82523,0,1 S,0,82440,82773,0.3,0.6 P,0,82440,82773,A F,0,82523,82773,1,0
Sprite,Foreground,Centre,"sb\hl.png",0,0 M,0,81440,,342.5157,392.8687 C,0,81440,,104,137,249 F,0,81440,81523,0,1 S,0,81440,81773,0.3,0.6 P,0,81440,81773,A F,0,81523,81773,1,0 M,0,81801,,435.4194,378.7577 C,0,81801,,104,137,249 F,0,81801,81885,0,1 S,0,81801,82135,0.3,0.6 P,0,81801,82135,A F,0,81885,82135,1,0 M,0,82135,,429.4454,241.3827 C,0,82135,,104,137,249 F,0,82135,82218,0,1 S,0,82135,82468,0.3,0.6 P,0,82135,82468,A F,0,82218,82468,1,0 M,0,82468,,520.9676,301.34 C,0,82468,,104,137,249 F,0,82468,82551,0,1 S,0,82468,82801,0.3,0.6 P,0,82468,82801,A F,0,82551,82801,1,0
Sprite,Foreground,Centre,"sb\hl.png",0,0 M,0,81468,,341.5016,405.0406 C,0,81468,,104,137,249 F,0,81468,81551,0,1 S,0,81468,81801,0.3,0.6 P,0,81468,81801,A F,0,81551,81801,1,0 M,0,81829,,434.6251,366.4933 C,0,81829,,104,137,249 F,0,81829,81912,0,1 S,0,81829,82162,0.3,0.6 P,0,81829,82162,A F,0,81912,82162,1,0 M,0,82162,,439.4731,234.3038 C,0,82162,,104,137,249 F,0,82162,82246,0,1 S,0,82162,82496,0.3,0.6 P,0,82162,82496,A F,0,82246,82496,1,0 M,0,82496,,516.3212,312.7077 C,0,82496,,104,137,249 F,0,82496,82579,0,1 S,0,82496,82829,0.3,0.6 P,0,82496,82829,A F,0,82579,82829,1,0
Sprite,Foreground,Centre,"sb\hl.png",0,0 M,0,81496,,345.0763,416.7426 C,0,81496,,104,137,249 F,0,81496,81579,0,1 S,0,81496,81829,0.3,0.6 P,0,81496,81829,A F,0,81579,81829,1,0 M,0,81857,,432.2656,354.4294 C,0,81857,,104,137,249 F,0,81857,81940,0,1 S,0,81857,82190,0.3,0.6 P,0,81857,82190,A F,0,81940,82190,1,0 M,0,82190,,450.8051,229.5849 C,0,82190,,104,137,249 F,0,82190,82273,0,1 S,0,82190,82523,0.3,0.6 P,0,82190,82523,A F,0,82273,82523,1,0 M,0,82523,,509.6563,323.0255 C,0,82523,,104,137,249 F,0,82523,82607,0,1 S,0,82523,82857,0.3,0.6 P,0,82523,82857,A F,0,82607,82857,1,0
Sprite,Foreground,Centre,"sb\hl.png",0,0 M,0,81523,,352.2878,426.6434 C,0,81523,,104,137,249 F,0,81523,81607,0,1 S,0,81523,81857,0.3,0.6 P,0,81523,81857,A F,0,81607,81857,1,0 M,0,81885,,428.5607,342.707 C,0,81885,,104,137,249 F,0,81885,81968,0,1 S,0,81885,82218,0.3,0.6 P,0,81885,82218,A F,0,81968,82218,1,0 M,0,82218,,462.8894,227.4237 C,0,82218,,104,137,249 F,0,82218,82301,0,1 S,0,82218,82551,0.3,0.6 P,0,82218,82551,A F,0,82301,82551,1,0
Sprite,Foreground,Centre,"sb\hl.png",0,0 M,0,81551,,362.1426,433.928 C,0,81551,,104,137,249 F,0,81551,81635,0,1 S,0,81551,81885,0.3,0.6 P,0,81551,81885,A F,0,81635,81885,1,0 M,0,81912,,423.6538,331.4341 C,0,81912,,104,137,249 F,0,81912,81996,0,1 S,0,81912,82246,0.3,0.6 P,0,81912,82246,A F,0,81996,82246,1,0 M,0,82246,,475.1567,227.8914 C,0,82246,,104,137,249 F,0,82246,82329,0,1 S,0,82246,82579,0.3,0.6 P,0,82246,82579,A F,0,82329,82579,1,0
Sprite,Foreground,Centre,"sb\hl.png",0,0 M,0,81579,,373.6653,438.1127 C,0,81579,,104,137,249 F,0,81579,81662,0,1 S,0,81579,81912,0.3,0.6 P,0,81579,81912,A F,0,81662,81912,1,0 M,0,81940,,417.7389,320.6536 C,0,81940,,104,137,249 F,0,81940,82023,0,1 S,0,81940,82273,0.3,0.6 P,0,81940,82273,A F,0,82023,82273,1,0 M,0,82273,,487.0418,230.9643 C,0,82273,,104,137,249 F,0,82273,82357,0,1 S,0,82273,82607,0.3,0.6 P,0,82273,82607,A F,0,82357,82607,1,0
Sprite,Foreground,Centre,"sb\hl.png",0,0 M,0,81607,,385.8955,439.0057 C,0,81607,,104,137,249 F,0,81607,81690,0,1 S,0,81607,81940,0.3,0.6 P,0,81607,81940,A F,0,81690,81940,1,0 M,0,81968,,413.1156,309.2719 C,0,81968,,104,137,249 F,0,81968,82051,0,1 S,0,81968,82301,0.3,0.6 P,0,81968,82301,A F,0,82051,82301,1,0 M,0,82301,,497.9908,236.5146 C,0,82301,,104,137,249 F,0,82301,82385,0,1 S,0,82301,82635,0.3,0.6 P,0,82301,82635,A F,0,82385,82635,1,0
Sprite,Foreground,Centre,"sb\hl.png",0,0 M,0,81635,,397.9396,436.6835 C,0,81635,,104,137,249 F,0,81635,81718,0,1 S,0,81635,81968,0.3,0.6 P,0,81635,81968,A F,0,81718,81968,1,0 M,0,81996,,410.447,297.2793 C,0,81996,,104,137,249 F,0,81996,82079,0,1 S,0,81996,82329,0.3,0.6 P,0,81996,82329,A F,0,82079,82329,1,0 M,0,82329,,507.4785,244.3031 C,0,82329,,104,137,249 F,0,82329,82412,0,1 S,0,82329,82662,0.3,0.6 P,0,82329,82662,A F,0,82412,82662,1,0
Sprite,Foreground,Centre,"sb\hl.png",0,0 M,0,81662,,409.0287,431.4351 C,0,81662,,104,137,249 F,0,81662,81746,0,1 S,0,81662,81996,0.3,0.6 P,0,81662,81996,A F,0,81746,81996,1,0 M,0,82023,,409.8054,285.0111 C,0,82023,,104,137,249 F,0,82023,82107,0,1 S,0,82023,82357,0.3,0.6 P,0,82023,82357,A F,0,82107,82357,1,0 M,0,82357,,515.0433,253.9701 C,0,82357,,104,137,249 F,0,82357,82440,0,1 S,0,82357,82690,0.3,0.6 P,0,82357,82690,A F,0,82440,82690,1,0
Sprite,Foreground,Centre,"sb\hl.png",0,0 M,0,81690,,418.5459,423.6889 C,0,81690,,104,137,249 F,0,81690,81773,0,1 S,0,81690,82023,0.3,0.6 P,0,81690,82023,A F,0,81773,82023,1,0
Sprite,Foreground,Centre,"sb\hl.png",0,0 M,0,84718,,428,129 C,0,84718,,252,247,199 F,0,84718,84801,0,1 S,0,84718,85051,0.25,0.5 P,0,84718,85051,A F,0,84801,85051,0.8,0 M,0,85052,,322,222 C,0,85052,,252,247,199 F,0,85052,85135,0,1 S,0,85052,85385,0.25,0.5 P,0,85052,85385,A F,0,85135,85385,0.8,0 M,0,85412,,414.9484,334.6731 C,0,85412,,252,247,199 F,0,85412,85496,0,1 S,0,85412,85746,0.3,0.6 P,0,85412,85746,A F,0,85496,85746,1,0 M,0,85746,,450.1246,345.9536 C,0,85746,,252,247,199 F,0,85746,85829,0,1 S,0,85746,86079,0.3,0.6 P,0,85746,86079,A F,0,85829,86079,1,0 M,0,86079,,397.9124,323.4498 C,0,86079,,86,239,243 F,0,86079,86163,0,1 S,0,86079,86413,0.3,0.6 P,0,86079,86413,A F,0,86163,86413,1,0 M,0,86440,,176.9198,240.4307 C,0,86440,,86,239,243 F,0,86440,86523,0,1 S,0,86440,86773,0.3,0.6 P,0,86440,86773,A F,0,86523,86773,1,0 M,0,86774,,84.27686,258.5537 C,0,86774,,86,239,243 F,0,86774,86857,0,1 S,0,86774,87107,0.3,0.6 P,0,86774,87107,A F,0,86857,87107,1,0 M,0,87135,,265.6314,169.0886 C,0,87135,,86,239,243 F,0,87135,87218,0,1 S,0,87135,87468,0.3,0.6 P,0,87135,87468,A F,0,87218,87468,1,0 M,0,87552,,480,184 C,0,87552,,234,119,214 F,0,87552,87635,0,1 S,0,87552,87885,0.25,0.5 P,0,87552,87885,A F,0,87635,87885,0.8,0 M,0,87885,,564.5876,374.9036 C,0,87885,,234,119,214 F,0,87885,87969,0,1 S,0,87885,88219,0.3,0.6 P,0,87885,88219,A F,0,87969,88219,1,0 M,0,88385,,249,427 C,0,88385,,234,119,214 F,0,88385,88468,0,1 S,0,88385,88718,0.25,0.5 P,0,88385,88718,A F,0,88468,88718,0.8,0 M,0,88745,,472.2248,328.6851 C,0,88745,,104,137,249 F,0,88745,88829,0,1 S,0,88745,89079,0.3,0.6 P,0,88745,89079,A F,0,88829,89079,1,0 M,0,89079,,564.0513,157.0103 C,0,89079,,104,137,249 F,0,89079,89163,0,1 S,0,89079,89413,0.3,0.6 P,0,89079,89413,A F,0,89163,89413,1,0 M,0,89440,,507.5046,77.9862 C,0,89440,,104,137,249 F,0,89440,89523,0,1 S,0,89440,89773,0.3,0.6 P,0,89440,89773,A F,0,89523,89773,1,0 M,0,89885,,261,270 C,0,89885,,252,247,199 F,0,89885,89968,0,1 S,0,89885,90218,0.25,0.5 P,0,89885,90218,A F,0,89968,90218,0.8,0 M,0,90245,,156.496,310.1226 C,0,90245,,252,247,199 F,0,90245,90329,0,1 S,0,90245,90579,0.3,0.6 P,0,90245,90579,A F,0,90329,90579,1,0 M,0,90579,,351.9323,278.4573 C,0,90579,,86,239,243 F,0,90579,90663,0,1 S,0,90579,90913,0.3,0.6 P,0,90579,90913,A F,0,90663,90913,1,0 M,0,90940,,125.7141,415.682 C,0,90940,,86,239,243 F,0,90940,91023,0,1 S,0,90940,91273,0.3,0.6 P,0,90940,91273,A F,0,91023,91273,1,0 M,0,91273,,100.9377,388.0984 C,0,91273,,86,239,243 F,0,91273,91356,0,1 S,0,91273,91606,0.3,0.6 P,0,91273,91606,A F,0,91356,91606,1,0 M,0,91607,,231.4279,341.8574 C,0,91607,,234,119,214 F,0,91607,91690,0,1 S,0,91607,91940,0.3,0.6 P,0,91607,91940,A F,0,91690,91940,1,0 M,0,92052,,417,270 C,0,92052,,234,119,214 F,0,92052,92135,0,1 S,0,92052,92385,0.25,0.5 P,0,92052,92385,A F,0,92135,92385,0.8,0 M,0,92412,,553.5571,201.9826 C,0,92412,,234,119,214 F,0,92412,92496,0,1 S,0,92412,92746,0.3,0.6 P,0,92412,92746,A F,0,92496,92746,1,0 M,0,92773,,367.7187,193.9214 C,0,92773,,104,137,249 F,0,92773,92856,0,1 S,0,92773,93106,0.3,0.6 P,0,92773,93106,A F,0,92856,93106,1,0 M,0,93107,,321.5971,418.5279 C,0,93107,,104,137,249 F,0,93107,93190,0,1 S,0,93107,93440,0.3,0.6 P,0,93107,93440,A F,0,93190,93440,1,0 M,0,93468,,263.3027,370.9915 C,0,93468,,104,137,249 F,0,93468,93551,0,1 S,0,93468,93801,0.3,0.6 P,0,93468,93801,A F,0,93551,93801,1,0 M,0,93829,,170.9728,276.3964 C,0,93829,,104,137,249 F,0,93829,93912,0,1 S,0,93829,94162,0.3,0.6 P,0,93829,94162,A F,0,93912,94162,1,0 M,0,94163,,261.3818,105.4908 C,0,94163,,252,247,199 F,0,94163,94246,0,1 S,0,94163,94496,0.3,0.6 P,0,94163,94496,A F,0,94246,94496,1,0 M,0,94552,,440,77 C,0,94552,,252,247,199 F,0,94552,94635,0,1 S,0,94552,94885,0.25,0.5 P,0,94552,94885,A F,0,94635,94885,0.8,0 M,0,95052,,560,184 C,0,95052,,86,239,243 F,0,95052,95135,0,1 S,0,95052,95385,0.25,0.5 P,0,95052,95385,A F,0,95135,95385,0.8,0 M,0,95412,,518.6481,302.2407 C,0,95412,,86,239,243 F,0,95412,95496,0,1 S,0,95412,95746,0.3,0.6 P,0,95412,95746,A F,0,95496,95746,1,0 M,0,95773,,353.5626,233.2111 C,0,95773,,86,239,243 F,0,95773,95856,0,1 S,0,95773,96106,0.3,0.6 P,0,95773,96106,A F,0,95856,96106,1,0 M,0,96107,,94.70818,435.191 C,0,96107,,234,119,214 F,0,96107,96190,0,1 S,0,96107,96440,0.3,0.6 P,0,96107,96440,A F,0,96190,96440,1,0 M,0,96468,,102.1771,275.0698 C,0,96468,,234,119,214 F,0,96468,96551,0,1 S,0,96468,96801,0.3,0.6 P,0,96468,96801,A F,0,96551,96801,1,0 M,0,96829,,190.0851,226.4468 C,0,96829,,104,137,249 F,0,96829,96912,0,1 S,0,96829,97162,0.3,0.6 P,0,96829,97162,A F,0,96912,97162,1,0 M,0,97189,,366.0802,170.4307 C,0,97189,,104,137,249 F,0,97189,97273,0,1 S,0,97189,97523,0.3,0.6 P,0,97189,97523,A F,0,97273,97523,1,0 M,0,97523,,546.7441,222.7592 C,0,97523,,104,137,249 F,0,97523,97607,0,1 S,0,97523,97857,0.3,0.6 P,0,97523,97857,A F,0,97607,97857,1,0 M,0,97884,,249.0278,144.7704 C,0,97884,,104,137,249 F,0,97884,97968,0,1 S,0,97884,98218,0.3,0.6 P,0,97884,98218,A F,0,97968,98218,1,0 M,0,98245,,315.707,277.4195 C,0,98245,,252,247,199 F,0,98245,98329,0,1 S,0,98245,98579,0.3,0.6 P,0,98245,98579,A F,0,98329,98579,1,0 M,0,98579,,118.6448,353.2074 C,0,98579,,252,247,199 F,0,98579,98662,0,1 S,0,98579,98912,0.3,0.6 P,0,98579,98912,A F,0,98662,98912,1,0 M,0,99052,,362,153 C,0,99052,,252,247,199 F,0,99052,99135,0,1 S,0,99052,99385,0.25,0.5 P,0,99052,99385,A F,0,99135,99385,0.8,0 M,0,99412,,154.255,129.9468 C,0,99412,,86,239,243 F,0,99412,99496,0,1 S,0,99412,99746,0.3,0.6 P,0,99412,99746,A F,0,99496,99746,1,0 M,0,99773,,77.13578,389.9698 C,0,99773,,86,239,243 F,0,99773,99856,0,1 S,0,99773,100106,0.3,0.6 P,0,99773,100106,A F,0,99856,100106,1,0 M,0,100134,,235.0858,375.082 C,0,100134,,86,239,243 F,0,100134,100217,0,1 S,0,100134,100467,0.3,0.6 P,0,100134,100467,A F,0,100217,100467,1,0 M,0,100552,,391,267 C,0,100552,,234,119,214 F,0,100552,100635,0,1 S,0,100552,100885,0.25,0.5 P,0,100552,100885,A F,0,100635,100885,0.8,0 M,0,100912,,402.5269,399.1173 C,0,100912,,234,119,214 F,0,100912,100996,0,1 S,0,100912,101246,0.3,0.6 P,0,100912,101246,A F,0,100996,101246,1,0 M,0,101273,,287.2586,320.597 C,0,101273,,104,137,249 F,0,101273,101356,0,1 S,0,101273,101606,0.3,0.6 P,0,101273,101606,A F,0,101356,101606,1,0 M,0,101607,,543.7329,369.3551 C,0,101607,,104,137,249 F,0,101607,101690,0,1 S,0,101607,101940,0.3,0.6 P,0,101607,101940,A F,0,101690,101940,1,0 M,0,101940,,531.853,397.0876 C,0,101940,,104,137,249 F,0,101940,102023,0,1 S,0,101940,102273,0.3,0.6 P,0,101940,102273,A F,0,102023,102273,1,0
Sprite,Foreground,Centre,"sb\hl.png",0,0 M,0,84718,,428,129 C,0,84718,,252,247,199 F,0,84718,84801,0,1 S,0,84718,85051,0.3,0.6 P,0,84718,85051,A F,0,84801,85051,1,0 M,0,85052,,322,222 C,0,85052,,252,247,199 F,0,85052,85135,0,1 S,0,85052,85385,0.3,0.6 P,0,85052,85385,A F,0,85135,85385,1,0 M,0,85440,,413.9243,339.2133 C,0,85440,,252,247,199 F,0,85440,85523,0,1 S,0,85440,85773,0.3,0.6 P,0,85440,85773,A F,0,85523,85773,1,0 M,0,85773,,452.0323,341.9353 C,0,85773,,252,247,199 F,0,85773,85857,0,1 S,0,85773,86107,0.3,0.6 P,0,85773,86107,A F,0,85857,86107,1,0 M,0,86107,,380.8249,316.8995 C,0,86107,,86,239,243 F,0,86107,86190,0,1 S,0,86107,86440,0.3,0.6 P,0,86107,86440,A F,0,86190,86440,1,0 M,0,86468,,194,247 C,0,86468,,86,239,243 F,0,86468,86551,0,1 S,0,86468,86801,0.3,0.6 P,0,86468,86801,A F,0,86551,86801,1,0 M,0,86802,,81.34203,286.9357 C,0,86802,,86,239,243 F,0,86802,86885,0,1 S,0,86802,87135,0.3,0.6 P,0,86802,87135,A F,0,86885,87135,1,0 M,0,87163,,278.5858,187.6952 C,0,87163,,86,239,243 F,0,87163,87246,0,1 S,0,87163,87496,0.3,0.6 P,0,87163,87496,A F,0,87246,87496,1,0 M,0,87552,,480,184 C,0,87552,,234,119,214 F,0,87552,87635,0,1 S,0,87552,87885,0.3,0.6 P,0,87552,87885,A F,0,87635,87885,1,0 M,0,87913,,563.686,382.6481 C,0,87913,,234,119,214 F,0,87913,87996,0,1 S,0,87913,88246,0.3,0.6 P,0,87913,88246,A F,0,87996,88246,1,0 M,0,88385,,249,427 C,0,88385,,234,119,214 F,0,88385,88468,0,1 S,0,88385,88718,0.3,0.6 P,0,88385,88718,A F,0,88468,88718,1,0 M,0,88773,,452.8408,317.0227 C,0,88773,,104,137,249 F,0,88773,88856,0,1 S,0,88773,89106,0.3,0.6 P,0,88773,89106,A F,0,88856,89106,1,0 M,0,89107,,564.0513,157.0103 C,0,89107,,104,137,249 F,0,89107,89190,0,1 S,0,89107,89440,0.3,0.6 P,0,89107,89440,A F,0,89190,89440,1,0 M,0,89468,,493.9218,103.2263 C,0,89468,,104,137,249 F,0,89468,89551,0,1 S,0,89468,89801,0.3,0.6 P,0,89468,89801,A F,0,89551,89801,1,0 M,0,89885,,261,270 C,0,89885,,252,247,199 F,0,89885,89968,0,1 S,0,89885,90218,0.3,0.6 P,0,89885,90218,A F,0,89968,90218,1,0 M,0,90273,,151.3497,286.3759 C,0,90273,,252,247,199 F,0,90273,90356,0,1 S,0,90273,90606,0.3,0.6 P,0,90273,90606,A F,0,90356,90606,1,0 M,0,90607,,341.584,278.7975 C,0,90607,,86,239,243 F,0,90607,90690,0,1 S,0,90607,90940,0.3,0.6 P,0,90607,90940,A F,0,90690,90940,1,0 M,0,90968,,130.3542,414.4561 C,0,90968,,86,239,243 F,0,90968,91051,0,1 S,0,90968,91301,0.3,0.6 P,0,90968,91301,A F,0,91051,91301,1,0 M,0,91385,,97,384 C,0,91385,,234,119,214 F,0,91385,91468,0,1 S,0,91385,91718,0.25,0.5 P,0,91385,91718,A F,0,91468,91718,0.8,0 M,0,91745,,328.7068,299.9861 C,0,91745,,234,119,214 F,0,91745,91829,0,1 S,0,91745,92079,0.3,0.6 P,0,91745,92079,A F,0,91829,92079,1,0 M,0,92079,,445.45,272.8273 C,0,92079,,234,119,214 F,0,92079,92163,0,1 S,0,92079,92413,0.3,0.6 P,0,92079,92413,A F,0,92163,92413,1,0 M,0,92440,,531.0262,198.4949 C,0,92440,,234,119,214 F,0,92440,92523,0,1 S,0,92440,92773,0.3,0.6 P,0,92440,92773,A F,0,92523,92773,1,0 M,0,92885,,471,356 C,0,92885,,104,137,249 F,0,92885,92968,0,1 S,0,92885,93218,0.25,0.5 P,0,92885,93218,A F,0,92968,93218,0.8,0 M,0,93218,,290.7914,413.5838 C,0,93218,,104,137,249 F,0,93218,93302,0,1 S,0,93218,93552,0.3,0.6 P,0,93218,93552,A F,0,93302,93552,1,0 M,0,93718,,132,195 C,0,93718,,104,137,249 F,0,93718,93801,0,1 S,0,93718,94051,0.25,0.5 P,0,93718,94051,A F,0,93801,94051,0.8,0 M,0,94052,,256,88 C,0,94052,,252,247,199 F,0,94052,94135,0,1 S,0,94052,94385,0.25,0.5 P,0,94052,94385,A F,0,94135,94385,0.8,0 M,0,94412,,329.6194,183.5225 C,0,94412,,252,247,199 F,0,94412,94496,0,1 S,0,94412,94746,0.3,0.6 P,0,94412,94746,A F,0,94496,94746,1,0 M,0,94773,,457.2395,260.4401 C,0,94773,,252,247,199 F,0,94773,94856,0,1 S,0,94773,95106,0.3,0.6 P,0,94773,95106,A F,0,94856,95106,1,0 M,0,95107,,562.588,202.1161 C,0,95107,,86,239,243 F,0,95107,95190,0,1 S,0,95107,95440,0.3,0.6 P,0,95107,95440,A F,0,95190,95440,1,0 M,0,95552,,443,352 C,0,95552,,86,239,243 F,0,95552,95635,0,1 S,0,95552,95885,0.25,0.5 P,0,95552,95885,A F,0,95635,95885,0.8,0 M,0,95912,,279.3322,188.0059 C,0,95912,,86,239,243 F,0,95912,95996,0,1 S,0,95912,96246,0.3,0.6 P,0,95912,96246,A F,0,95996,96246,1,0 M,0,96273,,261.5911,339.1739 C,0,96273,,234,119,214 F,0,96273,96356,0,1 S,0,96273,96606,0.3,0.6 P,0,96273,96606,A F,0,96356,96606,1,0 M,0,96607,,119.781,246.9738 C,0,96607,,234,119,214 F,0,96607,96690,0,1 S,0,96607,96940,0.3,0.6 P,0,96607,96940,A F,0,96690,96940,1,0 M,0,97051,,349,177 C,0,97051,,104,137,249 F,0,97051,97134,0,1 S,0,97051,97384,0.25,0.5 P,0,97051,97384,A F,0,97134,97384,0.8,0 M,0,97385,,446,136 C,0,97385,,104,137,249 F,0,97385,97468,0,1 S,0,97385,97718,0.25,0.5 P,0,97385,97718,A F,0,97468,97718,0.8,0 M,0,97745,,320.2585,65.8214 C,0,97745,,104,137,249 F,0,97745,97829,0,1 S,0,97745,98079,0.3,0.6 P,0,97745,98079,A F,0,97829,98079,1,0 M,0,98106,,171.586,154.8391 C,0,98106,,252,247,199 F,0,98106,98189,0,1 S,0,98106,98439,0.3,0.6 P,0,98106,98439,A F,0,98189,98439,1,0 M,0,98440,,125.3271,391.6307 C,0,98440,,252,247,199 F,0,98440,98523,0,1 S,0,98440,98773,0.3,0.6 P,0,98440,98773,A F,0,98523,98773,1,0 M,0,98801,,234.1453,327.9204 C,0,98801,,252,247,199 F,0,98801,98884,0,1 S,0,98801,99134,0.3,0.6 P,0,98801,99134,A F,0,98884,99134,1,0 M,0,99135,,322.0907,164.0095 C,0,99135,,252,247,199 F,0,99135,99218,0,1 S,0,99135,99468,0.3,0.6 P,0,99135,99468,A F,0,99218,99468,1,0 M,0,99496,,198.6136,179.6852 C,0,99496,,86,239,243 F,0,99496,99579,0,1 S,0,99496,99829,0.3,0.6 P,0,99496,99829,A F,0,99579,99829,1,0 M,0,99856,,77.13578,389.9698 C,0,99856,,86,239,243 F,0,99856,99940,0,1 S,0,99856,100190,0.3,0.6 P,0,99856,100190,A F,0,99940,100190,1,0 M,0,100385,,487,367 C,0,100385,,234,119,214 F,0,100385,100468,0,1 S,0,100385,100718,0.25,0.5 P,0,100385,100718,A F,0,100468,100718,0.8,0 M,0,100719,,536,172 C,0,100719,,234,119,214 F,0,100719,100802,0,1 S,0,100719,101052,0.25,0.5 P,0,100719,101052,A F,0,100802,101052,0.8,0 M,0,101079,,451.1126,158.9951 C,0,101079,,104,137,249 F,0,101079,101163,0,1 S,0,101079,101413,0.3,0.6 P,0,101079,101413,A F,0,101163,101413,1,0 M,0,101440,,566.6184,386.0388 C,0,101440,,104,137,249 F,0,101440,101523,0,1 S,0,101440,101773,0.3,0.6 P,0,101440,101773,A F,0,101523,101773,1,0 M,0,101773,,537.7789,369.1949 C,0,101773,,104,137,249 F,0,101773,101857,0,1 S,0,101773,102107,0.3,0.6 P,0,101773,102107,A F,0,101857,102107,1,0
Sprite,Foreground,Centre,"sb\hl.png",0,0 M,0,84745,,421.288,112.0376 C,0,84745,,252,247,199 F,0,84745,84829,0,1 S,0,84745,85079,0.3,0.6 P,0,84745,85079,A F,0,84829,85079,1,0 M,0,85079,,310.31,225.552 C,0,85079,,252,247,199 F,0,85079,85163,0,1 S,0,85079,85413,0.3,0.6 P,0,85079,85413,A F,0,85163,85413,1,0 M,0,85468,,415.6938,343.5388 C,0,85468,,252,247,199 F,0,85468,85551,0,1 S,0,85468,85801,0.3,0.6 P,0,85468,85801,A F,0,85551,85801,1,0 M,0,85801,,451.8348,337.2661 C,0,85801,,252,247,199 F,0,85801,85885,0,1 S,0,85801,86135,0.3,0.6 P,0,85801,86135,A F,0,85885,86135,1,0 M,0,86135,,363.7373,310.3493 C,0,86135,,86,239,243 F,0,86135,86218,0,1 S,0,86135,86468,0.3,0.6 P,0,86135,86468,A F,0,86218,86468,1,0 M,0,86496,,176.9198,240.4307 C,0,86496,,86,239,243 F,0,86496,86579,0,1 S,0,86496,86829,0.3,0.6 P,0,86496,86829,A F,0,86579,86829,1,0 M,0,86830,,77.51598,315.4805 C,0,86830,,86,239,243 F,0,86830,86913,0,1 S,0,86830,87163,0.3,0.6 P,0,86830,87163,A F,0,86913,87163,1,0 M,0,87190,,286.6415,209.0123 C,0,87190,,86,239,243 F,0,87190,87274,0,1 S,0,87190,87524,0.3,0.6 P,0,87190,87524,A F,0,87274,87524,1,0 M,0,87579,,482.3759,200.6311 C,0,87579,,234,119,214 F,0,87579,87663,0,1 S,0,87579,87913,0.3,0.6 P,0,87579,87913,A F,0,87663,87913,1,0 M,0,87941,,562.1145,390.2858 C,0,87941,,234,119,214 F,0,87941,88024,0,1 S,0,87941,88274,0.3,0.6 P,0,87941,88274,A F,0,88024,88274,1,0 M,0,88412,,268.2676,422.4391 C,0,88412,,234,119,214 F,0,88412,88496,0,1 S,0,88412,88746,0.3,0.6 P,0,88412,88746,A F,0,88496,88746,1,0 M,0,88801,,437.37,300.4975 C,0,88801,,104,137,249 F,0,88801,88884,0,1 S,0,88801,89134,0.3,0.6 P,0,88801,89134,A F,0,88884,89134,1,0 M,0,89135,,570,135 C,0,89135,,104,137,249 F,0,89135,89218,0,1 S,0,89135,89468,0.3,0.6 P,0,89135,89468,A F,0,89218,89468,1,0 M,0,89496,,480.8586,128.744 C,0,89496,,104,137,249 F,0,89496,89579,0,1 S,0,89496,89829,0.3,0.6 P,0,89496,89829,A F,0,89579,89829,1,0 M,0,89912,,263.9681,250.4358 C,0,89912,,252,247,199 F,0,89912,89996,0,1 S,0,89912,90246,0.3,0.6 P,0,89912,90246,A F,0,89996,90246,1,0 M,0,90385,,73,139 C,0,90385,,86,239,243 F,0,90385,90468,0,1 S,0,90385,90718,0.25,0.5 P,0,90385,90718,A F,0,90468,90718,0.8,0 M,0,90745,,96.49638,431.7125 C,0,90745,,86,239,243 F,0,90745,90829,0,1 S,0,90745,91079,0.3,0.6 P,0,90745,91079,A F,0,90829,91079,1,0 M,0,91079,,127.607,408.2957 C,0,91079,,86,239,243 F,0,91079,91162,0,1 S,0,91079,91412,0.3,0.6 P,0,91079,91412,A F,0,91162,91412,1,0 M,0,91412,,114.4721,378.5579 C,0,91412,,234,119,214 F,0,91412,91496,0,1 S,0,91412,91746,0.3,0.6 P,0,91412,91746,A F,0,91496,91746,1,0 M,0,91773,,328.7068,299.9861 C,0,91773,,234,119,214 F,0,91773,91856,0,1 S,0,91773,92106,0.3,0.6 P,0,91773,92106,A F,0,91856,92106,1,0 M,0,92107,,468.9903,288.8129 C,0,92107,,234,119,214 F,0,92107,92190,0,1 S,0,92107,92440,0.3,0.6 P,0,92107,92440,A F,0,92190,92440,1,0 M,0,92468,,508.9334,194.3926 C,0,92468,,234,119,214 F,0,92468,92551,0,1 S,0,92468,92801,0.3,0.6 P,0,92468,92801,A F,0,92551,92801,1,0 M,0,92885,,471,356 C,0,92885,,104,137,249 F,0,92885,92968,0,1 S,0,92885,93218,0.3,0.6 P,0,92885,93218,A F,0,92968,93218,1,0 M,0,93246,,283.0899,412.3477 C,0,93246,,104,137,249 F,0,93246,93329,0,1 S,0,93246,93579,0.3,0.6 P,0,93246,93579,A F,0,93329,93579,1,0 M,0,93718,,132,195 C,0,93718,,104,137,249 F,0,93718,93801,0,1 S,0,93718,94051,0.3,0.6 P,0,93718,94051,A F,0,93801,94051,1,0 M,0,94052,,256,88 C,0,94052,,252,247,199 F,0,94052,94135,0,1 S,0,94052,94385,0.3,0.6 P,0,94052,94385,A F,0,94135,94385,1,0 M,0,94440,,332.2388,173.0449 C,0,94440,,252,247,199 F,0,94440,94523,0,1 S,0,94440,94773,0.3,0.6 P,0,94440,94773,A F,0,94523,94773,1,0 M,0,94801,,429.0742,255.5539 C,0,94801,,252,247,199 F,0,94801,94884,0,1 S,0,94801,95134,0.3,0.6 P,0,94801,95134,A F,0,94884,95134,1,0 M,0,95135,,560,184 C,0,95135,,86,239,243 F,0,95135,95218,0,1 S,0,95135,95468,0.3,0.6 P,0,95135,95468,A F,0,95218,95468,1,0 M,0,95552,,443,352 C,0,95552,,86,239,243 F,0,95552,95635,0,1 S,0,95552,95885,0.3,0.6 P,0,95552,95885,A F,0,95635,95885,1,0 M,0,95940,,282.6645,170.0119 C,0,95940,,86,239,243 F,0,95940,96023,0,1 S,0,95940,96273,0.3,0.6 P,0,95940,96273,A F,0,96023,96273,1,0 M,0,96385,,107,307 C,0,96385,,234,119,214 F,0,96385,96468,0,1 S,0,96385,96718,0.25,0.5 P,0,96385,96718,A F,0,96468,96718,0.8,0 M,0,96745,,141.0876,249.4498 C,0,96745,,104,137,249 F,0,96745,96829,0,1 S,0,96745,97079,0.3,0.6 P,0,96745,97079,A F,0,96829,97079,1,0 M,0,97106,,366.0802,170.4307 C,0,97106,,104,137,249 F,0,97106,97189,0,1 S,0,97106,97439,0.3,0.6 P,0,97106,97439,A F,0,97189,97439,1,0 M,0,97440,,498.6927,153.7002 C,0,97440,,104,137,249 F,0,97440,97523,0,1 S,0,97440,97773,0.3,0.6 P,0,97440,97773,A F,0,97523,97773,1,0 M,0,97801,,279.3685,84.08859 C,0,97801,,104,137,249 F,0,97801,97884,0,1 S,0,97801,98134,0.3,0.6 P,0,97801,98134,A F,0,97884,98134,1,0 M,0,98218,,313,294 C,0,98218,,252,247,199 F,0,98218,98301,0,1 S,0,98218,98551,0.25,0.5 P,0,98218,98551,A F,0,98301,98551,0.8,0 M,0,98551,,119.9812,360.8921 C,0,98551,,252,247,199 F,0,98551,98635,0,1 S,0,98551,98885,0.3,0.6 P,0,98551,98885,A F,0,98635,98885,1,0 M,0,99052,,362,153 C,0,99052,,252,247,199 F,0,99052,99135,0,1 S,0,99052,99385,0.3,0.6 P,0,99052,99385,A F,0,99135,99385,1,0 M,0,99440,,173.0589,142.583 C,0,99440,,86,239,243 F,0,99440,99523,0,1 S,0,99440,99773,0.3,0.6 P,0,99440,99773,A F,0,99523,99773,1,0 M,0,99801,,95,386 C,0,99801,,86,239,243 F,0,99801,99884,0,1 S,0,99801,100134,0.3,0.6 P,0,99801,100134,A F,0,99884,100134,1,0 M,0,100162,,248.3786,349.6909 C,0,100162,,86,239,243 F,0,100162,100245,0,1 S,0,100162,100495,0.3,0.6 P,0,100162,100495,A F,0,100245,100495,1,0 M,0,100552,,391,267 C,0,100552,,234,119,214 F,0,100552,100635,0,1 S,0,100552,100885,0.3,0.6 P,0,100552,100885,A F,0,100635,100885,1,0 M,0,100940,,397.2714,375.3954 C,0,100940,,234,119,214 F,0,100940,101023,0,1 S,0,100940,101273,0.3,0.6 P,0,100940,101273,A F,0,101023,101273,1,0 M,0,101385,,576,388 C,0,101385,,104,137,249 F,0,101385,101468,0,1 S,0,101385,101718,0.25,0.5 P,0,101385,101718,A F,0,101468,101718,0.8,0 M,0,101718,,536.7555,359.6583 C,0,101718,,104,137,249 F,0,101718,101801,0,1 S,0,101718,102051,0.3,0.6 P,0,101718,102051,A F,0,101801,102051,1,0
Sprite,Foreground,Centre,"sb\hl.png",0,0 M,0,84773,,410.8546,97.09598 C,0,84773,,252,247,199 F,0,84773,84856,0,1 S,0,84773,85106,0.3,0.6 P,0,84773,85106,A F,0,84856,85106,1,0 M,0,85107,,299.5323,231.2356 C,0,85107,,252,247,199 F,0,85107,85190,0,1 S,0,85107,85440,0.3,0.6 P,0,85107,85440,A F,0,85190,85440,1,0 M,0,85496,,417.0282,347.7783 C,0,85496,,252,247,199 F,0,85496,85579,0,1 S,0,85496,85829,0.3,0.6 P,0,85496,85829,A F,0,85579,85829,1,0 M,0,85829,,451.432,332.9698 C,0,85829,,252,247,199 F,0,85829,85912,0,1 S,0,85829,86162,0.3,0.6 P,0,85829,86162,A F,0,85912,86162,1,0 M,0,86163,,348.9149,300.4468 C,0,86163,,86,239,243 F,0,86163,86246,0,1 S,0,86163,86496,0.3,0.6 P,0,86163,86496,A F,0,86246,86496,1,0 M,0,86523,,176.9198,240.4307 C,0,86523,,86,239,243 F,0,86523,86607,0,1 S,0,86523,86857,0.3,0.6 P,0,86523,86857,A F,0,86607,86857,1,0 M,0,86857,,83.76692,311.7292 C,0,86857,,86,239,243 F,0,86857,86941,0,1 S,0,86857,87191,0.3,0.6 P,0,86857,87191,A F,0,86941,87191,1,0 M,0,87218,,295.9722,229.7704 C,0,87218,,86,239,243 F,0,87218,87302,0,1 S,0,87218,87552,0.3,0.6 P,0,87218,87552,A F,0,87302,87552,1,0 M,0,87607,,484.7518,217.2623 C,0,87607,,234,119,214 F,0,87607,87690,0,1 S,0,87607,87940,0.3,0.6 P,0,87607,87940,A F,0,87690,87940,1,0 M,0,88052,,488,429 C,0,88052,,234,119,214 F,0,88052,88135,0,1 S,0,88052,88385,0.25,0.5 P,0,88052,88385,A F,0,88135,88385,0.8,0 M,0,88440,,287.5317,417.8639 C,0,88440,,234,119,214 F,0,88440,88523,0,1 S,0,88440,88773,0.3,0.6 P,0,88440,88773,A F,0,88523,88773,1,0 M,0,88829,,426.9924,280.3541 C,0,88829,,104,137,249 F,0,88829,88912,0,1 S,0,88829,89162,0.3,0.6 P,0,88829,89162,A F,0,88912,89162,1,0 M,0,89163,,564.0513,157.0103 C,0,89163,,104,137,249 F,0,89163,89246,0,1 S,0,89163,89496,0.3,0.6 P,0,89163,89496,A F,0,89246,89496,1,0 M,0,89523,,457.2253,144.4822 C,0,89523,,104,137,249 F,0,89523,89607,0,1 S,0,89523,89857,0.3,0.6 P,0,89523,89857,A F,0,89607,89857,1,0 M,0,89940,,268.6439,231.213 C,0,89940,,252,247,199 F,0,89940,90023,0,1 S,0,89940,90273,0.3,0.6 P,0,89940,90273,A F,0,90023,90273,1,0 M,0,90385,,73,139 C,0,90385,,86,239,243 F,0,90385,90468,0,1 S,0,90385,90718,0.3,0.6 P,0,90385,90718,A F,0,90468,90718,1,0 M,0,90773,,100.1894,428.6477 C,0,90773,,86,239,243 F,0,90773,90856,0,1 S,0,90773,91106,0.3,0.6 P,0,90773,91106,A F,0,90856,91106,1,0 M,0,91106,,123.412,405.9641 C,0,91106,,86,239,243 F,0,91106,91190,0,1 S,0,91106,91440,0.3,0.6 P,0,91106,91440,A F,0,91190,91440,1,0 M,0,91440,,131.9442,373.1158 C,0,91440,,234,119,214 F,0,91440,91523,0,1 S,0,91440,91773,0.3,0.6 P,0,91440,91773,A F,0,91523,91773,1,0 M,0,91801,,346,294 C,0,91801,,234,119,214 F,0,91801,91884,0,1 S,0,91801,92134,0.3,0.6 P,0,91801,92134,A F,0,91884,92134,1,0 M,0,92135,,478.5106,314.1917 C,0,92135,,234,119,214 F,0,92135,92218,0,1 S,0,92135,92468,0.3,0.6 P,0,92135,92468,A F,0,92218,92468,1,0 M,0,92496,,490.47,182.66 C,0,92496,,234,119,214 F,0,92496,92579,0,1 S,0,92496,92829,0.3,0.6 P,0,92496,92829,A F,0,92579,92829,1,0 M,0,92912,,473.707,339.4195 C,0,92912,,104,137,249 F,0,92912,92996,0,1 S,0,92912,93246,0.3,0.6 P,0,92912,93246,A F,0,92996,93246,1,0 M,0,93274,,275.3885,411.1117 C,0,93274,,104,137,249 F,0,93274,93357,0,1 S,0,93274,93607,0.3,0.6 P,0,93274,93607,A F,0,93357,93607,1,0 M,0,93745,,142.1965,215.3929 C,0,93745,,104,137,249 F,0,93745,93829,0,1 S,0,93745,94079,0.3,0.6 P,0,93745,94079,A F,0,93829,94079,1,0 M,0,94079,,261.3818,105.4908 C,0,94079,,252,247,199 F,0,94079,94163,0,1 S,0,94079,94413,0.3,0.6 P,0,94079,94413,A F,0,94163,94413,1,0 M,0,94552,,440,77 C,0,94552,,252,247,199 F,0,94552,94635,0,1 S,0,94552,94885,0.3,0.6 P,0,94552,94885,A F,0,94635,94885,1,0 M,0,95052,,560,184 C,0,95052,,86,239,243 F,0,95052,95135,0,1 S,0,95052,95385,0.3,0.6 P,0,95052,95385,A F,0,95135,95385,1,0 M,0,95440,,520.1295,328.4716 C,0,95440,,86,239,243 F,0,95440,95523,0,1 S,0,95440,95773,0.3,0.6 P,0,95440,95773,A F,0,95523,95773,1,0 M,0,95885,,276,206 C,0,95885,,86,239,243 F,0,95885,95968,0,1 S,0,95885,96218,0.25,0.5 P,0,95885,96218,A F,0,95968,96218,0.8,0 M,0,96245,,246.4685,320.4388 C,0,96245,,234,119,214 F,0,96245,96329,0,1 S,0,96245,96579,0.3,0.6 P,0,96245,96579,A F,0,96329,96579,1,0 M,0,96579,,116.2054,236.7955 C,0,96579,,234,119,214 F,0,96579,96662,0,1 S,0,96579,96912,0.3,0.6 P,0,96579,96912,A F,0,96662,96912,1,0 M,0,96940,,257.7858,210.5569 C,0,96940,,104,137,249 F,0,96940,97023,0,1 S,0,96940,97273,0.3,0.6 P,0,96940,97273,A F,0,97023,97273,1,0 M,0,97385,,446,136 C,0,97385,,104,137,249 F,0,97385,97468,0,1 S,0,97385,97718,0.3,0.6 P,0,97385,97718,A F,0,97468,97718,1,0 M,0,97773,,298.2865,71.59511 C,0,97773,,104,137,249 F,0,97773,97856,0,1 S,0,97773,98106,0.3,0.6 P,0,97773,98106,A F,0,97856,98106,1,0 M,0,98218,,313,294 C,0,98218,,252,247,199 F,0,98218,98301,0,1 S,0,98218,98551,0.3,0.6 P,0,98218,98551,A F,0,98301,98551,1,0 M,0,98607,,117.3083,345.5228 C,0,98607,,252,247,199 F,0,98607,98690,0,1 S,0,98607,98940,0.3,0.6 P,0,98607,98940,A F,0,98690,98940,1,0 M,0,99079,,348.6969,156.6698 C,0,99079,,252,247,199 F,0,99079,99163,0,1 S,0,99079,99413,0.3,0.6 P,0,99079,99413,A F,0,99163,99413,1,0 M,0,99468,,188.1612,159.5074 C,0,99468,,86,239,243 F,0,99468,99551,0,1 S,0,99468,99801,0.3,0.6 P,0,99468,99801,A F,0,99551,99801,1,0 M,0,99829,,77.13577,389.9698 C,0,99829,,86,239,243 F,0,99829,99912,0,1 S,0,99829,100162,0.3,0.6 P,0,99829,100162,A F,0,99912,100162,1,0 M,0,100189,,271.1427,332.4517 C,0,100189,,86,239,243 F,0,100189,100273,0,1 S,0,100189,100523,0.3,0.6 P,0,100189,100523,A F,0,100273,100523,1,0 M,0,100579,,372.2136,260.781 C,0,100579,,234,119,214 F,0,100579,100663,0,1 S,0,100579,100913,0.3,0.6 P,0,100579,100913,A F,0,100663,100913,1,0 M,0,101052,,456,131 C,0,101052,,104,137,249 F,0,101052,101135,0,1 S,0,101052,101385,0.25,0.5 P,0,101052,101385,A F,0,101135,101385,0.8,0 M,0,101412,,571.2607,387.25 C,0,101412,,104,137,249 F,0,101412,101496,0,1 S,0,101412,101746,0.3,0.6 P,0,101412,101746,A F,0,101496,101746,1,0 M,0,101746,,537.4406,364.4081 C,0,101746,,104,137,249 F,0,101746,101829,0,1 S,0,101746,102079,0.3,0.6 P,0,101746,102079,A F,0,101829,102079,1,0
Sprite,Foreground,Centre,"sb\hl.png",0,0 M,0,84885,,357,156 C,0,84885,,252,247,199 F,0,84885,84968,0,1 S,0,84885,85218,0.25,0.5 P,0,84885,85218,A F,0,84968,85218,0.8,0 M,0,85245,,337.0007,301.8019 C,0,85245,,252,247,199 F,0,85245,85329,0,1 S,0,85245,85579,0.3,0.6 P,0,85245,85579,A F,0,85329,85579,1,0 M,0,85579,,427.4118,356.5618 C,0,85579,,252,247,199 F,0,85579,85662,0,1 S,0,85579,85912,0.3,0.6 P,0,85579,85912,A F,0,85662,85912,1,0 M,0,85912,,443.8548,322.0661 C,0,85912,,252,247,199 F,0,85912,85996,0,1 S,0,85912,86246,0.3,0.6 P,0,85912,86246,A F,0,85996,86246,1,0 M,0,86246,,299.0798,290.4253 C,0,86246,,86,239,243 F,0,86246,86329,0,1 S,0,86246,86579,0.3,0.6 P,0,86246,86579,A F,0,86329,86579,1,0 M,0,86607,,176.9198,240.4307 C,0,86607,,86,239,243 F,0,86607,86690,0,1 S,0,86607,86940,0.3,0.6 P,0,86607,86940,A F,0,86690,86940,1,0 M,0,87052,,202,151 C,0,87052,,86,239,243 F,0,87052,87135,0,1 S,0,87052,87385,0.25,0.5 P,0,87052,87385,A F,0,87135,87385,0.8,0 M,0,87412,,369.293,264.5805 C,0,87412,,234,119,214 F,0,87412,87496,0,1 S,0,87412,87746,0.3,0.6 P,0,87412,87746,A F,0,87496,87746,1,0 M,0,87746,,569.5568,336.4069 C,0,87746,,234,119,214 F,0,87746,87830,0,1 S,0,87746,88080,0.3,0.6 P,0,87746,88080,A F,0,87830,88080,1,0 M,0,88107,,431.9502,415.7271 C,0,88107,,234,119,214 F,0,88107,88190,0,1 S,0,88107,88440,0.3,0.6 P,0,88107,88440,A F,0,88190,88440,1,0 M,0,88468,,306.7921,413.2729 C,0,88468,,234,119,214 F,0,88468,88551,0,1 S,0,88468,88801,0.3,0.6 P,0,88468,88801,A F,0,88551,88801,1,0 M,0,88856,,422.5081,258.1122 C,0,88856,,104,137,249 F,0,88856,88940,0,1 S,0,88856,89190,0.3,0.6 P,0,88856,89190,A F,0,88940,89190,1,0 M,0,89190,,564.0513,157.0103 C,0,89190,,104,137,249 F,0,89190,89274,0,1 S,0,89190,89524,0.3,0.6 P,0,89190,89524,A F,0,89274,89524,1,0 M,0,89718,,159,74 C,0,89718,,252,247,199 F,0,89718,89801,0,1 S,0,89718,90051,0.25,0.5 P,0,89718,90051,A F,0,89801,90051,0.8,0 M,0,90052,,313,72 C,0,90052,,252,247,199 F,0,90052,90135,0,1 S,0,90052,90385,0.25,0.5 P,0,90052,90385,A F,0,90135,90385,0.8,0 M,0,90412,,79.26102,167.0662 C,0,90412,,86,239,243 F,0,90412,90496,0,1 S,0,90412,90746,0.3,0.6 P,0,90412,90746,A F,0,90496,90746,1,0 M,0,90801,,104.0701,425.8242 C,0,90801,,86,239,243 F,0,90801,90884,0,1 S,0,90801,91134,0.3,0.6 P,0,90801,91134,A F,0,90884,91134,1,0 M,0,91134,,119.3348,403.432 C,0,91134,,86,239,243 F,0,91134,91218,0,1 S,0,91134,91468,0.3,0.6 P,0,91134,91468,A F,0,91218,91468,1,0 M,0,91468,,149.4162,367.6736 C,0,91468,,234,119,214 F,0,91468,91551,0,1 S,0,91468,91801,0.3,0.6 P,0,91468,91801,A F,0,91551,91801,1,0 M,0,91829,,328.7068,299.9861 C,0,91829,,234,119,214 F,0,91829,91912,0,1 S,0,91829,92162,0.3,0.6 P,0,91829,92162,A F,0,91912,92162,1,0 M,0,92163,,473.3587,342.5271 C,0,92163,,234,119,214 F,0,92163,92246,0,1 S,0,92163,92496,0.3,0.6 P,0,92163,92496,A F,0,92246,92496,1,0 M,0,92523,,469.0876,186.6314 C,0,92523,,234,119,214 F,0,92523,92607,0,1 S,0,92523,92857,0.3,0.6 P,0,92523,92857,A F,0,92607,92857,1,0 M,0,92940,,476.414,322.8391 C,0,92940,,104,137,249 F,0,92940,93023,0,1 S,0,92940,93273,0.3,0.6 P,0,92940,93273,A F,0,93023,93273,1,0 M,0,93385,,191,402 C,0,93385,,104,137,249 F,0,93385,93468,0,1 S,0,93385,93718,0.25,0.5 P,0,93385,93718,A F,0,93468,93718,0.8,0 M,0,93773,,152.3929,235.7859 C,0,93773,,104,137,249 F,0,93773,93856,0,1 S,0,93773,94106,0.3,0.6 P,0,93773,94106,A F,0,93856,94106,1,0 M,0,94107,,261.3818,105.4908 C,0,94107,,252,247,199 F,0,94107,94190,0,1 S,0,94107,94440,0.3,0.6 P,0,94107,94440,A F,0,94190,94440,1,0 M,0,94579,,444.7433,91.54617 C,0,94579,,252,247,199 F,0,94579,94663,0,1 S,0,94579,94913,0.3,0.6 P,0,94579,94913,A F,0,94663,94913,1,0 M,0,95079,,562.588,202.1161 C,0,95079,,86,239,243 F,0,95079,95163,0,1 S,0,95079,95413,0.3,0.6 P,0,95079,95413,A F,0,95163,95413,1,0 M,0,95579,,447.941,377.3224 C,0,95579,,86,239,243 F,0,95579,95663,0,1 S,0,95579,95913,0.3,0.6 P,0,95579,95913,A F,0,95663,95913,1,0 M,0,96052,,153,407 C,0,96052,,234,119,214 F,0,96052,96135,0,1 S,0,96052,96385,0.25,0.5 P,0,96052,96385,A F,0,96135,96385,0.8,0 M,0,96412,,104.4372,296.5111 C,0,96412,,234,119,214 F,0,96412,96496,0,1 S,0,96412,96746,0.3,0.6 P,0,96412,96746,A F,0,96496,96746,1,0 M,0,96773,,158.1751,242.8995 C,0,96773,,104,137,249 F,0,96773,96856,0,1 S,0,96773,97106,0.3,0.6 P,0,96773,97106,A F,0,96856,97106,1,0 M,0,97134,,349,177 C,0,97134,,104,137,249 F,0,97134,97217,0,1 S,0,97134,97467,0.3,0.6 P,0,97134,97467,A F,0,97217,97467,1,0 M,0,97468,,513.1115,178.4027 C,0,97468,,104,137,249 F,0,97468,97551,0,1 S,0,97468,97801,0.3,0.6 P,0,97468,97801,A F,0,97551,97801,1,0 M,0,97829,,266.4142,102.6952 C,0,97829,,104,137,249 F,0,97829,97912,0,1 S,0,97829,98162,0.3,0.6 P,0,97829,98162,A F,0,97912,98162,1,0 M,0,98273,,318.414,260.8391 C,0,98273,,252,247,199 F,0,98273,98356,0,1 S,0,98273,98606,0.3,0.6 P,0,98273,98606,A F,0,98356,98606,1,0 M,0,98718,,169,282 C,0,98718,,252,247,199 F,0,98718,98801,0,1 S,0,98718,99051,0.25,0.5 P,0,98718,99051,A F,0,98801,99051,0.8,0 M,0,99107,,335.3938,160.3396 C,0,99107,,252,247,199 F,0,99107,99190,0,1 S,0,99107,99440,0.3,0.6 P,0,99107,99440,A F,0,99190,99440,1,0 M,0,99523,,203.1892,201.9103 C,0,99523,,86,239,243 F,0,99523,99607,0,1 S,0,99523,99857,0.3,0.6 P,0,99523,99857,A F,0,99607,99857,1,0 M,0,99884,,95,386 C,0,99884,,86,239,243 F,0,99884,99968,0,1 S,0,99884,100218,0.3,0.6 P,0,99884,100218,A F,0,99968,100218,1,0 M,0,100385,,487,367 C,0,100385,,234,119,214 F,0,100385,100468,0,1 S,0,100385,100718,0.3,0.6 P,0,100385,100718,A F,0,100468,100718,1,0 M,0,100719,,536,172 C,0,100719,,234,119,214 F,0,100719,100802,0,1 S,0,100719,101052,0.3,0.6 P,0,100719,101052,A F,0,100802,101052,1,0 M,0,101107,,442.9246,162.8651 C,0,101107,,104,137,249 F,0,101107,101190,0,1 S,0,101107,101440,0.3,0.6 P,0,101107,101440,A F,0,101190,101440,1,0 M,0,101468,,562.129,384.3474 C,0,101468,,104,137,249 F,0,101468,101551,0,1 S,0,101468,101801,0.3,0.6 P,0,101468,101801,A F,0,101551,101801,1,0 M,0,101801,,537.7495,373.9934 C,0,101801,,104,137,249 F,0,101801,101885,0,1 S,0,101801,102135,0.3,0.6 P,0,101801,102135,A F,0,101885,102135,1,0
Sprite,Foreground,Centre,"sb\hl.png",0,0 M,0,84885,,357,156 C,0,84885,,252,247,199 F,0,84885,84968,0,1 S,0,84885,85218,0.3,0.6 P,0,84885,85218,A F,0,84968,85218,1,0 M,0,85273,,333.6765,310.4356 C,0,85273,,252,247,199 F,0,85273,85356,0,1 S,0,85273,85606,0.3,0.6 P,0,85273,85606,A F,0,85356,85606,1,0 M,0,85607,,432.0847,356.4888 C,0,85607,,252,247,199 F,0,85607,85690,0,1 S,0,85607,85940,0.3,0.6 P,0,85607,85940,A F,0,85690,85940,1,0 M,0,85940,,439.4342,320.5499 C,0,85940,,252,247,199 F,0,85940,86023,0,1 S,0,85940,86273,0.3,0.6 P,0,85940,86273,A F,0,86023,86273,1,0 M,0,86274,,281.6337,284.9007 C,0,86274,,86,239,243 F,0,86274,86357,0,1 S,0,86274,86607,0.3,0.6 P,0,86274,86607,A F,0,86357,86607,1,0 M,0,86719,,92,202 C,0,86719,,86,239,243 F,0,86719,86802,0,1 S,0,86719,87052,0.25,0.5 P,0,86719,87052,A F,0,86802,87052,0.8,0 M,0,87079,,224.7415,150.8214 C,0,87079,,86,239,243 F,0,87079,87163,0,1 S,0,87079,87413,0.3,0.6 P,0,87079,87413,A F,0,87163,87413,1,0 M,0,87440,,366.586,281.1609 C,0,87440,,234,119,214 F,0,87440,87523,0,1 S,0,87440,87773,0.3,0.6 P,0,87440,87773,A F,0,87523,87773,1,0 M,0,87774,,567.4742,343.9225 C,0,87774,,234,119,214 F,0,87774,87857,0,1 S,0,87774,88107,0.3,0.6 P,0,87774,88107,A F,0,87857,88107,1,0 M,0,88135,,403.8976,409.209 C,0,88135,,234,119,214 F,0,88135,88218,0,1 S,0,88135,88468,0.3,0.6 P,0,88135,88468,A F,0,88218,88468,1,0 M,0,88496,,326.0485,408.6656 C,0,88496,,234,119,214 F,0,88496,88579,0,1 S,0,88496,88829,0.3,0.6 P,0,88496,88829,A F,0,88579,88829,1,0 M,0,88884,,424.6974,235.5531 C,0,88884,,104,137,249 F,0,88884,88968,0,1 S,0,88884,89218,0.3,0.6 P,0,88884,89218,A F,0,88968,89218,1,0 M,0,89218,,570,135 C,0,89218,,104,137,249 F,0,89218,89302,0,1 S,0,89218,89552,0.3,0.6 P,0,89218,89552,A F,0,89302,89552,1,0 M,0,89718,,159,74 C,0,89718,,252,247,199 F,0,89718,89801,0,1 S,0,89718,90051,0.3,0.6 P,0,89718,90051,A F,0,89801,90051,1,0 M,0,90052,,313,72 C,0,90052,,252,247,199 F,0,90052,90135,0,1 S,0,90052,90385,0.3,0.6 P,0,90052,90385,A F,0,90135,90385,1,0 M,0,90440,,87.46822,179.6229 C,0,90440,,86,239,243 F,0,90440,90523,0,1 S,0,90440,90773,0.3,0.6 P,0,90440,90773,A F,0,90523,90773,1,0 M,0,90829,,108.1245,423.2564 C,0,90829,,86,239,243 F,0,90829,90912,0,1 S,0,90829,91162,0.3,0.6 P,0,90829,91162,A F,0,90912,91162,1,0 M,0,91162,,115.3833,400.7079 C,0,91162,,86,239,243 F,0,91162,91245,0,1 S,0,91162,91495,0.3,0.6 P,0,91162,91495,A F,0,91245,91495,1,0 M,0,91496,,166.9698,367.4916 C,0,91496,,234,119,214 F,0,91496,91579,0,1 S,0,91496,91829,0.3,0.6 P,0,91496,91829,A F,0,91579,91829,1,0 M,0,91856,,328.7068,299.9861 C,0,91856,,234,119,214 F,0,91856,91940,0,1 S,0,91856,92190,0.3,0.6 P,0,91856,92190,A F,0,91940,92190,1,0 M,0,92190,,470.0973,368.8038 C,0,92190,,234,119,214 F,0,92190,92274,0,1 S,0,92190,92524,0.3,0.6 P,0,92190,92524,A F,0,92274,92524,1,0 M,0,92551,,448.7848,181.1993 C,0,92551,,234,119,214 F,0,92551,92635,0,1 S,0,92551,92885,0.3,0.6 P,0,92551,92885,A F,0,92635,92885,1,0 M,0,93052,,337,421 C,0,93052,,104,137,249 F,0,93052,93135,0,1 S,0,93052,93385,0.25,0.5 P,0,93052,93385,A F,0,93135,93385,0.8,0 M,0,93412,,219.4601,404.478 C,0,93412,,104,137,249 F,0,93412,93496,0,1 S,0,93412,93746,0.3,0.6 P,0,93412,93746,A F,0,93496,93746,1,0 M,0,93801,,160.9065,255.9389 C,0,93801,,104,137,249 F,0,93801,93884,0,1 S,0,93801,94134,0.3,0.6 P,0,93801,94134,A F,0,93884,94134,1,0 M,0,94135,,256,88 C,0,94135,,252,247,199 F,0,94135,94218,0,1 S,0,94135,94468,0.3,0.6 P,0,94135,94468,A F,0,94218,94468,1,0 M,0,94607,,449.4866,106.0923 C,0,94607,,252,247,199 F,0,94607,94690,0,1 S,0,94607,94940,0.3,0.6 P,0,94607,94940,A F,0,94690,94940,1,0 M,0,95163,,562.588,202.1161 C,0,95163,,86,239,243 F,0,95163,95246,0,1 S,0,95163,95496,0.3,0.6 P,0,95163,95496,A F,0,95246,95496,1,0 M,0,95607,,450.2064,401.8936 C,0,95607,,86,239,243 F,0,95607,95690,0,1 S,0,95607,95940,0.3,0.6 P,0,95607,95940,A F,0,95690,95940,1,0 M,0,96052,,153,407 C,0,96052,,234,119,214 F,0,96052,96135,0,1 S,0,96052,96385,0.3,0.6 P,0,96052,96385,A F,0,96135,96385,1,0 M,0,96440,,102.7454,285.8484 C,0,96440,,234,119,214 F,0,96440,96523,0,1 S,0,96440,96773,0.3,0.6 P,0,96440,96773,A F,0,96523,96773,1,0 M,0,96801,,175.2627,236.3493 C,0,96801,,104,137,249 F,0,96801,96884,0,1 S,0,96801,97134,0.3,0.6 P,0,96801,97134,A F,0,96884,97134,1,0 M,0,97162,,366.0802,170.4307 C,0,97162,,104,137,249 F,0,97162,97245,0,1 S,0,97162,97495,0.3,0.6 P,0,97162,97495,A F,0,97245,97495,1,0 M,0,97496,,524.8973,204.5986 C,0,97496,,104,137,249 F,0,97496,97579,0,1 S,0,97496,97829,0.3,0.6 P,0,97496,97829,A F,0,97579,97829,1,0 M,0,97856,,258.3585,124.0123 C,0,97856,,104,137,249 F,0,97856,97940,0,1 S,0,97856,98190,0.3,0.6 P,0,97856,98190,A F,0,97940,98190,1,0 M,0,98385,,128,407 C,0,98385,,252,247,199 F,0,98385,98468,0,1 S,0,98385,98718,0.25,0.5 P,0,98385,98718,A F,0,98468,98718,0.8,0 M,0,98745,,197.2593,286.4694 C,0,98745,,252,247,199 F,0,98745,98829,0,1 S,0,98745,99079,0.3,0.6 P,0,98745,99079,A F,0,98829,99079,1,0 M,0,99163,,308.7876,167.6793 C,0,99163,,252,247,199 F,0,99163,99246,0,1 S,0,99163,99496,0.3,0.6 P,0,99163,99496,A F,0,99246,99496,1,0 M,0,99551,,202.4807,224.5534 C,0,99551,,86,239,243 F,0,99551,99635,0,1 S,0,99551,99885,0.3,0.6 P,0,99551,99885,A F,0,99635,99885,1,0 M,0,99912,,77.13577,389.9698 C,0,99912,,86,239,243 F,0,99912,99995,0,1 S,0,99912,100245,0.3,0.6 P,0,99912,100245,A F,0,99995,100245,1,0 M,0,100412,,503.1185,362.2898 C,0,100412,,234,119,214 F,0,100412,100496,0,1 S,0,100412,100746,0.3,0.6 P,0,100412,100746,A F,0,100496,100746,1,0 M,0,100746,,529.8431,193.9503 C,0,100746,,234,119,214 F,0,100746,100830,0,1 S,0,100746,101080,0.3,0.6 P,0,100746,101080,A F,0,100830,101080,1,0 M,0,101218,,255,344 C,0,101218,,104,137,249 F,0,101218,101301,0,1 S,0,101218,101551,0.25,0.5 P,0,101218,101551,A F,0,101301,101551,0.8,0 M,0,101551,,550.1452,376.4807 C,0,101551,,104,137,249 F,0,101551,101635,0,1 S,0,101551,101885,0.3,0.6 P,0,101551,101885,A F,0,101635,101885,1,0 M,0,101885,,535.3353,388.1521 C,0,101885,,104,137,249 F,0,101885,101968,0,1 S,0,101885,102218,0.3,0.6 P,0,101885,102218,A F,0,101968,102218,1,0
Sprite,Foreground,Centre,"sb\hl.png",0,0 M,0,84912,,343.1764,149.6606 C,0,84912,,252,247,199 F,0,84912,84996,0,1 S,0,84912,85246,0.3,0.6 P,0,84912,85246,A F,0,84996,85246,1,0 M,0,85385,,415,330 C,0,85385,,252,247,199 F,0,85385,85468,0,1 S,0,85385,85718,0.25,0.5 P,0,85385,85718,A F,0,85468,85718,0.8,0 M,0,85718,,448.491,350.3322 C,0,85718,,252,247,199 F,0,85718,85801,0,1 S,0,85718,86051,0.3,0.6 P,0,85718,86051,A F,0,85801,86051,1,0 M,0,86052,,415,330 C,0,86052,,86,239,243 F,0,86052,86135,0,1 S,0,86052,86385,0.25,0.5 P,0,86052,86385,A F,0,86135,86385,0.8,0 M,0,86412,,176.9198,240.4307 C,0,86412,,86,239,243 F,0,86412,86496,0,1 S,0,86412,86746,0.3,0.6 P,0,86412,86746,A F,0,86496,86746,1,0 M,0,86746,,87.2653,230.4081 C,0,86746,,86,239,243 F,0,86746,86830,0,1 S,0,86746,87080,0.3,0.6 P,0,86746,87080,A F,0,86830,87080,1,0 M,0,87107,,246.7135,156.5951 C,0,87107,,86,239,243 F,0,87107,87190,0,1 S,0,87107,87440,0.3,0.6 P,0,87107,87440,A F,0,87190,87440,1,0 M,0,87719,,572,329 C,0,87719,,234,119,214 F,0,87719,87802,0,1 S,0,87719,88052,0.25,0.5 P,0,87719,88052,A F,0,87802,88052,0.8,0 M,0,88079,,459.9845,422.3238 C,0,88079,,234,119,214 F,0,88079,88163,0,1 S,0,88079,88413,0.3,0.6 P,0,88079,88413,A F,0,88163,88413,1,0 M,0,88523,,345.3017,404.0437 C,0,88523,,234,119,214 F,0,88523,88607,0,1 S,0,88523,88857,0.3,0.6 P,0,88523,88857,A F,0,88607,88857,1,0 M,0,88912,,432.6771,214.3922 C,0,88912,,104,137,249 F,0,88912,88995,0,1 S,0,88912,89245,0.3,0.6 P,0,88912,89245,A F,0,88995,89245,1,0 M,0,89246,,564.0513,157.0103 C,0,89246,,104,137,249 F,0,89246,89329,0,1 S,0,89246,89579,0.3,0.6 P,0,89246,89579,A F,0,89329,89579,1,0 M,0,89745,,163.7102,90.1185 C,0,89745,,252,247,199 F,0,89745,89829,0,1 S,0,89745,90079,0.3,0.6 P,0,89745,90079,A F,0,89829,90079,1,0 M,0,90079,,306.9704,93.98496 C,0,90079,,252,247,199 F,0,90079,90163,0,1 S,0,90079,90413,0.3,0.6 P,0,90079,90413,A F,0,90163,90413,1,0 M,0,90552,,377,292 C,0,90552,,86,239,243 F,0,90552,90635,0,1 S,0,90552,90885,0.25,0.5 P,0,90552,90885,A F,0,90635,90885,0.8,0 M,0,90912,,121.151,417.1688 C,0,90912,,86,239,243 F,0,90912,90995,0,1 S,0,90912,91245,0.3,0.6 P,0,90912,91245,A F,0,90995,91245,1,0 M,0,91245,,104.3385,391.4853 C,0,91245,,86,239,243 F,0,91245,91329,0,1 S,0,91245,91579,0.3,0.6 P,0,91245,91579,A F,0,91329,91579,1,0 M,0,91579,,214.067,347.6443 C,0,91579,,234,119,214 F,0,91579,91662,0,1 S,0,91579,91912,0.3,0.6 P,0,91579,91912,A F,0,91662,91912,1,0 M,0,91940,,328.7068,299.9861 C,0,91940,,234,119,214 F,0,91940,92023,0,1 S,0,91940,92273,0.3,0.6 P,0,91940,92273,A F,0,92023,92273,1,0 M,0,92385,,576,206 C,0,92385,,234,119,214 F,0,92385,92468,0,1 S,0,92385,92718,0.25,0.5 P,0,92385,92718,A F,0,92468,92718,0.8,0 M,0,92745,,364.3593,177.4607 C,0,92745,,104,137,249 F,0,92745,92829,0,1 S,0,92745,93079,0.3,0.6 P,0,92745,93079,A F,0,92829,93079,1,0 M,0,93079,,329.2986,419.764 C,0,93079,,104,137,249 F,0,93079,93163,0,1 S,0,93079,93413,0.3,0.6 P,0,93079,93413,A F,0,93163,93413,1,0 M,0,93440,,245.7271,393.5222 C,0,93440,,104,137,249 F,0,93440,93523,0,1 S,0,93440,93773,0.3,0.6 P,0,93440,93773,A F,0,93523,93773,1,0 M,0,93856,,181.0392,296.8539 C,0,93856,,104,137,249 F,0,93856,93940,0,1 S,0,93856,94190,0.3,0.6 P,0,93856,94190,A F,0,93940,94190,1,0 M,0,94190,,261.3818,105.4908 C,0,94190,,252,247,199 F,0,94190,94274,0,1 S,0,94190,94524,0.3,0.6 P,0,94190,94524,A F,0,94274,94524,1,0 M,0,94718,,513,274 C,0,94718,,252,247,199 F,0,94718,94801,0,1 S,0,94718,95051,0.25,0.5 P,0,94718,95051,A F,0,94801,95051,0.8,0 M,0,95190,,562.588,202.1161 C,0,95190,,86,239,243 F,0,95190,95274,0,1 S,0,95190,95524,0.3,0.6 P,0,95190,95524,A F,0,95274,95524,1,0 M,0,95718,,345,278 C,0,95718,,86,239,243 F,0,95718,95801,0,1 S,0,95718,96051,0.25,0.5 P,0,95718,96051,A F,0,95801,96051,0.8,0 M,0,96079,,126.6936,427.1827 C,0,96079,,234,119,214 F,0,96079,96163,0,1 S,0,96079,96413,0.3,0.6 P,0,96079,96413,A F,0,96163,96413,1,0 M,0,96496,,103.0256,264.3132 C,0,96496,,234,119,214 F,0,96496,96579,0,1 S,0,96496,96829,0.3,0.6 P,0,96496,96829,A F,0,96579,96829,1,0 M,0,96856,,204.9797,220.5959 C,0,96856,,104,137,249 F,0,96856,96940,0,1 S,0,96856,97190,0.3,0.6 P,0,96856,97190,A F,0,96940,97190,1,0 M,0,97217,,349,177 C,0,97217,,104,137,249 F,0,97217,97301,0,1 S,0,97217,97551,0.3,0.6 P,0,97217,97551,A F,0,97301,97551,1,0 M,0,97718,,343,66 C,0,97718,,104,137,249 F,0,97718,97801,0,1 S,0,97718,98051,0.25,0.5 P,0,97718,98051,A F,0,97801,98051,0.8,0 M,0,98078,,174.293,171.4195 C,0,98078,,252,247,199 F,0,98078,98162,0,1 S,0,98078,98412,0.3,0.6 P,0,98078,98412,A F,0,98162,98412,1,0 M,0,98412,,126.6635,399.3153 C,0,98412,,252,247,199 F,0,98412,98496,0,1 S,0,98412,98746,0.3,0.6 P,0,98412,98746,A F,0,98496,98746,1,0 M,0,98773,,220.727,302.6336 C,0,98773,,252,247,199 F,0,98773,98856,0,1 S,0,98773,99106,0.3,0.6 P,0,98773,99106,A F,0,98856,99106,1,0 M,0,99190,,295.197,168.2664 C,0,99190,,252,247,199 F,0,99190,99274,0,1 S,0,99190,99524,0.3,0.6 P,0,99190,99524,A F,0,99274,99524,1,0 M,0,99579,,196.173,246.3398 C,0,99579,,86,239,243 F,0,99579,99662,0,1 S,0,99579,99912,0.3,0.6 P,0,99579,99912,A F,0,99662,99912,1,0 M,0,99940,,77.13579,389.9698 C,0,99940,,86,239,243 F,0,99940,100023,0,1 S,0,99940,100273,0.3,0.6 P,0,99940,100273,A F,0,100023,100273,1,0 M,0,100440,,519.4608,358.4488 C,0,100440,,234,119,214 F,0,100440,100523,0,1 S,0,100440,100773,0.3,0.6 P,0,100440,100773,A F,0,100523,100773,1,0 M,0,100774,,524.463,216.1032 C,0,100774,,234,119,214 F,0,100774,100857,0,1 S,0,100774,101107,0.3,0.6 P,0,100774,101107,A F,0,100857,101107,1,0 M,0,101218,,255,344 C,0,101218,,104,137,249 F,0,101218,101301,0,1 S,0,101218,101551,0.3,0.6 P,0,101218,101551,A F,0,101301,101551,1,0 M,0,101579,,546.7739,373.0667 C,0,101579,,104,137,249 F,0,101579,101662,0,1 S,0,101579,101912,0.3,0.6 P,0,101579,101912,A F,0,101662,101912,1,0 M,0,101912,,533.7682,392.6876 C,0,101912,,104,137,249 F,0,101912,101996,0,1 S,0,101912,102246,0.3,0.6 P,0,101912,102246,A F,0,101996,102246,1,0
Sprite,Foreground,Centre,"sb\hl.png",0,0 M,0,84940,,328.4882,145.9085 C,0,84940,,252,247,199 F,0,84940,85023,0,1 S,0,84940,85273,0.3,0.6 P,0,84940,85273,A F,0,85023,85273,1,0 M,0,85385,,415,330 C,0,85385,,252,247,199 F,0,85385,85468,0,1 S,0,85385,85718,0.3,0.6 P,0,85385,85718,A F,0,85468,85718,1,0 M,0,85857,,450.3825,328.4274 C,0,85857,,252,247,199 F,0,85857,85940,0,1 S,0,85857,86190,0.3,0.6 P,0,85857,86190,A F,0,85940,86190,1,0 M,0,86190,,334.1302,295.071 C,0,86190,,86,239,243 F,0,86190,86274,0,1 S,0,86190,86524,0.3,0.6 P,0,86190,86524,A F,0,86274,86524,1,0 M,0,86551,,194,247 C,0,86551,,86,239,243 F,0,86551,86635,0,1 S,0,86551,86885,0.3,0.6 P,0,86551,86885,A F,0,86635,86885,1,0 M,0,87052,,202,151 C,0,87052,,86,239,243 F,0,87052,87135,0,1 S,0,87052,87385,0.3,0.6 P,0,87052,87385,A F,0,87135,87385,1,0 M,0,87719,,572,329 C,0,87719,,234,119,214 F,0,87719,87802,0,1 S,0,87719,88052,0.3,0.6 P,0,87719,88052,A F,0,87802,88052,1,0 M,0,88163,,375.8257,402.773 C,0,88163,,234,119,214 F,0,88163,88246,0,1 S,0,88163,88496,0.3,0.6 P,0,88163,88496,A F,0,88246,88496,1,0 M,0,88551,,364.5506,399.4053 C,0,88551,,234,119,214 F,0,88551,88635,0,1 S,0,88551,88885,0.3,0.6 P,0,88551,88885,A F,0,88635,88885,1,0 M,0,88940,,446.1397,196.2082 C,0,88940,,104,137,249 F,0,88940,89023,0,1 S,0,88940,89273,0.3,0.6 P,0,88940,89273,A F,0,89023,89273,1,0 M,0,89274,,564.0513,157.0103 C,0,89274,,104,137,249 F,0,89274,89357,0,1 S,0,89274,89607,0.3,0.6 P,0,89274,89607,A F,0,89357,89607,1,0 M,0,89773,,167.5512,106.4608 C,0,89773,,252,247,199 F,0,89773,89856,0,1 S,0,89773,90106,0.3,0.6 P,0,89773,90106,A F,0,89856,90106,1,0 M,0,90107,,301.7726,116.1816 C,0,90107,,252,247,199 F,0,90107,90190,0,1 S,0,90107,90440,0.3,0.6 P,0,90107,90440,A F,0,90190,90440,1,0 M,0,90552,,377,292 C,0,90552,,86,239,243 F,0,90552,90635,0,1 S,0,90552,90885,0.3,0.6 P,0,90552,90885,A F,0,90635,90885,1,0 M,0,90995,,135.0541,413.4839 C,0,90995,,86,239,243 F,0,90995,91079,0,1 S,0,90995,91329,0.3,0.6 P,0,90995,91329,A F,0,91079,91329,1,0 M,0,91385,,97,384 C,0,91385,,234,119,214 F,0,91385,91468,0,1 S,0,91385,91718,0.3,0.6 P,0,91385,91718,A F,0,91468,91718,1,0 M,0,91884,,346,294 C,0,91884,,234,119,214 F,0,91884,91968,0,1 S,0,91884,92218,0.3,0.6 P,0,91884,92218,A F,0,91968,92218,1,0 M,0,92385,,576,206 C,0,92385,,234,119,214 F,0,92385,92468,0,1 S,0,92385,92718,0.3,0.6 P,0,92385,92718,A F,0,92468,92718,1,0 M,0,93052,,337,421 C,0,93052,,104,137,249 F,0,93052,93135,0,1 S,0,93052,93385,0.3,0.6 P,0,93052,93385,A F,0,93135,93385,1,0 M,0,93496,,277.618,346.0576 C,0,93496,,104,137,249 F,0,93496,93579,0,1 S,0,93496,93829,0.3,0.6 P,0,93496,93829,A F,0,93579,93829,1,0 M,0,93884,,187.0974,304.0257 C,0,93884,,104,137,249 F,0,93884,93968,0,1 S,0,93884,94218,0.3,0.6 P,0,93884,94218,A F,0,93968,94218,1,0 M,0,94218,,256,88 C,0,94218,,252,247,199 F,0,94218,94302,0,1 S,0,94218,94552,0.3,0.6 P,0,94218,94552,A F,0,94302,94552,1,0 M,0,94718,,513,274 C,0,94718,,252,247,199 F,0,94718,94801,0,1 S,0,94718,95051,0.3,0.6 P,0,94718,95051,A F,0,94801,95051,1,0 M,0,95218,,560,184 C,0,95218,,86,239,243 F,0,95218,95302,0,1 S,0,95218,95552,0.3,0.6 P,0,95218,95552,A F,0,95302,95552,1,0 M,0,95718,,345,278 C,0,95718,,86,239,243 F,0,95718,95801,0,1 S,0,95718,96051,0.3,0.6 P,0,95718,96051,A F,0,95801,96051,1,0 M,0,96218,,224,312 C,0,96218,,234,119,214 F,0,96218,96301,0,1 S,0,96218,96551,0.25,0.5 P,0,96218,96551,A F,0,96301,96551,0.8,0 M,0,96551,,110.1375,244.0567 C,0,96551,,234,119,214 F,0,96551,96635,0,1 S,0,96551,96885,0.3,0.6 P,0,96551,96885,A F,0,96635,96885,1,0 M,0,96912,,240.2822,215.8969 C,0,96912,,104,137,249 F,0,96912,96995,0,1 S,0,96912,97245,0.3,0.6 P,0,96912,97245,A F,0,96995,97245,1,0 M,0,97273,,366.0802,170.4307 C,0,97273,,104,137,249 F,0,97273,97356,0,1 S,0,97273,97606,0.3,0.6 P,0,97273,97606,A F,0,97356,97606,1,0 M,0,97718,,343,66 C,0,97718,,104,137,249 F,0,97718,97801,0,1 S,0,97718,98051,0.3,0.6 P,0,97718,98051,A F,0,97801,98051,1,0 M,0,98385,,128,407 C,0,98385,,252,247,199 F,0,98385,98468,0,1 S,0,98385,98718,0.3,0.6 P,0,98385,98718,A F,0,98468,98718,1,0 M,0,98829,,245.77,354.1873 C,0,98829,,252,247,199 F,0,98829,98912,0,1 S,0,98829,99162,0.3,0.6 P,0,98829,99162,A F,0,98912,99162,1,0 M,0,99218,,281.869,171.0908 C,0,99218,,252,247,199 F,0,99218,99302,0,1 S,0,99218,99552,0.3,0.6 P,0,99218,99552,A F,0,99302,99552,1,0 M,0,99607,,184.6388,265.9165 C,0,99607,,86,239,243 F,0,99607,99690,0,1 S,0,99607,99940,0.3,0.6 P,0,99607,99940,A F,0,99690,99940,1,0 M,0,100051,,169,418 C,0,100051,,86,239,243 F,0,100051,100134,0,1 S,0,100051,100384,0.25,0.5 P,0,100051,100384,A F,0,100134,100384,0.8,0 M,0,100607,,352.9735,256.1718 C,0,100607,,234,119,214 F,0,100607,100690,0,1 S,0,100607,100940,0.3,0.6 P,0,100607,100940,A F,0,100690,100940,1,0 M,0,101052,,456,131 C,0,101052,,104,137,249 F,0,101052,101135,0,1 S,0,101052,101385,0.3,0.6 P,0,101052,101385,A F,0,101135,101385,1,0 M,0,101496,,557.8544,382.1697 C,0,101496,,104,137,249 F,0,101496,101579,0,1 S,0,101496,101829,0.3,0.6 P,0,101496,101829,A F,0,101579,101829,1,0 M,0,101829,,537.3361,378.7742 C,0,101829,,104,137,249 F,0,101829,101912,0,1 S,0,101829,102162,0.3,0.6 P,0,101829,102162,A F,0,101912,102162,1,0
Sprite,Foreground,Centre,"sb\hl.png",0,0 M,0,85218,,342,294 C,0,85218,,252,247,199 F,0,85218,85301,0,1 S,0,85218,85551,0.25,0.5 P,0,85218,85551,A F,0,85301,85551,0.8,0 M,0,85551,,423.5574,353.9485 C,0,85551,,252,247,199 F,0,85551,85635,0,1 S,0,85551,85885,0.3,0.6 P,0,85551,85885,A F,0,85635,85885,1,0 M,0,85885,,446.8993,325.3116 C,0,85885,,252,247,199 F,0,85885,85968,0,1 S,0,85885,86218,0.3,0.6 P,0,85885,86218,A F,0,85968,86218,1,0 M,0,86218,,316.526,295.9499 C,0,86218,,86,239,243 F,0,86218,86302,0,1 S,0,86218,86552,0.3,0.6 P,0,86218,86552,A F,0,86302,86552,1,0 M,0,86579,,176.9198,240.4307 C,0,86579,,86,239,243 F,0,86579,86662,0,1 S,0,86579,86912,0.3,0.6 P,0,86579,86912,A F,0,86662,86912,1,0 M,0,87246,,310.6553,247.073 C,0,87246,,86,239,243 F,0,87246,87329,0,1 S,0,87246,87579,0.3,0.6 P,0,87246,87579,A F,0,87329,87579,1,0 M,0,87802,,565.9184,351.5632 C,0,87802,,234,119,214 F,0,87802,87885,0,1 S,0,87802,88135,0.3,0.6 P,0,87802,88135,A F,0,87885,88135,1,0 M,0,88190,,347.7361,396.4167 C,0,88190,,234,119,214 F,0,88190,88274,0,1 S,0,88190,88524,0.3,0.6 P,0,88190,88524,A F,0,88274,88524,1,0 M,0,88579,,383.796,394.7513 C,0,88579,,234,119,214 F,0,88579,88662,0,1 S,0,88579,88912,0.3,0.6 P,0,88579,88912,A F,0,88662,88912,1,0 M,0,89052,,570,135 C,0,89052,,104,137,249 F,0,89052,89135,0,1 S,0,89052,89385,0.25,0.5 P,0,89052,89385,A F,0,89135,89385,0.8,0 M,0,89412,,530.6854,61.43916 C,0,89412,,104,137,249 F,0,89412,89496,0,1 S,0,89412,89746,0.3,0.6 P,0,89412,89746,A F,0,89496,89746,1,0 M,0,90218,,161,334 C,0,90218,,252,247,199 F,0,90218,90301,0,1 S,0,90218,90551,0.25,0.5 P,0,90218,90551,A F,0,90301,90551,0.8,0 M,0,90718,,93,435 C,0,90718,,86,239,243 F,0,90718,90801,0,1 S,0,90718,91051,0.25,0.5 P,0,90718,91051,A F,0,90801,91051,0.8,0 M,0,91051,,131.9103,410.4209 C,0,91051,,86,239,243 F,0,91051,91134,0,1 S,0,91051,91384,0.3,0.6 P,0,91051,91384,A F,0,91134,91384,1,0 M,0,91523,,182.075,363.4577 C,0,91523,,234,119,214 F,0,91523,91607,0,1 S,0,91523,91857,0.3,0.6 P,0,91523,91857,A F,0,91607,91857,1,0 M,0,91912,,328.7068,299.9861 C,0,91912,,234,119,214 F,0,91912,91995,0,1 S,0,91912,92245,0.3,0.6 P,0,91912,92245,A F,0,91995,92245,1,0 M,0,92579,,426.0094,180.14 C,0,92579,,234,119,214 F,0,92579,92662,0,1 S,0,92579,92912,0.3,0.6 P,0,92579,92912,A F,0,92662,92912,1,0 M,0,93135,,313.8957,417.2919 C,0,93135,,104,137,249 F,0,93135,93218,0,1 S,0,93135,93468,0.3,0.6 P,0,93135,93468,A F,0,93218,93468,1,0 M,0,93523,,300.2419,328.7583 C,0,93523,,104,137,249 F,0,93523,93607,0,1 S,0,93523,93857,0.3,0.6 P,0,93523,93857,A F,0,93607,93857,1,0 M,0,93912,,187.8817,281.3013 C,0,93912,,104,137,249 F,0,93912,93995,0,1 S,0,93912,94245,0.3,0.6 P,0,93912,94245,A F,0,93995,94245,1,0 M,0,94246,,261.3818,105.4908 C,0,94246,,252,247,199 F,0,94246,94329,0,1 S,0,94246,94579,0.3,0.6 P,0,94246,94579,A F,0,94329,94579,1,0 M,0,94745,,485.1217,266.7723 C,0,94745,,252,247,199 F,0,94745,94829,0,1 S,0,94745,95079,0.3,0.6 P,0,94745,95079,A F,0,94829,95079,1,0 M,0,95246,,562.588,202.1161 C,0,95246,,86,239,243 F,0,95246,95329,0,1 S,0,95246,95579,0.3,0.6 P,0,95246,95579,A F,0,95329,95579,1,0 M,0,95745,,349.2813,255.6056 C,0,95745,,86,239,243 F,0,95745,95829,0,1 S,0,95745,96079,0.3,0.6 P,0,95745,96079,A F,0,95829,96079,1,0 M,0,96218,,224,312 C,0,96218,,234,119,214 F,0,96218,96301,0,1 S,0,96218,96551,0.3,0.6 P,0,96218,96551,A F,0,96301,96551,1,0 M,0,96718,,124,256 C,0,96718,,104,137,249 F,0,96718,96801,0,1 S,0,96718,97051,0.25,0.5 P,0,96718,97051,A F,0,96801,97051,0.8,0 M,0,97078,,366.0802,170.4307 C,0,97078,,104,137,249 F,0,97078,97162,0,1 S,0,97078,97412,0.3,0.6 P,0,97078,97412,A F,0,97162,97412,1,0 M,0,97412,,474.4698,138.7123 C,0,97412,,104,137,249 F,0,97412,97496,0,1 S,0,97412,97746,0.3,0.6 P,0,97412,97746,A F,0,97496,97746,1,0 M,0,97912,,234.3447,162.0731 C,0,97912,,104,137,249 F,0,97912,97995,0,1 S,0,97912,98245,0.3,0.6 P,0,97912,98245,A F,0,97995,98245,1,0 M,0,98468,,123.9906,383.946 C,0,98468,,252,247,199 F,0,98468,98551,0,1 S,0,98468,98801,0.3,0.6 P,0,98468,98801,A F,0,98551,98801,1,0 M,0,98856,,266.7177,373.5145 C,0,98856,,252,247,199 F,0,98856,98940,0,1 S,0,98856,99190,0.3,0.6 P,0,98856,99190,A F,0,98940,99190,1,0 M,0,99246,,268.6696,175.1177 C,0,99246,,252,247,199 F,0,99246,99329,0,1 S,0,99246,99579,0.3,0.6 P,0,99246,99579,A F,0,99329,99579,1,0 M,0,99718,,95,386 C,0,99718,,86,239,243 F,0,99718,99801,0,1 S,0,99718,100051,0.25,0.5 P,0,99718,100051,A F,0,99801,100051,0.8,0 M,0,100078,,197.4724,415.6258 C,0,100078,,86,239,243 F,0,100078,100162,0,1 S,0,100078,100412,0.3,0.6 P,0,100078,100412,A F,0,100162,100412,1,0 M,0,100885,,407,423 C,0,100885,,234,119,214 F,0,100885,100968,0,1 S,0,100885,101218,0.25,0.5 P,0,100885,101218,A F,0,100968,101218,0.8,0 M,0,101245,,279.4177,329.202 C,0,101245,,104,137,249 F,0,101245,101329,0,1 S,0,101245,101579,0.3,0.6 P,0,101245,101579,A F,0,101329,101579,1,0 M,0,101635,,541.0104,365.4034 C,0,101635,,104,137,249 F,0,101635,101718,0,1 S,0,101635,101968,0.3,0.6 P,0,101635,101968,A F,0,101718,101968,1,0
Sprite,Foreground,Centre,"sb\hl.png",0,0 M,0,85218,,342,294 C,0,85218,,252,247,199 F,0,85218,85301,0,1 S,0,85218,85551,0.3,0.6 P,0,85218,85551,A F,0,85301,85551,1,0 M,0,85635,,436.5204,356.7961 C,0,85635,,252,247,199 F,0,85635,85718,0,1 S,0,85635,85968,0.3,0.6 P,0,85635,85968,A F,0,85718,85968,1,0 M,0,86052,,415,330 C,0,86052,,86,239,243 F,0,86052,86135,0,1 S,0,86052,86385,0.3,0.6 P,0,86052,86385,A F,0,86135,86385,1,0 M,0,86719,,92,202 C,0,86719,,86,239,243 F,0,86719,86802,0,1 S,0,86719,87052,0.3,0.6 P,0,86719,87052,A F,0,86802,87052,1,0 M,0,87274,,330.4213,258.1604 C,0,87274,,86,239,243 F,0,87274,87357,0,1 S,0,87274,87607,0.3,0.6 P,0,87274,87607,A F,0,87357,87607,1,0 M,0,87830,,565.0674,359.3132 C,0,87830,,234,119,214 F,0,87830,87913,0,1 S,0,87830,88163,0.3,0.6 P,0,87830,88163,A F,0,87913,88163,1,0 M,0,88607,,403.0373,390.0818 C,0,88607,,234,119,214 F,0,88607,88690,0,1 S,0,88607,88940,0.3,0.6 P,0,88607,88940,A F,0,88690,88940,1,0 M,0,89052,,570,135 C,0,89052,,104,137,249 F,0,89052,89135,0,1 S,0,89052,89385,0.3,0.6 P,0,89052,89385,A F,0,89135,89385,1,0 M,0,90218,,161,334 C,0,90218,,252,247,199 F,0,90218,90301,0,1 S,0,90218,90551,0.3,0.6 P,0,90218,90551,A F,0,90301,90551,1,0 M,0,90718,,93,435 C,0,90718,,86,239,243 F,0,90718,90801,0,1 S,0,90718,91051,0.3,0.6 P,0,90718,91051,A F,0,90801,91051,1,0 M,0,91190,,111.5645,397.8006 C,0,91190,,86,239,243 F,0,91190,91273,0,1 S,0,91190,91523,0.3,0.6 P,0,91190,91523,A F,0,91273,91523,1,0 M,0,91551,,196.7061,353.4313 C,0,91551,,234,119,214 F,0,91551,91635,0,1 S,0,91551,91885,0.3,0.6 P,0,91551,91885,A F,0,91635,91885,1,0 M,0,92052,,417,270 C,0,92052,,234,119,214 F,0,92052,92135,0,1 S,0,92052,92385,0.3,0.6 P,0,92052,92385,A F,0,92135,92385,1,0 M,0,92607,,405.4405,172.433 C,0,92607,,234,119,214 F,0,92607,92690,0,1 S,0,92607,92940,0.3,0.6 P,0,92607,92940,A F,0,92690,92940,1,0 M,0,93163,,306.1942,416.0559 C,0,93163,,104,137,249 F,0,93163,93246,0,1 S,0,93163,93496,0.3,0.6 P,0,93163,93496,A F,0,93246,93496,1,0 M,0,93940,,194.3378,259.494 C,0,93940,,104,137,249 F,0,93940,94023,0,1 S,0,93940,94273,0.3,0.6 P,0,93940,94273,A F,0,94023,94273,1,0 M,0,94274,,261.3818,105.4907 C,0,94274,,252,247,199 F,0,94274,94357,0,1 S,0,94274,94607,0.3,0.6 P,0,94274,94607,A F,0,94357,94607,1,0 M,0,94829,,400.9031,249.5685 C,0,94829,,252,247,199 F,0,94829,94912,0,1 S,0,94829,95162,0.3,0.6 P,0,94829,95162,A F,0,94912,95162,1,0 M,0,95274,,562.588,202.1161 C,0,95274,,86,239,243 F,0,95274,95357,0,1 S,0,95274,95607,0.3,0.6 P,0,95274,95607,A F,0,95357,95607,1,0 M,0,95885,,276,206 C,0,95885,,86,239,243 F,0,95885,95968,0,1 S,0,95885,96218,0.3,0.6 P,0,95885,96218,A F,0,95968,96218,1,0 M,0,96385,,107,307 C,0,96385,,234,119,214 F,0,96385,96468,0,1 S,0,96385,96718,0.3,0.6 P,0,96385,96718,A F,0,96468,96718,1,0 M,0,96884,,222.7787,221.237 C,0,96884,,104,137,249 F,0,96884,96968,0,1 S,0,96884,97218,0.3,0.6 P,0,96884,97218,A F,0,96968,97218,1,0 M,0,97245,,366.0802,170.4307 C,0,97245,,104,137,249 F,0,97245,97328,0,1 S,0,97245,97578,0.3,0.6 P,0,97245,97578,A F,0,97328,97578,1,0 M,0,97940,,214.5787,173.1604 C,0,97940,,104,137,249 F,0,97940,98023,0,1 S,0,97940,98273,0.3,0.6 P,0,97940,98273,A F,0,98023,98273,1,0 M,0,98496,,122.6542,376.2614 C,0,98496,,252,247,199 F,0,98496,98579,0,1 S,0,98496,98829,0.3,0.6 P,0,98496,98829,A F,0,98579,98829,1,0 M,0,99274,,255.4702,179.1447 C,0,99274,,252,247,199 F,0,99274,99357,0,1 S,0,99274,99607,0.3,0.6 P,0,99274,99607,A F,0,99357,99607,1,0 M,0,99718,,95,386 C,0,99718,,86,239,243 F,0,99718,99801,0,1 S,0,99718,100051,0.3,0.6 P,0,99718,100051,A F,0,99801,100051,1,0 M,0,100106,,221.3828,400.2237 C,0,100106,,86,239,243 F,0,100106,100189,0,1 S,0,100106,100439,0.3,0.6 P,0,100106,100439,A F,0,100189,100439,1,0 M,0,100885,,407,423 C,0,100885,,234,119,214 F,0,100885,100968,0,1 S,0,100885,101218,0.3,0.6 P,0,100885,101218,A F,0,100968,101218,1,0 M,0,101385,,576,388 C,0,101385,,104,137,249 F,0,101385,101468,0,1 S,0,101385,101718,0.3,0.6 P,0,101385,101718,A F,0,101468,101718,1,0 M,0,101857,,536.5276,383.5041 C,0,101857,,104,137,249 F,0,101857,101940,0,1 S,0,101857,102190,0.3,0.6 P,0,101857,102190,A F,0,101940,102190,1,0
Sprite,Foreground,Centre,"sb\hl.png",0,0 M,0,85523,,420.3403,351.0754 C,0,85523,,252,247,199 F,0,85523,85607,0,1 S,0,85523,85857,0.3,0.6 P,0,85523,85857,A F,0,85607,85857,1,0 M,0,86385,,194,247 C,0,86385,,86,239,243 F,0,86385,86468,0,1 S,0,86385,86718,0.25,0.5 P,0,86385,86718,A F,0,86468,86718,0.8,0 M,0,87385,,372,248 C,0,87385,,234,119,214 F,0,87385,87468,0,1 S,0,87385,87718,0.25,0.5 P,0,87385,87718,A F,0,87468,87718,0.8,0 M,0,87857,,564.8482,367.1092 C,0,87857,,234,119,214 F,0,87857,87941,0,1 S,0,87857,88191,0.3,0.6 P,0,87857,88191,A F,0,87941,88191,1,0 M,0,88718,,494,335 C,0,88718,,104,137,249 F,0,88718,88801,0,1 S,0,88718,89051,0.25,0.5 P,0,88718,89051,A F,0,88801,89051,0.8,0 M,0,89385,,559,58 C,0,89385,,104,137,249 F,0,89385,89468,0,1 S,0,89385,89718,0.25,0.5 P,0,89385,89718,A F,0,89468,89718,0.8,0 M,0,90856,,112.3364,420.9561 C,0,90856,,86,239,243 F,0,90856,90940,0,1 S,0,90856,91190,0.3,0.6 P,0,90856,91190,A F,0,90940,91190,1,0 M,0,91218,,107.8819,394.7227 C,0,91218,,86,239,243 F,0,91218,91301,0,1 S,0,91218,91551,0.3,0.6 P,0,91218,91551,A F,0,91301,91551,1,0 M,0,91718,,346,294 C,0,91718,,234,119,214 F,0,91718,91801,0,1 S,0,91718,92051,0.25,0.5 P,0,91718,92051,A F,0,91801,92051,0.8,0 M,0,92718,,361,161 C,0,92718,,104,137,249 F,0,92718,92801,0,1 S,0,92718,93051,0.25,0.5 P,0,92718,93051,A F,0,92801,93051,0.8,0 M,0,93190,,298.4928,414.8198 C,0,93190,,104,137,249 F,0,93190,93274,0,1 S,0,93190,93524,0.3,0.6 P,0,93190,93524,A F,0,93274,93524,1,0 M,0,94385,,327,194 C,0,94385,,252,247,199 F,0,94385,94468,0,1 S,0,94385,94718,0.25,0.5 P,0,94385,94718,A F,0,94468,94718,0.8,0 M,0,94856,,402.5148,256.6197 C,0,94856,,252,247,199 F,0,94856,94940,0,1 S,0,94856,95190,0.3,0.6 P,0,94856,95190,A F,0,94940,95190,1,0 M,0,95385,,513,274 C,0,95385,,86,239,243 F,0,95385,95468,0,1 S,0,95385,95718,0.25,0.5 P,0,95385,95718,A F,0,95468,95718,0.8,0 M,0,96523,,105.6137,253.8432 C,0,96523,,234,119,214 F,0,96523,96607,0,1 S,0,96523,96857,0.3,0.6 P,0,96523,96857,A F,0,96607,96857,1,0 M,0,97051,,349,177 C,0,97051,,104,137,249 F,0,97051,97134,0,1 S,0,97051,97384,0.3,0.6 P,0,97051,97384,A F,0,97134,97384,1,0 M,0,98051,,177,188 C,0,98051,,252,247,199 F,0,98051,98134,0,1 S,0,98051,98384,0.25,0.5 P,0,98051,98384,A F,0,98134,98384,0.8,0 M,0,98523,,121.3177,368.5768 C,0,98523,,252,247,199 F,0,98523,98607,0,1 S,0,98523,98857,0.3,0.6 P,0,98523,98857,A F,0,98607,98857,1,0 M,0,99385,,133,122 C,0,99385,,86,239,243 F,0,99385,99468,0,1 S,0,99385,99718,0.25,0.5 P,0,99385,99718,A F,0,99468,99718,0.8,0 M,0,99745,,77.13577,389.9698 C,0,99745,,86,239,243 F,0,99745,99829,0,1 S,0,99745,100079,0.3,0.6 P,0,99745,100079,A F,0,99829,100079,1,0 M,0,101523,,553.8466,379.5331 C,0,101523,,104,137,249 F,0,101523,101607,0,1 S,0,101523,101857,0.3,0.6 P,0,101523,101857,A F,0,101607,101857,1,0
Sprite,Foreground,Centre,"sb\hl.png",0,0 M,0,85662,,440.7972,354.9119 C,0,85662,,252,247,199 F,0,85662,85746,0,1 S,0,85662,85996,0.3,0.6 P,0,85662,85996,A F,0,85746,85996,1,0 M,0,86385,,194,247 C,0,86385,,86,239,243 F,0,86385,86468,0,1 S,0,86385,86718,0.3,0.6 P,0,86385,86718,A F,0,86468,86718,1,0 M,0,87385,,372,248 C,0,87385,,234,119,214 F,0,87385,87468,0,1 S,0,87385,87718,0.3,0.6 P,0,87385,87718,A F,0,87468,87718,1,0 M,0,88052,,488,429 C,0,88052,,234,119,214 F,0,88052,88135,0,1 S,0,88052,88385,0.3,0.6 P,0,88052,88385,A F,0,88135,88385,1,0 M,0,88718,,494,335 C,0,88718,,104,137,249 F,0,88718,88801,0,1 S,0,88718,89051,0.3,0.6 P,0,88718,89051,A F,0,88801,89051,1,0 M,0,89385,,559,58 C,0,89385,,104,137,249 F,0,89385,89468,0,1 S,0,89385,89718,0.3,0.6 P,0,89385,89718,A F,0,89468,89718,1,0 M,0,90884,,116.6851,418.9262 C,0,90884,,86,239,243 F,0,90884,90968,0,1 S,0,90884,91218,0.3,0.6 P,0,90884,91218,A F,0,90968,91218,1,0 M,0,91718,,346,294 C,0,91718,,234,119,214 F,0,91718,91801,0,1 S,0,91718,92051,0.3,0.6 P,0,91718,92051,A F,0,91801,92051,1,0 M,0,92718,,361,161 C,0,92718,,104,137,249 F,0,92718,92801,0,1 S,0,92718,93051,0.3,0.6 P,0,92718,93051,A F,0,92801,93051,1,0 M,0,93385,,191,402 C,0,93385,,104,137,249 F,0,93385,93468,0,1 S,0,93385,93718,0.3,0.6 P,0,93385,93718,A F,0,93468,93718,1,0 M,0,94385,,327,194 C,0,94385,,252,247,199 F,0,94385,94468,0,1 S,0,94385,94718,0.3,0.6 P,0,94385,94718,A F,0,94468,94718,1,0 M,0,95385,,513,274 C,0,95385,,86,239,243 F,0,95385,95468,0,1 S,0,95385,95718,0.3,0.6 P,0,95385,95718,A F,0,95468,95718,1,0 M,0,96718,,124,256 C,0,96718,,104,137,249 F,0,96718,96801,0,1 S,0,96718,97051,0.3,0.6 P,0,96718,97051,A F,0,96801,97051,1,0 M,0,98051,,177,188 C,0,98051,,252,247,199 F,0,98051,98134,0,1 S,0,98051,98384,0.3,0.6 P,0,98051,98384,A F,0,98134,98384,1,0 M,0,98718,,169,282 C,0,98718,,252,247,199 F,0,98718,98801,0,1 S,0,98718,99051,0.3,0.6 P,0,98718,99051,A F,0,98801,99051,1,0 M,0,99385,,133,122 C,0,99385,,86,239,243 F,0,99385,99468,0,1 S,0,99385,99718,0.3,0.6 P,0,99385,99718,A F,0,99468,99718,1,0 M,0,100051,,169,418 C,0,100051,,86,239,243 F,0,100051,100134,0,1 S,0,100051,100384,0.3,0.6 P,0,100051,100384,A F,0,100134,100384,1,0 M,0,101662,,538.5895,361.2599 C,0,101662,,104,137,249 F,0,101662,101746,0,1 S,0,101662,101996,0.3,0.6 P,0,101662,101996,A F,0,101746,101996,1,0
Sprite,Foreground,Centre,"sb\hl.png",0,0 M,0,85690,,444.6481,352.9671 C,0,85690,,252,247,199 F,0,85690,85773,0,1 S,0,85690,86023,0.3,0.6 P,0,85690,86023,A F,0,85773,86023,1,0 M,0,91023,,136.3128,412.3324 C,0,91023,,86,239,243 F,0,91023,91106,0,1 S,0,91023,91356,0.3,0.6 P,0,91023,91356,A F,0,91106,91356,1,0 M,0,101690,,536.4423,356.9678 C,0,101690,,104,137,249 F,0,101690,101773,0,1 S,0,101690,102023,0.3,0.6 P,0,101690,102023,A F,0,101773,102023,1,0
//Storyboard Layer 4 (Overlay)
//Storyboard Sound Samples

[TimingPoints]
719,333.333333333333,4,2,12,42,1,0
719,-121.951219512195,4,2,12,42,0,0
1052,-108.695652173913,4,2,12,42,0,0
1385,-121.951219512195,4,2,12,42,0,0
2052,-108.695652173913,4,2,12,42,0,0
2385,-121.951219512195,4,2,12,42,0,0
2635,-121.951219512195,4,2,12,5,0,0
2718,-121.951219512195,4,2,12,42,0,0
2802,-121.951219512195,4,2,12,5,0,0
2885,-121.951219512195,4,2,12,42,0,0
2968,-121.951219512195,4,2,12,5,0,0
3052,-121.951219512195,4,2,12,42,0,0
3135,-121.951219512195,4,2,12,5,0,0
3218,-121.951219512195,4,2,12,42,0,0
3302,-121.951219512195,4,2,12,5,0,0
3385,-121.951219512195,4,2,12,42,0,0
3718,-121.951219512195,4,2,12,42,0,0
4718,-121.951219512195,4,2,12,42,0,0
6385,-108.695652173913,4,2,12,42,0,0
6718,-121.951219512195,4,2,12,42,0,0
7385,-108.695652173913,4,2,12,42,0,0
7718,-108.695652173913,4,2,12,42,0,0
7968,-108.695652173913,4,2,12,5,0,0
8052,-312.499999999999,4,2,12,42,0,0
8635,-312.499999999999,4,2,12,5,0,0
8718,-121.951219512195,4,2,12,42,0,0
9052,-108.695652173913,4,2,12,42,0,0
9385,-121.951219512195,4,2,12,42,0,0
10718,-454.545454545452,4,2,12,42,0,0
10802,-454.545454545452,4,2,12,5,0,0
10885,-454.545454545452,4,2,12,42,0,0
11385,-121.951219512195,4,2,12,42,0,0
11718,-108.695652173913,4,2,12,42,0,0
12052,-121.951219512195,4,2,12,42,0,0
12718,-108.695652173913,4,2,12,42,0,0
13052,-121.951219512195,4,2,12,42,0,0
13302,-121.951219512195,4,2,12,5,0,0
13385,-121.951219512195,4,2,12,42,0,0
13468,-121.951219512195,4,2,12,5,0,0
13552,-121.951219512195,4,2,12,42,0,0
13635,-121.951219512195,4,2,12,5,0,0
13718,-121.951219512195,4,2,12,42,0,0
13802,-121.951219512195,4,2,12,5,0,0
13885,-121.951219512195,4,2,12,42,0,0
13968,-121.951219512195,4,2,12,5,0,0
14052,-121.951219512195,4,2,12,42,0,0
14385,-108.695652173913,4,2,12,42,0,0
14718,-121.951219512195,4,2,12,42,0,0
15385,-108.695652173913,4,2,12,42,0,0
15718,-121.951219512195,4,2,12,42,0,0
17052,-108.695652173913,4,2,12,42,0,0
17385,-121.951219512195,4,2,12,42,0,0
18052,-108.695652173913,4,2,12,42,0,0
18385,-121.951219512195,4,2,12,42,0,0
18635,-121.951219512195,4,2,12,5,0,0
18718,-312.499999999999,4,2,12,42,0,0
19302,-312.499999999999,4,2,12,5,0,0
19385,-121.951219512195,4,2,22,52,0,0
19468,-121.951219512195,4,2,22,5,0,0
19552,-121.951219512195,4,2,22,52,0,0
19885,-98.0392156862744,4,2,23,52,0,0
19968,-98.0392156862744,4,2,23,5,0,0
20052,-98.0392156862744,4,2,23,52,0,0
20385,-81.9672131147541,4,2,24,52,0,0
20468,-81.9672131147541,4,2,24,5,0,0
20552,-81.9672131147541,4,2,24,52,0,0
20718,-121.951219512195,4,2,24,52,0,0
20802,-121.951219512195,4,2,24,5,0,0
20885,-121.951219512195,4,2,25,52,0,0
20968,-121.951219512195,4,2,25,5,0,0
21052,-161.290322580645,4,2,25,52,0,0
21302,-161.290322580645,4,2,25,5,0,0
21385,-81.9672131147541,4,2,12,42,0,0
21635,-81.9672131147541,4,2,12,5,0,0
21718,-192.307692307692,4,2,12,42,0,0
21968,-192.307692307692,4,2,12,5,0,0
22052,-108.695652173913,4,2,12,62,0,0
27052,-161.290322580645,4,2,12,62,0,0
27302,-161.290322580645,4,2,12,5,0,0
27385,-108.695652173913,4,2,12,62,0,0
28052,-121.951219512195,4,2,12,62,0,0
28302,-161.290322580645,4,2,12,5,0,0
28385,-108.695652173913,4,2,12,62,0,0
29052,-161.290322580645,4,2,12,62,0,0
29968,-161.290322580645,4,2,12,5,0,0
30052,-108.695652173913,4,2,12,62,0,0
31052,-108.695652173913,4,2,12,62,0,0
31135,-108.695652173913,4,2,12,62,0,0
31218,-108.695652173913,4,2,12,62,0,0
31302,-108.695652173913,4,2,12,5,0,0
31385,-108.695652173913,4,2,12,62,0,0
32052,-192.307692307692,4,2,12,62,0,0
32135,-108.695652173913,4,2,12,5,0,0
32218,-108.695652173913,4,2,12,62,0,0
33385,-108.695652173913,4,2,12,62,0,0
33635,-108.695652173913,4,2,12,5,0,0
33718,-108.695652173913,4,2,12,62,0,0
37635,-161.290322580645,4,2,12,5,0,0
37718,-161.290322580645,4,2,12,62,0,0
37968,-161.290322580645,4,2,12,5,0,0
38052,-108.695652173913,4,2,12,62,0,0
40385,-161.290322580645,4,2,12,62,0,0
40635,-161.290322580645,4,2,12,5,0,0
40718,-161.290322580645,4,2,22,52,0,0
41218,-161.290322580645,4,2,23,52,0,0
41385,-121.951219512195,4,2,23,52,0,0
41968,-161.290322580645,4,2,23,5,0,0
42052,-81.9672131147541,4,2,13,62,0,0
42093,-81.9672131147541,4,2,12,42,0,0
42135,-161.290322580645,4,2,12,5,0,0
43052,-108.695652173913,4,2,13,52,0,0
43385,-98.0392156862745,4,2,14,62,0,0
43552,-98.0392156862745,4,2,12,62,0,0
44052,-98.0392156862745,4,2,12,62,0,0
44302,-121.951219512195,4,2,12,5,0,0
44385,-98.0392156862745,4,2,12,62,0,0
44635,-121.951219512195,4,2,12,5,0,0
44718,-147.058823529412,4,2,12,62,0,0
45302,-121.951219512195,4,2,12,5,0,0
45385,-98.0392156862745,4,2,12,62,0,0
46218,-98.0392156862745,4,2,12,62,0,0
46302,-121.951219512195,4,2,12,5,0,0
46385,-138.888888888889,4,2,12,62,0,0
47385,-312.500000000001,4,2,12,62,0,0
48052,-161.290322580645,4,2,12,62,0,0
48718,-98.0392156862745,4,2,12,62,0,0
49385,-98.0392156862745,4,2,12,62,0,0
49635,-121.951219512195,4,2,12,5,0,0
49718,-98.0392156862745,4,2,12,62,0,0
49968,-121.951219512195,4,2,12,5,0,0
50052,-147.058823529412,4,2,12,62,0,0
50635,-121.951219512195,4,2,12,5,0,0
50718,-98.0392156862745,4,2,12,62,0,0
51552,-98.0392156862745,4,2,12,62,0,0
51635,-121.951219512195,4,2,12,5,0,0
51718,-138.888888888889,4,2,12,62,0,0
52718,-75.7575757575758,4,2,12,62,0,0
53385,-98.0392156862744,4,2,12,62,0,0
53635,-121.951219512195,4,2,12,5,0,0
53718,-108.695652173913,4,2,13,52,0,0
54052,-89.2857142857142,4,2,14,62,0,0
54218,-89.2857142857142,4,2,12,62,0,0
54385,-89.2857142857142,4,2,12,62,0,0
54635,-89.2857142857142,4,2,12,5,0,0
54718,-89.2857142857142,4,2,12,62,0,0
55385,-89.2857142857142,4,2,12,62,0,0
55635,-89.2857142857142,4,2,12,5,0,0
55718,-89.2857142857142,4,2,12,62,0,0
55968,-89.2857142857142,4,2,12,5,0,0
56052,-98.0392156862745,4,2,12,62,0,0
56218,-98.0392156862745,4,2,11,62,0,0
56274,-98.0392156862745,4,2,12,62,0,0
56385,-98.0392156862745,4,2,12,62,0,0
56635,-98.0392156862745,4,2,12,5,0,0
56718,-98.0392156862745,4,2,12,62,0,0
57052,-98.0392156862745,4,2,12,62,0,0
57302,-98.0392156862745,4,2,12,5,0,0
57385,-98.0392156862745,4,2,12,62,0,0
59052,-98.0392156862745,4,2,13,52,0,0
59385,-98.0392156862745,4,3,69,62,0,0
62052,-98.0392156862745,4,2,13,62,0,0
62385,-98.0392156862745,4,2,13,52,0,0
62718,-98.0392156862745,4,2,13,42,0,0
62885,-121.951219512195,4,2,13,42,0,0
63052,-161.290322580645,4,2,13,32,0,0
63218,-238.095238095238,4,2,13,32,0,0
63385,-238.095238095238,4,2,13,62,0,0
63718,-238.095238095238,4,2,12,52,0,0
64718,-238.095238095238,4,2,12,52,0,0
64968,-98.0392156862745,4,2,12,5,0,0
65052,-98.0392156862745,4,2,12,52,0,0
65302,-98.0392156862745,4,2,12,5,0,0
65385,-61.7283950617284,4,2,12,52,0,0
65635,-98.0392156862745,4,2,12,5,0,0
65718,-238.095238095238,4,2,12,52,0,0
65968,-98.0392156862745,4,2,12,5,0,0
66052,-61.7283950617284,4,2,12,52,0,0
66302,-98.0392156862745,4,2,12,5,0,0
66385,-238.095238095238,4,2,12,52,0,0
66635,-98.0392156862745,4,2,12,5,0,0
66718,-312.5,4,2,14,62,0,0
67302,-312.5,4,2,14,5,0,0
67385,-81.967213114754,4,2,14,72,0,1
67635,-81.967213114754,4,2,14,5,0,1
67718,-81.967213114754,4,2,14,72,0,1
68052,-52.0833333333333,4,2,14,72,0,1
68218,-52.0833333333333,4,2,14,5,0,1
68385,-65.7894736842105,4,2,14,72,0,1
68635,-65.7894736842105,4,2,14,5,0,1
68718,-89.2857142857143,4,2,14,72,0,1
68802,-89.2857142857143,4,2,14,5,0,1
68885,-89.2857142857143,4,2,14,72,0,1
68968,-89.2857142857143,4,2,14,5,0,1
69052,-192.307692307692,4,2,14,72,0,1
69302,-192.307692307692,4,2,14,5,0,1
69385,-52.0833333333333,4,2,14,72,0,1
69552,-52.0833333333333,4,2,14,5,0,1
69718,-75.7575757575758,4,2,14,72,0,1
69968,-75.7575757575758,4,2,14,5,0,1
70052,-81.9672131147541,4,2,14,72,0,1
70302,-81.9672131147541,4,2,14,5,0,1
70385,-81.9672131147541,4,2,14,72,0,1
70718,-47.1698113207547,4,2,14,72,0,1
70885,-52.0833333333333,4,2,14,5,0,1
71052,-65.7894736842105,4,2,14,72,0,1
71302,-65.7894736842105,4,2,14,5,0,1
71385,-89.2857142857143,4,2,14,72,0,1
71468,-89.2857142857143,4,2,14,5,0,1
71552,-89.2857142857143,4,2,14,72,0,1
71635,-89.2857142857143,4,2,14,5,0,1
71718,-192.307692307692,4,2,14,72,0,1
71968,-52.0833333333333,4,2,14,5,0,1
72052,-47.1698113207547,4,2,14,72,0,1
72218,-52.0833333333333,4,2,14,5,0,1
72385,-65.7894736842105,4,2,14,72,0,1
72635,-65.7894736842105,4,2,14,5,0,1
72718,-81.9672131147541,4,2,14,72,0,1
72968,-81.9672131147541,4,2,14,5,0,1
73052,-192.307692307692,4,2,14,72,0,1
73302,-192.307692307692,4,2,14,5,0,1
73385,-52.0833333333333,4,2,14,72,0,1
73552,-52.0833333333333,4,2,14,5,0,1
73718,-52.0833333333333,4,2,14,72,0,1
74052,-52.0833333333333,4,2,14,72,0,1
74135,-52.0833333333333,4,2,14,5,0,1
74218,-52.0833333333333,4,2,14,72,0,1
74302,-52.0833333333333,4,2,14,5,0,1
74385,-52.0833333333333,4,2,14,72,0,1
74468,-52.0833333333333,4,2,14,5,0,1
74552,-52.0833333333333,4,2,14,72,0,1
74635,-52.0833333333333,4,2,14,5,0,1
74718,-32.0512820512821,4,2,14,72,0,1
74802,-41.3223140495868,4,2,14,5,0,1
74885,-41.3223140495868,4,2,14,72,0,1
74968,-41.3223140495868,4,2,14,5,0,1
75052,-121.951219512195,4,2,14,72,0,1
75302,-121.951219512195,4,2,14,5,0,1
75385,-81.967213114754,4,2,14,72,0,1
75635,-81.967213114754,4,2,14,5,0,1
75718,-81.967213114754,4,2,14,72,0,1
76052,-52.0833333333333,4,2,14,72,0,1
76218,-52.0833333333333,4,2,14,5,0,1
76385,-65.7894736842105,4,2,14,72,0,1
76635,-65.7894736842105,4,2,14,5,0,1
76718,-89.2857142857143,4,2,14,72,0,1
76802,-89.2857142857143,4,2,14,5,0,1
76885,-89.2857142857143,4,2,14,72,0,1
76968,-89.2857142857143,4,2,14,5,0,1
77052,-192.307692307692,4,2,14,72,0,1
77302,-192.307692307692,4,2,14,5,0,1
77385,-47.1698113207547,4,2,14,72,0,1
77552,-52.0833333333333,4,2,14,5,0,1
77718,-75.7575757575758,4,2,14,72,0,1
77968,-75.7575757575758,4,2,14,5,0,1
78052,-81.9672131147541,4,2,14,72,0,1
78302,-81.9672131147541,4,2,14,5,0,1
78385,-81.9672131147541,4,2,14,72,0,1
78718,-52.0833333333333,4,2,14,72,0,1
78885,-52.0833333333333,4,2,14,5,0,1
79052,-65.7894736842105,4,2,14,72,0,1
79302,-65.7894736842105,4,2,14,5,0,1
79385,-89.2857142857143,4,2,14,72,0,1
79468,-89.2857142857143,4,2,14,5,0,1
79552,-89.2857142857143,4,2,14,72,0,1
79635,-89.2857142857143,4,2,14,5,0,1
79718,-192.307692307692,4,2,14,72,0,1
79968,-192.307692307692,4,2,14,5,0,1
80052,-47.1698113207547,4,2,14,72,0,1
80218,-52.0833333333333,4,2,14,5,0,1
80385,-65.7894736842105,4,2,14,72,0,1
80635,-65.7894736842105,4,2,14,5,0,1
80718,-81.9672131147541,4,2,14,72,0,1
80968,-81.9672131147541,4,2,14,5,0,1
81052,-81.967213114754,4,2,14,72,0,1
81385,-121.951219512195,4,2,14,72,0,1
82052,-52.0833333333333,4,2,14,72,0,1
82635,-52.0833333333333,4,2,14,72,0,1
82718,-41.3223140495868,4,2,14,72,0,1
82885,-41.3223140495868,4,2,14,5,0,1
83052,-41.3223140495868,4,2,14,72,0,1
83135,-41.3223140495868,4,2,14,5,0,1
83218,-41.3223140495868,4,2,14,72,0,1
83302,-41.3223140495868,4,2,14,5,0,1
83385,-81.967213114754,4,2,14,72,0,1
84052,-65.7894736842105,4,2,14,72,0,1
84385,-98.0392156862745,4,2,14,72,0,1
84718,-81.967213114754,4,2,14,72,0,0
84802,-81.967213114754,4,2,14,5,0,0
84885,-98.0392156862745,4,2,14,72,0,0
84968,-98.0392156862745,4,2,14,5,0,0
85052,-121.951219512195,4,2,14,72,0,0
85135,-121.951219512195,4,2,14,5,0,0
85218,-161.290322580645,4,2,14,72,0,0
85302,-161.290322580645,4,2,14,5,0,0
85385,-312.5,4,2,14,72,0,0
85968,-312.5,4,2,14,5,0,0
86052,-81.967213114754,4,2,14,72,0,1
86302,-81.967213114754,4,2,14,5,0,1
86385,-81.967213114754,4,2,14,72,0,1
86719,-52.0833333333333,4,2,14,72,0,1
86885,-52.0833333333333,4,2,14,5,0,1
87052,-65.7894736842105,4,2,14,72,0,1
87302,-65.7894736842105,4,2,14,5,0,1
87385,-89.2857142857143,4,2,14,72,0,1
87469,-89.2857142857143,4,2,14,5,0,1
87552,-89.2857142857143,4,2,14,72,0,1
87635,-89.2857142857143,4,2,14,5,0,1
87719,-192.307692307692,4,2,14,72,0,1
87969,-192.307692307692,4,2,14,5,0,1
88052,-52.0833333333333,4,2,14,72,0,1
88218,-52.0833333333333,4,2,14,5,0,1
88385,-75.7575757575758,4,2,14,72,0,1
88635,-75.7575757575758,4,2,14,5,0,1
88718,-65.7894736842105,4,2,14,72,0,1
88968,-65.7894736842105,4,2,14,5,0,1
89052,-65.7894736842105,4,2,14,72,0,1
89385,-52.0833333333333,4,2,14,72,0,1
89552,-52.0833333333333,4,2,14,5,0,1
89718,-89.2857142857143,4,2,14,72,0,1
89802,-89.2857142857143,4,2,14,5,0,1
89885,-75.7575757575758,4,2,14,72,0,1
89968,-75.7575757575758,4,2,14,5,0,1
90052,-65.7894736842105,4,2,14,72,0,1
90135,-65.7894736842105,4,2,14,5,0,1
90218,-61.7283950617284,4,2,14,72,0,1
90302,-61.7283950617284,4,2,14,5,0,1
90385,-52.0833333333333,4,2,14,72,0,1
90468,-52.0833333333333,4,2,14,5,0,1
90552,-52.0833333333333,4,2,14,72,0,1
90635,-52.0833333333333,4,2,14,5,0,1
90718,-312.5,4,2,14,72,0,1
91302,-312.5,4,2,14,5,0,1
91385,-81.9672131147541,4,2,14,72,0,1
91635,-81.9672131147541,4,2,14,5,0,1
91718,-81.9672131147541,4,2,14,72,0,1
92051,-52.0833333333333,4,2,14,72,0,1
92218,-52.0833333333333,4,2,14,5,0,1
92385,-65.7894736842105,4,2,14,72,0,1
92635,-65.7894736842105,4,2,14,5,0,1
92718,-89.2857142857143,4,2,14,72,0,1
92801,-89.2857142857143,4,2,14,5,0,1
92885,-89.2857142857143,4,2,14,72,0,1
92968,-89.2857142857143,4,2,14,5,0,1
93051,-192.307692307692,4,2,14,72,0,1
93301,-192.307692307692,4,2,14,5,0,1
93385,-52.0833333333333,4,2,14,72,0,1
93551,-52.0833333333333,4,2,14,5,0,1
93718,-65.7894736842105,4,2,14,72,0,1
93968,-65.7894736842105,4,2,14,5,0,1
94052,-81.9672131147541,4,2,14,72,0,1
94385,-138.888888888889,4,2,14,72,0,1
94468,-138.888888888889,4,2,14,5,0,1
94552,-98.0392156862745,4,2,14,72,0,1
94635,-98.0392156862745,4,2,14,5,0,1
94718,-52.0833333333333,4,2,14,72,0,1
94885,-52.0833333333333,4,2,14,5,0,1
95052,-81.9672131147541,4,2,14,72,0,1
95385,-52.0833333333333,4,2,14,72,0,1
95468,-52.0833333333333,4,2,14,5,0,1
95552,-58.1395348837209,4,2,14,72,0,1
95635,-58.1395348837209,4,2,14,5,0,1
95718,-65.7894736842105,4,2,14,72,0,1
95802,-65.7894736842105,4,2,14,5,0,1
95885,-81.9672131147541,4,2,14,72,0,1
95968,-81.9672131147541,4,2,14,5,0,1
96052,-45.045045045045,4,2,14,72,0,1
96135,-45.045045045045,4,2,14,5,0,1
96218,-61.7283950617284,4,2,14,72,0,1
96302,-61.7283950617284,4,2,14,5,0,1
96385,-138.888888888889,4,2,14,72,0,1
96635,-138.888888888889,4,2,14,5,0,1
96718,-81.967213114754,4,2,14,72,0,1
96968,-81.967213114754,4,2,14,5,0,1
97051,-81.967213114754,4,2,14,72,0,1
97385,-52.0833333333333,4,2,14,72,0,1
97551,-52.0833333333333,4,2,14,5,0,1
97718,-65.7894736842105,4,2,14,72,0,1
97968,-65.7894736842105,4,2,14,5,0,1
98051,-89.2857142857143,4,2,14,72,0,1
98135,-89.2857142857143,4,2,14,5,0,1
98218,-89.2857142857143,4,2,14,72,0,1
98301,-89.2857142857143,4,2,14,5,0,1
98385,-192.307692307692,4,2,14,72,0,1
98635,-192.307692307692,4,2,14,5,0,1
98718,-52.0833333333333,4,2,14,72,0,1
98885,-52.0833333333333,4,2,14,5,0,1
99051,-75.7575757575758,4,2,14,72,0,1
99052,-108.695652173913,4,2,14,72,0,1
99301,-75.7575757575758,4,2,14,5,0,1
99385,-65.7894736842105,4,2,14,72,0,1
99635,-81.9672131147541,4,2,14,5,0,1
99718,-81.9672131147541,4,2,14,72,0,1
100051,-52.0833333333333,4,2,14,72,0,1
100218,-52.0833333333333,4,2,14,5,0,1
100385,-89.2857142857143,4,2,14,72,0,1
100469,-89.2857142857143,4,2,14,5,0,1
100552,-75.7575757575758,4,2,14,72,0,1
100635,-75.7575757575758,4,2,14,5,0,1
100719,-65.7894736842105,4,2,14,72,0,1
100802,-65.7894736842105,4,2,14,5,0,1
100885,-61.7283950617284,4,2,14,72,0,1
100969,-61.7283950617284,4,2,14,5,0,1
101052,-52.0833333333333,4,2,14,72,0,1
101135,-52.0833333333333,4,2,14,5,0,1
101219,-52.0833333333333,4,2,14,72,0,1
101302,-52.0833333333333,4,2,14,5,0,1
101385,-312.5,4,2,14,72,0,1
101968,-312.5,4,2,14,5,0,0
102052,-312.5,4,2,13,72,0,0
105385,-312.5,4,2,13,5,0,0

[Colours]
Combo1 : 104,137,249
Combo2 : 252,247,199
Combo3 : 86,239,243
Combo4 : 234,119,214
SliderBorder : 186,196,222
SliderTrackOverride : 0,5,15

[HitObjects]
128,208,719,6,0,P|141:245|150:285,1,73.8000011260987,0|2,3:2|0:0,0:0:0:0:
43,164,1052,1,2,0:0:0:0:
43,164,1218,1,2,0:0:0:0:
139,67,1385,6,0,B|222:83|179:129|261:140,1,147.600002252197,10|0,0:0|3:2,0:0:0:0:
278,149,1885,1,2,0:0:0:0:
339,16,2052,2,0,P|299:23|269:53,1,82.7999972204591,0|2,0:0|0:0,0:0:0:0:
408,72,2385,2,0,P|432:98|412:189,1,110.700001689148,2|0,0:0|0:0,0:0:0:0:
412,188,2718,6,0,P|400:195|415:193,1,36.9000005630493,10|0,0:0|0:0,0:0:0:0:
333,226,2885,2,0,P|321:233|336:231,1,36.9000005630493
326,314,3052,2,0,P|338:321|323:319,1,36.9000005630493,2|0,0:0|0:0,0:0:0:0:
406,351,3218,2,0,P|418:358|403:356,1,36.9000005630493
484,317,3385,6,0,P|453:281|424:273,1,73.8000011260987,0|2,3:2|0:0,0:0:0:0:
333,226,3718,2,0,P|366:211|387:182,1,73.8000011260987,2|2,0:0|0:0,0:0:0:0:
512,229,4052,6,0,P|481:206|486:103,1,147.600002252197,10|0,0:0|3:2,0:0:0:0:
503,107,4551,1,2,0:0:0:0:
415,40,4718,2,0,L|334:56,1,73.8000011260987,2|2,0:0|0:0,0:0:0:0:
507,25,5052,5,2,0:0:0:0:
512,14,5218,1,2,0:0:0:0:
498,10,5385,1,10,0:0:0:0:
494,24,5552,1,2,0:0:0:0:
393,118,5718,2,0,P|324:136|269:90,1,147.600002252197,2|0,0:0|3:2,0:0:0:0:
253,86,6218,1,2,0:0:0:0:
362,29,6385,1,2,0:0:0:0:
362,29,6552,1,2,0:0:0:0:
236,0,6718,6,0,B|153:16|196:62|114:73,1,147.600002252197,10|0,0:0|3:2,0:0:0:0:
105,89,7218,1,2,0:0:0:0:
2,7,7385,2,0,P|26:33|24:82,1,82.7999972204591,2|2,0:0|0:0,0:0:0:0:
0,215,7718,2,0,P|34:171|100:171,1,124.199995830689,2|0,0:0|0:0,0:0:0:0:
116,169,8052,6,0,B|127:219|138:270,1,100.8,10|0,0:0|0:0,0:0:0:0:
108,335,8718,6,0,P|134:310|170:304,1,73.8000011260987,0|2,3:2|0:0,0:0:0:0:
276,252,9052,2,0,P|240:245|211:210,1,82.7999972204591,2|2,0:0|0:0,0:0:0:0:
280,361,9385,2,0,B|362:350|319:304|402:288,1,147.600002252197,10|0,0:0|3:2,0:0:0:0:
417,299,9885,1,2,0:0:0:0:
492,191,10052,5,2,0:0:0:0:
464,212,10218,1,2,0:0:0:0:
421,117,10385,5,2,0:0:0:0:
411,137,10551,1,2,0:0:0:0:
321,102,10718,6,0,L|325:117,1,9.90000030212403,10|0,0:0|0:0,0:0:0:0:
326,118,10884,1,2,0:0:0:0:
351,194,11052,5,2,0:0:0:0:
348,187,11218,1,2,0:0:0:0:
223,93,11385,6,0,L|243:163,1,73.8000011260987,0|2,3:2|0:0,0:0:0:0:
302,32,11718,1,2,0:0:0:0:
302,32,11884,1,2,0:0:0:0:
176,0,12052,2,0,P|131:32|127:118,1,147.600002252197,8|0,0:0|3:2,0:0:0:0:
145,133,12551,1,2,0:0:0:0:
70,219,12718,2,0,P|29:211|0:183,1,82.7999972204591,0|2,0:0|0:0,0:0:0:0:
126,302,13052,2,0,P|155:273|231:282,1,110.700001689148,2|0,0:0|0:0,0:0:0:0:
239,274,13385,6,0,P|235:260|244:272,1,36.9000005630493,10|0,0:0|0:0,0:0:0:0:
210,193,13552,2,0,P|206:179|215:191,1,36.9000005630493
266,126,13719,2,0,P|279:129|267:120,1,36.9000005630493,2|0,0:0|0:0,0:0:0:0:
349,154,13885,2,0,P|362:157|350:148,1,36.9000005630493
356,233,14052,6,0,P|392:228|420:206,1,73.8000011260987,0|2,3:2|0:0,0:0:0:0:
304,317,14385,2,0,P|281:288|236:274,1,82.7999972204591,2|2,0:0|0:0,0:0:0:0:
420,205,14718,6,0,B|393:350,1,147.600002252197,10|0,0:0|3:2,0:0:0:0:
401,368,15218,1,2,0:0:0:0:
493,242,15385,2,0,L|476:325,1,82.7999972204591,0|2,0:0|0:0,0:0:0:0:
506,152,15718,5,2,0:0:0:0:
511,141,15885,1,2,0:0:0:0:
497,137,16052,1,10,0:0:0:0:
493,151,16219,1,2,0:0:0:0:
414,47,16385,2,0,B|331:63|374:109|292:120,1,147.600002252197,2|0,0:0|3:2,0:0:0:0:
274,111,16885,1,2,0:0:0:0:
406,158,17052,1,2,0:0:0:0:
406,158,17219,1,2,0:0:0:0:
301,261,17385,6,0,B|218:245|261:199|179:188,1,147.600002252197,10|0,0:0|3:2,0:0:0:0:
169,173,17885,1,2,0:0:0:0:
27,192,18052,2,0,P|24:151|50:120,1,82.7999972204591,2|2,0:0|0:0,0:0:0:0:
111,256,18385,2,0,P|146:250|177:174,1,110.700001689148,2|0,0:0|0:0,0:0:0:0:
169,173,18718,6,0,P|131:147|129:96,1,100.8,8|0,0:0|0:0,0:0:0:0:
122,76,19385,6,0,L|83:86,1,36.9000005630493,8|0,0:3|0:0,0:0:0:0:
215,50,19552,1,8,0:3:0:0:
369,170,19885,2,0,L|416:183,1,45.9000002801514,8|0,0:3|0:0,0:0:0:0:
292,141,20052,1,8,0:3:0:0:
174,318,20385,2,0,L|120:335,1,54.8999977381898,8|0,0:3|0:0,0:0:0:0:
245,291,20552,1,8,0:3:0:0:
201,192,20718,6,0,L|193:242,1,36.9000005630493
127,146,20885,2,0,P|120:136|126:140,1,36.9000005630493,8|0,0:3|0:0,0:0:0:0:
209,80,21052,2,0,P|221:81|204:76,1,83.6999966793825,8|0,0:3|0:0,0:0:0:0:
209,80,21385,2,0,B|310:91|245:146|353:166,1,164.699993214569,8|0,0:0|0:0,0:0:0:0:
360,159,21718,6,0,P|333:184|327:220,1,70.1999995715332,2|0,0:0|0:0,0:0:0:0:
378,149,22052,6,0,P|403:126|340:35,1,165.599994440918,0|2,3:2|0:0,0:0:0:0:
208,17,22552,1,2,0:0:0:0:
269,153,22718,2,0,L|285:67,1,82.7999972204591,8|0,0:0|0:0,0:0:0:0:
132,77,23052,2,0,P|171:88|197:120,1,82.7999972204591,2|2,3:2|0:0,0:0:0:0:
64,16,23385,6,0,P|2:66|32:146,1,165.599994440918,2|2,0:0|0:0,0:0:0:0:
143,207,23885,1,2,0:0:0:0:
24,273,24052,2,0,P|9:310|20:350,1,82.7999972204591,10|2,0:0|0:0,0:0:0:0:
110,351,24385,2,0,P|121:311|106:273,1,82.7999972204591,2|0,0:0|0:0,0:0:0:0:
1,178,24718,6,0,B|102:167|37:112|147:91,1,165.599994440918,2|0,3:2|0:0,0:0:0:0:
31,48,25218,1,0,0:0:0:0:
143,170,25385,2,0,P|182:159|208:127,1,82.7999972204591,10|0,0:0|0:0,0:0:0:0:
119,12,25718,2,0,L|134:93,1,82.7999972204591,2|2,3:2|0:0,0:0:0:0:
232,16,26052,5,2,0:0:0:0:
288,153,26218,1,2,0:0:0:0:
292,130,26302,1,0,0:0:0:0:
296,109,26385,1,2,0:0:0:0:
235,215,26552,1,2,0:0:0:0:
282,347,26718,1,10,0:0:0:0:
376,316,26885,1,2,0:0:0:0:
474,283,27052,2,0,P|475:315|468:284,1,83.6999966793825,2|0,0:0|0:0,0:0:0:0:
474,283,27385,6,0,P|412:233|442:153,1,165.599994440918,0|2,3:2|0:0,0:0:0:0:
512,53,27885,1,2,0:0:0:0:
366,125,28052,2,0,P|305:117|281:68,1,110.700001689148,10|0,0:0|0:0,0:0:0:0:
255,0,28385,6,0,L|229:163,1,165.599994440918,0|0,3:2|0:0,0:0:0:0:
228,163,29052,6,0,P|208:133|166:119,1,55.799997786255,2|0,0:0|0:0,0:0:0:0:
294,278,29385,2,0,P|342:268|358:253,1,55.799997786255,8|0,0:0|0:0,0:0:0:0:
171,255,29718,2,0,P|153:291|163:337,1,83.6999966793825
199,355,30052,6,0,P|174:332|230:238,1,165.599994440918,2|0,3:2|0:0,0:0:0:0:
368,260,30552,1,0,0:0:0:0:
283,384,30718,2,0,P|276:343|267:302,1,82.7999972204591,10|2,0:0|0:0,0:0:0:0:
192,215,31052,1,2,0:0:0:0:
188,204,31218,2,0,P|195:163|200:133,1,41.3999986102295,10|0,0:0|0:0,0:0:0:0:
216,78,31385,5,2,0:0:0:0:
229,0,31552,1,0,0:0:0:0:
130,79,31719,5,2,3:2:0:0:
90,18,31885,1,0,0:0:0:0:
71,133,32052,6,0,L|47:115,1,23.3999998571777,10|0,0:0|0:0,0:0:0:0:
37,108,32218,1,0,0:0:0:0:
65,210,32385,5,2,0:0:0:0:
43,208,32551,1,0,0:0:0:0:
113,274,32718,5,2,3:2:0:0:
227,189,32885,1,2,0:0:0:0:
227,189,32968,1,0,0:0:0:0:
227,189,33052,1,2,0:0:0:0:
71,133,33218,1,2,0:0:0:0:
210,263,33385,2,0,P|271:255|303:202,1,124.199995830689,10|0,0:0|0:0,0:0:0:0:
366,159,33718,2,0,P|357:119|347:79,1,82.7999972204591,2|2,3:2|0:0,0:0:0:0:
504,9,34052,6,0,L|475:172,1,165.599994440918,2|2,0:0|0:0,0:0:0:0:
480,319,34551,1,2,0:0:0:0:
377,201,34718,2,0,P|339:188|301:203,1,82.7999972204591,10|2,0:0|0:0,0:0:0:0:
306,293,35052,2,0,P|343:308|382:295,1,82.7999972204591,2|0,0:0|0:0,0:0:0:0:
296,123,35385,6,0,B|198:141|263:196|162:207,1,165.599994440918,0|2,3:2|0:0,0:0:0:0:
301,204,35884,1,2,0:0:0:0:
157,124,36052,2,0,P|117:135|92:166,1,82.7999972204591,10|0,0:0|0:0,0:0:0:0:
178,288,36384,2,0,L|163:207,1,82.7999972204591,2|2,3:2|0:0,0:0:0:0:
316,122,36718,6,0,L|301:203,1,82.7999972204591,2|2,0:0|0:0,0:0:0:0:
228,49,37052,1,2,0:0:0:0:
332,26,37218,1,2,0:0:0:0:
439,4,37385,2,0,P|410:57|420:125,1,124.199995830689,10|0,0:0|0:0,0:0:0:0:
456,182,37718,2,0,P|454:156|447:186,1,83.6999966793825,2|0,0:0|0:0,0:0:0:0:
456,182,38052,6,0,B|358:200|423:255|322:266,1,165.599994440918,2|2,3:2|0:0,0:0:0:0:
463,260,38552,1,2,0:0:0:0:
318,188,38718,2,0,P|279:199|254:230,1,82.7999972204591,10|0,0:0|0:0,0:0:0:0:
338,347,39052,2,0,L|323:266,1,82.7999972204591,2|2,3:2|0:0,0:0:0:0:
380,143,39385,5,0,0:0:0:0:
463,260,39551,1,2,0:0:0:0:
467,239,39634,1,0,0:0:0:0:
471,216,39718,1,2,0:0:0:0:
416,328,39885,1,0,0:0:0:0:
321,207,40052,1,10,0:0:0:0:
225,238,40219,1,0,0:0:0:0:
135,277,40385,2,0,P|163:302|169:352,1,83.6999966793825,2|0,0:0|0:0,0:0:0:0:
120,274,40718,5,8,0:3:0:0:
209,131,40885,1,8,0:3:0:0:
219,138,41218,1,8,0:3:0:0:
65,26,41385,2,0,B|-21:73|2:161|27:205|131:178|87:106,1,258.300003941345,8|0,0:3|0:0,0:0:0:0:
107,116,42052,6,0,P|92:101|111:110,1,54.8999977381898,2|0,0:3|0:0,0:0:0:0:
319,18,43052,2,0,L|355:27,6,20.6999993051148,8|0|0|0|8|0|0,0:2|0:0|0:0|0:0|0:3|0:0|0:0,0:0:0:0:
339,23,43385,6,0,P|374:59|374:103,1,91.8000005603027,6|0,3:2|0:0,0:0:0:0:
256,167,43718,2,0,P|259:122|292:91,1,91.8000005603027,2|0,0:0|0:0,0:0:0:0:
378,202,44052,2,0,B|303:198|331:255|245:249,1,137.700000840454,2|0,0:0|0:0,0:0:0:0:
256,257,44385,2,0,B|332:264|310:199|391:212,1,137.700000840454,2|0,0:0|0:0,0:0:0:0:
457,266,44718,6,0,B|444:219|467:173|493:184|490:140|466:151|446:102|478:58,1,214.200001307373,2|0,0:0|0:0,0:0:0:0:
391,54,45385,2,0,B|385:34|362:30|362:30|370:49|391:54,2,61.2000003735352,2|2|2,0:0|0:0|0:0,0:0:0:0:
391,54,45718,2,0,B|353:14|289:29|289:29|283:77|327:99,1,183.600001120605,2|2,0:0|0:0,0:0:0:0:
214,15,46218,2,0,P|211:49|217:74,1,45.9000002801514
237,163,46385,6,0,B|225:177|215:184|186:200|140:172|131:99|183:78|251:40|331:96|313:188,1,324.000007910156,2|0,0:0|0:0,0:0:0:0:
271,288,47385,2,0,L|234:296,3,28.8,2|0|0|0,0:0|0:0|0:0|0:0,0:0:0:0:
247,370,48052,2,0,L|303:358,3,55.799997786255,2|0|2|2,0:0|0:0|0:0|0:0,0:0:0:0:
148,317,48718,6,0,P|151:272|180:236,1,91.8000005603027,2|0,0:0|0:0,0:0:0:0:
26,182,49052,2,0,P|56:215|60:260,1,91.8000005603027,2|0,0:0|0:0,0:0:0:0:
133,144,49385,2,0,B|209:149|181:92|256:96,1,137.700000840454,2|0,0:0|0:0,0:0:0:0:
252,88,49718,2,0,B|178:84|206:141|130:136,1,137.700000840454,2|0,0:0|0:0,0:0:0:0:
136,54,50052,6,0,B|148:118|148:118|160:129|160:129|156:147|156:147|179:267,1,214.200001307373,2|0,0:0|0:0,0:0:0:0:
132,334,50718,2,0,B|113:343|108:358|108:358|111:371|116:394,2,61.2000003735352,2|2|2,0:0|0:0|0:0,0:0:0:0:
132,334,51051,2,0,B|146:277|252:249|253:355|196:357,1,183.600001120605,2|2,0:0|0:0,0:0:0:0:
303,360,51551,2,0,P|309:337|309:315,1,45.9000002801514
284,185,51718,6,0,B|238:178|202:216|208:258|222:314|316:316|342:247|342:247|314:277|271:266,1,324.000007910156,2|0,0:0|0:0,0:0:0:0:
144,172,52718,6,0,P|134:191|132:208,4,29.6999999093628,2|0|0|0|0,0:0|0:0|0:0|0:0|0:0,0:0:0:0:
154,159,53052,1,0,0:0:0:0:
208,64,53218,1,0,0:0:0:0:
16,0,53385,2,0,P|30:61|45:138,1,137.700000840454,8|0,0:0|0:0,0:0:0:0:
48,150,53718,2,0,L|53:174,6,20.6999993051148,8|0|0|0|8|0|0,0:3|0:0|0:0|0:0|0:3|0:0|0:0,0:0:0:0:
57,187,54052,5,6,3:2:0:0:
161,73,54218,1,4,0:3:0:0:
193,240,54385,2,0,B|107:242|146:184|52:188,1,151.200001845703,2|0,0:0|0:0,0:0:0:0:
207,246,54718,2,0,P|249:231|253:171,1,100.800001230469,10|4,3:2|0:3,0:0:0:0:
118,332,55052,2,0,P|76:317|72:257,1,100.800001230469,2|4,0:0|0:3,0:0:0:0:
234,349,55385,6,0,B|275:365|314:336|297:321|339:297|377:307,1,151.200001845703,2|0,3:2|0:0,0:0:0:0:
386,313,55718,2,0,P|409:330|473:249,1,151.200001845703,2|0,0:0|0:0,0:0:0:0:
477,243,56052,2,0,B|501:245|511:228|511:228|492:224|477:243,2,61.2000003735352,8|2|2,3:2|0:0|0:0,0:0:0:0:
477,243,56385,2,0,B|402:247|430:190|354:195,1,137.700000840454,2|0,0:0|0:0,0:0:0:0:
338,203,56718,5,2,3:2:0:0:
416,87,56884,1,4,0:3:0:0:
240,54,57052,2,0,B|250:122|250:122|247:125|247:125|256:188,1,137.700000840454,2|0,0:0|0:0,0:0:0:0:
238,39,57384,2,0,P|270:6|322:1,1,91.8000005603027,10|4,3:2|0:3,0:0:0:0:
180,150,57718,2,0,P|135:138|105:96,1,91.8000005603027,2|4,0:0|0:3,0:0:0:0:
321,152,58052,6,0,P|333:196|311:243,1,91.8000005603027,2|4,3:2|0:3,0:0:0:0:
187,320,58385,1,2,0:0:0:0:
256,191,58552,1,4,0:3:0:0:
273,366,58718,2,0,P|264:315|256:275,1,91.8000005603027,8|4,3:2|0:3,0:0:0:0:
384,209,59052,2,0,L|377:243,6,22.9500001400757,8|0|8|0|8|0|8,0:3|0:0|0:3|0:0|0:3|0:0|0:3,0:0:0:0:
378,243,59385,5,6,0:3:0:0:
288,114,59552,1,4,0:3:0:0:
453,66,59718,1,6,0:3:0:0:
302,216,59885,1,4,0:3:0:0:
360,23,60052,5,6,0:3:0:0:
458,184,60218,1,4,0:3:0:0:
288,114,60385,5,6,0:3:0:0:
209,288,60552,1,4,0:3:0:0:
393,129,60718,5,6,0:3:0:0:
192,45,60885,1,4,0:3:0:0:
409,137,61052,5,4,0:3:0:0:
177,39,61218,1,4,0:3:0:0:
458,31,61385,5,6,0:3:0:0:
216,160,61552,1,6,0:3:0:0:
474,23,61719,5,6,0:3:0:0:
201,166,61885,1,4,0:3:0:0:
455,210,62052,5,8,0:0:0:0:
438,203,62135,1,4,0:3:0:0:
417,187,62218,1,8,0:0:0:0:
400,155,62302,1,4,0:3:0:0:
390,110,62385,1,8,0:0:0:0:
384,60,62468,1,4,0:3:0:0:
349,16,62552,1,8,0:0:0:0:
289,20,62635,1,4,0:3:0:0:
248,70,62718,6,0,L|254:119,1,45.9000002801514,8|4,0:0|0:3,0:0:0:0:
328,175,62885,2,0,L|322:222,1,36.9000005630493,8|4,0:0|0:3,0:0:0:0:
248,256,63052,2,0,L|254:298,1,27.8999988931275,8|4,0:0|0:3,0:0:0:0:
324,314,63218,2,0,L|318:349,1,18.8999994232178,8|4,0:0|0:3,0:0:0:0:
264,384,63385,5,2,0:3:0:0:
245,225,64718,6,0,L|303:238,1,56.6999982696534,2|0,0:0|0:0,0:0:0:0:
376,277,65052,6,0,B|310:266|310:266|298:251|298:251|238:240,1,137.700000840454,2|0,0:0|0:0,0:0:0:0:
392,280,65385,2,0,B|432:336|513:344|550:257|509:228|471:232,1,218.700005339356,2|0,0:0|0:0,0:0:0:0:
415,129,65718,6,0,L|422:185,1,56.6999982696534,2|0,0:0|0:0,0:0:0:0:
414,113,66052,2,0,B|470:72|478:-9|391:-45|362:-5|366:33,1,218.700005339356,2|0,0:0|0:0,0:0:0:0:
349,31,66385,6,0,L|342:87,1,56.6999982696534,2|0,0:0|0:0,0:0:0:0:
344,192,66718,6,0,P|320:197|348:183,1,100.8,10|0,0:0|0:0,0:0:0:0:
344,192,67385,6,0,B|284:215|284:215|271:229|271:229|251:225|251:225|192:243,1,164.699993214569,4|0,3:2|0:0,0:0:0:0:
96,285,67718,2,0,L|121:275,6,27.4499988690949,2|0|0|0|0|0|0,0:0|0:0|0:0|0:0|0:0|0:0|0:0,0:0:0:0:
24,311,68052,2,0,B|15:257|15:257|17:253|17:253|11:210|11:210|29:172|75:172,1,172.80000421875,10|0,0:0|0:0,0:0:0:0:
222,195,68385,2,0,B|161:202|131:147|162:139|130:81|62:89,1,205.199997495117,2|0,3:2|0:0,0:0:0:0:
46,99,68718,6,0,L|36:164,1,50.4000006152344,2|0,0:0|0:0,0:0:0:0:
121,9,68885,2,0,L|131:74,1,50.4000006152344,2|0,0:0|0:0,0:0:0:0:
238,47,69052,2,0,L|225:128,1,70.1999995715332,2|0,3:2|0:0,0:0:0:0:
222,195,69385,2,0,B|281:205|323:151|287:132|328:98|369:100,1,172.80000421875,10|0,0:0|0:0,0:0:0:0:
359,214,69718,2,0,B|305:219|282:170|309:168|283:114|210:115,1,178.199999456177,2|0,0:0|0:0,0:0:0:0:
143,137,70052,6,0,B|139:171|139:171|136:175|136:175|129:215|129:215|123:220|123:220|118:261|118:261|114:264|114:264|110:296,1,164.699993214569,2|0,3:2|0:0,0:0:0:0:
160,355,70385,1,2,0:0:0:0:
172,335,70468,1,0,0:0:0:0:
199,310,70552,1,0,0:0:0:0:
256,290,70635,1,0,0:0:0:0:
331,292,70718,2,0,B|400:277|437:330|406:332|442:384|510:368,1,190.800000291138,10|0,0:0|0:0,0:0:0:0:
503,222,71052,2,0,B|449:192|396:244|429:266|381:308|329:291,1,205.199997495117,2|8,3:2|3:0,3:0:0:0:
317,281,71385,6,0,L|301:221,1,50.4000006152344,2|0,0:0|0:0,0:0:0:0:
418,96,71552,2,0,L|405:144,1,50.4000006152344,2|0,3:2|0:0,0:0:0:0:
242,78,71718,2,0,P|225:68|249:71,1,70.1999995715332,4|0,3:0|0:0,0:0:0:0:
242,78,72052,2,0,B|188:66|150:119|176:127|150:179|85:168,1,190.800000291138,10|0,0:0|0:0,0:0:0:0:
81,55,72385,2,0,B|141:42|172:107|143:110|170:174|238:167,1,205.199997495117,2|0,0:0|0:0,0:0:0:0:
351,78,72718,6,0,B|329:102|329:102|323:106|323:106|307:124|307:124|326:167|326:167|326:172|326:172|348:223,1,164.699993214569,2|0,3:2|0:0,0:0:0:0:
342,238,73052,2,0,B|327:206|327:206|327:201|327:201|309:165,1,70.1999995715332,2|0,0:0|0:0,0:0:0:0:
351,321,73385,2,0,B|411:316|433:268|408:264|437:224|488:221,1,172.80000421875,10|0,0:0|0:0,0:0:0:0:
280,288,73718,1,2,3:2:0:0:
280,288,73885,1,0,0:0:0:0:
335,48,74052,6,0,B|357:16|356:-7|356:-7|335:14|315:22,1,86.4000021093751,2|0,0:0|0:0,0:0:0:0:
169,139,74218,2,0,B|131:135|111:148|111:148|140:155|157:168,1,86.4000021093751,2|0,0:0|0:0,0:0:0:0:
342,238,74385,2,0,B|358:272|378:282|378:282|371:254|374:233,1,86.4000021093751,2|0,3:2|0:0,0:0:0:0:
320,42,74552,2,0,B|342:10|341:-13|341:-13|320:8|300:16,1,86.4000021093751,2|0,0:0|0:0,0:0:0:0:
223,229,74718,2,0,B|214:243|195:247|195:247|197:269|192:287|192:287|203:271|222:262|222:262|215:244|223:229,1,140.400004713135,10|0,0:0|0:0,0:0:0:0:
371,131,74885,2,0,B|397:134|397:134|422:120|422:120|394:117|394:117|371:131,1,108.899996925888,2|0,0:0|0:0,0:0:0:0:
228,53,75052,2,0,B|222:28|222:28|200:7|200:7|207:35|207:35|228:53,1,110.700001689148,2|0,0:0|0:0,0:0:0:0:
236,67,75385,6,0,B|264:124|264:124|280:133|280:133|277:153|277:153|300:213,1,164.699993214569,6|0,3:2|0:0,0:0:0:0:
334,281,75718,2,0,L|344:306,6,27.4499988690949,2|0|0|0|0|0|0,0:0|0:0|0:0|0:0|0:0|0:0|0:0,0:0:0:0:
381,370,76052,2,0,B|357:367|357:367|349:363|349:363|324:359|324:359|313:365|313:365|284:361|284:361|270:352|270:352|242:348|242:348|235:345|235:345|215:342,1,172.80000421875,10|0,0:0|0:0,0:0:0:0:
59,356,76385,2,0,B|119:364|146:313|122:307|151:252|220:257,1,205.199997495117,2|0,3:2|0:0,0:0:0:0:
238,267,76718,6,0,L|245:217,1,50.4000006152344,2|0,0:0|0:0,0:0:0:0:
332,221,76885,2,0,L|324:171,1,50.4000006152344,2|0,3:2|0:0,0:0:0:0:
437,278,77052,2,0,L|450:199,1,70.1999995715332,4|0,3:0|0:0,0:0:0:0:
462,194,77385,2,0,B|411:191|383:141|415:136|385:78|315:86,1,190.800000291138,10|0,0:0|0:0,0:0:0:0:
463,83,77718,2,0,B|411:75|384:136|407:124|391:174|323:171,1,178.199999456177,2|0,0:0|0:0,0:0:0:0:
256,62,78052,6,0,B|260:96|260:96|263:100|263:100|270:140|270:140|276:145|276:145|281:186|281:186|285:189|285:189|289:221,1,164.699993214569,2|0,3:2|0:0,0:0:0:0:
296,322,78385,1,2,0:0:0:0:
279,293,78468,1,0,0:0:0:0:
236,272,78552,1,0,0:0:0:0:
182,301,78635,1,0,0:0:0:0:
165,374,78718,2,0,B|333:329,1,172.80000421875,10|0,0:0|0:0,0:0:0:0:
487,361,79052,2,0,B|436:373|395:309|432:305|402:240|330:249,1,205.199997495117,2|0,3:2|0:0,0:0:0:0:
321,237,79385,6,0,L|381:221,1,50.4000006152344,2|0,0:0|0:0,0:0:0:0:
500,149,79552,2,0,L|452:136,1,50.4000006152344,2|0,0:0|0:0,0:0:0:0:
300,46,79718,2,0,P|290:29|293:53,1,70.1999995715332,2|0,3:2|0:0,0:0:0:0:
300,46,80052,2,0,B|364:38|393:87|364:93|396:142|456:136,1,190.800000291138,8|0,0:0|0:0,0:0:0:0:
462,29,80385,2,0,B|398:22|377:76|404:84|370:146|294:134,1,205.199997495117,2|0,0:0|0:0,0:0:0:0:
184,4,80718,6,0,B|204:64|204:64|218:78|218:78|213:98|213:98|231:162,1,164.699993214569,2|0,3:2|0:0,0:0:0:0:
265,253,81052,2,0,L|257:226,6,27.4499988690949,2|0|0|0|2|0|0,0:0|0:0|0:0|0:0|0:0|0:0|0:0,0:0:0:0:
295,320,81385,2,0,B|271:327|266:360|280:378|308:405|337:398|404:377|374:298|355:267|355:267|333:228|339:163|400:148|456:151|493:230|434:279,1,516.600007882691,10|0,0:0|0:0,0:0:0:0:
499,57,82718,2,0,B|428:75|428:75|421:73|421:73|360:88|360:88|357:95|357:95|303:110|303:110|287:102,1,217.799993851776,8|0,0:0|0:0,0:0:0:0:
113,29,83052,2,0,B|95:8|95:8|67:1|67:1|86:23|86:23|113:29,1,108.899996925888,2|0,0:0|0:0,3:0:0:0:
153,133,83218,2,0,B|148:158|148:158|160:184|160:184|165:155|165:155|153:133,1,108.899996925888,0|0,0:0|0:0,3:0:0:0:
224,32,83385,5,4,3:2:0:0:
215,55,83552,1,0,0:0:0:0:
298,187,83718,5,2,0:0:0:0:
283,113,83885,1,0,0:0:0:0:
400,147,84052,5,2,0:0:0:0:
359,297,84219,1,0,0:0:0:0:
434,35,84385,5,2,0:0:0:0:
494,268,84552,1,0,0:0:0:0:
364,73,84718,6,0,P|347:41|304:16,1,54.8999977381898,2|0,0:0|0:0,0:0:0:0:
293,100,84885,2,0,P|259:89|218:100,1,45.9000002801514,2|0,0:0|0:0,0:0:0:0:
258,166,85052,2,0,P|226:182|212:203,1,36.9000005630493,2|0,0:0|0:0,0:0:0:0:
278,237,85218,2,0,P|268:270|273:287,1,27.8999988931275,2|0,0:0|0:0,0:0:0:0:
351,274,85385,2,0,P|380:299|368:262,1,100.8,10|0,0:0|0:0,0:0:0:0:
351,274,86052,6,0,B|291:251|291:251|278:237|278:237|259:242|259:242|199:223,1,164.699993214569,4|0,3:2|0:0,0:0:0:0:
130,191,86385,2,0,L|104:181,6,27.4499988690949,2|0|0|0|0|0|0,0:0|0:0|0:0|0:0|0:0|0:0|0:0,0:0:0:0:
28,146,86719,2,0,B|19:200|19:200|21:204|21:204|15:248|12:271|12:271|22:243|53:230,1,172.80000421875,10|0,0:0|0:0,0:0:0:0:
138,95,87052,2,0,B|208:86|240:145|199:149|242:213|290:204,1,205.199997495117,2|0,3:2|0:0,0:0:0:0:
308,192,87385,6,0,L|300:241,1,50.4000006152344,2|0,0:0|0:0,0:0:0:0:
416,128,87552,2,0,L|423:177,1,50.4000006152344,0|0,3:2|0:0,0:0:0:0:
508,273,87719,2,0,B|495:310|506:309|496:342,1,70.1999995715332,4|0,3:3|0:0,0:0:0:0:
424,373,88052,2,0,P|339:353|255:334,1,172.80000421875,10|0,0:0|0:0,0:0:0:0:
185,371,88385,2,0,P|269:351|364:328,1,178.199999456177,2|0,0:0|0:0,0:0:0:0:
430,279,88718,6,0,P|372:243|404:124,1,205.199997495117,2|0,3:2|0:0,0:0:0:0:
506,79,89052,2,0,L|496:116,6,34.1999995825195,2|0|0|0|0|0|0,0:0|0:0|0:0|0:0|0:0|0:0|0:0,0:0:0:0:
495,2,89385,2,0,B|444:-4|418:45|442:54|416:101|355:90,1,172.80000421875,10|0,0:0|0:0,0:0:0:0:
95,18,89718,6,0,P|104:52|107:71,1,50.4000006152344,2|0,3:2|0:0,0:0:0:0:
197,214,89885,2,0,P|201:189|211:156,1,59.3999998187256
249,16,90052,2,0,P|240:50|233:86,1,68.3999991650391,2|0,0:0|0:0,0:0:0:0:
97,278,90218,2,0,P|90:242|80:201,1,72.9000017797852
9,83,90385,6,0,B|17:108|16:130|16:130|33:113|62:110,1,86.4000021093751,2|0,3:2|0:0,0:0:0:0:
313,236,90552,2,0,B|290:230|278:210|278:210|279:233|268:251,1,86.4000021093751,2|0,0:0|0:0,0:0:0:0:
29,379,90718,2,0,B|47:361|74:357|74:357|48:347|29:323,1,100.8,10|0,0:0|0:0,0:0:0:0:
33,328,91385,6,0,B|94:309|94:309|112:314|112:314|125:300|125:300|185:280,1,164.699993214569,2|0,3:2|0:0,0:0:0:0:
282,238,91718,2,0,L|256:247,6,27.4499988690949,2|0|0|0|0|0|0,0:0|0:0|0:0|0:0|0:0|0:0|0:0,0:0:0:0:
353,214,92052,2,0,B|397:210|416:250|416:250|408:294|408:294|410:294|410:294|399:347,1,172.80000421875,10|0,0:0|0:0,0:0:0:0:
512,150,92385,2,0,B|475:143|447:140|447:140|429:126|429:126|406:132|406:132|402:126|402:126|359:124|359:124|349:117|349:117|309:114,1,205.199997495117,2|0,3:2|0:0,0:0:0:0:
297,105,92718,6,0,L|307:154,1,50.4000006152344,2|0,0:0|0:0,0:0:0:0:
407,300,92885,2,0,L|415:251,1,50.4000006152344,0|0,3:2|0:0,0:0:0:0:
273,365,93052,2,0,L|192:352,1,70.1999995715332,4|0,3:3|0:0,0:0:0:0:
127,346,93385,2,0,B|182:363|218:314|187:303|222:258|278:269,1,172.80000421875,10|2,0:0|0:0,0:0:0:0:
68,139,93718,2,0,B|94:191|94:191|93:192|93:192|124:255|124:255|117:213|148:175,1,205.199997495117,2|0,0:0|0:0,0:0:0:0:
192,32,94052,6,0,L|200:58,6,27.4499988690949,2|0|0|0|0|0|0,3:2|0:0|0:0|0:0|0:0|0:0|0:0,0:0:0:0:
263,138,94385,2,0,L|271:106,1,32.4000007910156,2|0,0:0|0:0,0:0:0:0:
376,21,94552,2,0,L|391:67,1,45.9000002801514
449,218,94718,2,0,B|395:204|395:204|391:205|391:205|348:196|325:191|325:191|348:204|354:225,1,172.80000421875,8|0,0:0|0:0,0:0:0:0:
496,128,95052,6,0,L|500:156,6,27.4499988690949,2|0|0|0|0|0|0,3:2|0:0|0:0|0:0|0:0|0:0|0:0,0:0:0:0:
449,218,95385,2,0,B|458:263|458:263|455:264|455:264|461:309,1,86.4000021093751,2|0,0:0|0:0,0:0:0:0:
379,296,95552,2,0,B|387:337|387:337|385:339|385:339|392:379,1,77.4000011810303,2|0,0:0|0:0,0:0:0:0:
281,222,95718,2,0,L|294:154,1,68.3999991650391,2|0,3:2|0:0,0:0:0:0:
212,150,95885,2,0,L|222:96,1,54.8999977381898,2|0,0:0|0:0,0:0:0:0:
89,351,96052,6,0,B|56:385|18:378|18:378|33:362|43:337,1,99.9000024389649,10|0,0:0|0:0,0:0:0:0:
160,256,96218,2,0,B|189:259|201:291|201:291|181:280|171:279,1,72.9000017797852,2|0,0:0|0:0,0:0:0:0:
43,251,96385,2,0,B|30:205|52:180|52:180|57:200|74:216,1,97.2000023730469,2|0,0:0|0:0,0:0:0:0:
60,200,96718,6,0,B|120:177|120:177|133:163|133:163|153:167|153:167|212:149,1,164.699993214569,4|0,3:2|0:0,0:0:0:0:
285,121,97051,2,0,L|311:111,6,27.4499988690949,2|0|0|0|0|0|0,0:0|0:0|0:0|0:0|0:0|0:0|0:0,0:0:0:0:
382,80,97385,2,0,B|441:74|464:127|438:132|463:182|526:171,1,172.80000421875,10|0,0:0|0:0,0:0:0:0:
279,10,97718,2,0,B|213:-2|182:57|211:68|189:118|127:119,1,205.199997495117,2|0,3:2|0:0,0:0:0:0:
113,132,98051,6,0,L|105:83,1,50.4000006152344,2|0,0:0|0:0,0:0:0:0:
249,238,98218,2,0,L|257:189,1,50.4000006152344,0|0,3:2|0:0,0:0:0:0:
64,351,98385,2,0,L|52:282,1,70.1999995715332,4|0,3:0|0:0,0:0:0:0:
105,226,98718,2,0,B|158:223|185:270|160:273|183:330|251:326,1,172.80000421875,8|0,0:0|0:0,0:0:0:0:
298,97,99052,2,0,B|240:113|240:113|228:112|228:112|169:130,1,124.199995830689,2|0,0:0|0:0,0:0:0:0:
69,66,99385,6,0,P|134:122|103:227,1,205.199997495117,2|0,3:2|0:0,0:0:0:0:
31,330,99718,2,0,L|4:336,6,27.4499988690949,2|0|0|0|0|0|0,0:0|0:0|0:0|0:0|0:0|0:0|0:0,0:0:0:0:
105,362,100051,2,0,B|160:370|185:320|157:313|187:269|235:270,1,172.80000421875,10|0,0:0|0:0,0:0:0:0:
423,311,100385,6,0,P|457:302|476:299,1,50.4000006152344,2|0,3:2|0:0,0:0:0:0:
327,211,100552,2,0,P|298:202|269:197,1,59.3999998187256
472,116,100719,2,0,P|463:149|456:182,1,68.3999991650391,2|0,0:0|0:0,0:0:0:0:
343,367,100885,2,0,P|336:331|327:295,1,72.9000017797852
392,75,101052,6,0,B|382:97|391:116|391:116|374:100|349:97,1,86.4000021093751,2|0,3:2|0:0,0:0:0:0:
191,288,101218,2,0,B|206:273|233:269|233:269|207:259|190:235,1,86.4000021093751,2|0,0:0|0:0,0:0:0:0:
512,332,101385,2,0,B|485:329|472:300|472:300|479:330|459:355,1,100.8,10|0,0:0|0:0,0:0:0:0:
465,345,102052,5,4,3:2:0:0:
256,192,102135,12,0,105385,0:0:0:0:
