osu file format v14

[General]
AudioFilename: audio.mp3
AudioLeadIn: 0
PreviewTime: 42088
Countdown: 0
SampleSet: None
StackLeniency: 0.7
Mode: 0
LetterboxInBreaks: 0
WidescreenStoryboard: 0

[Editor]
Bookmarks: 88,421,1421,2421,9421,9865,10421,20088,21421
DistanceSpacing: 1.8
BeatDivisor: 12
GridSize: 4
TimelineZoom: 2.4

[Metadata]
Title:Back and Forth
TitleUnicode:Back and Forth
Artist:Haywyre
ArtistUnicode:Haywyre
Creator:Steffen
Version:Return
Source:
Tags:110 bpm glitch hop monstercat electronic
BeatmapID:1139227
BeatmapSetID:537647

[Difficulty]
HPDrainRate:6
CircleSize:4
OverallDifficulty:6
ApproachRate:9
SliderMultiplier:1.8
SliderTickRate:1

[Events]
//Background and Video events
0,0,"Some grill.jpg",0,0
//Break Periods
//Storyboard Layer 0 (Background)
//Storyboard Layer 1 (Fail)
//Storyboard Layer 2 (Pass)
//Storyboard Layer 3 (Foreground)
//Storyboard Sound Samples

[TimingPoints]
88,666.666666666667,4,2,0,100,1,0
88,-100,4,1,0,100,0,0
5421,-100,4,2,0,100,0,0
10754,-100,4,1,0,100,0,0
20088,-50,4,2,0,100,0,0
21421,-100,4,1,0,100,0,0
25421,-100,4,2,1,100,0,0
26421,-100,4,1,0,100,0,0
29088,-100,4,2,1,100,0,0
29310,-100,4,1,0,100,0,0
36088,-100,4,2,1,100,0,0
37088,-100,4,1,0,100,0,0
38865,-100,4,2,1,100,0,0
39310,-100,4,2,0,100,0,0
39532,-100,4,2,1,100,0,0
39754,-100,4,2,0,100,0,0
40088,-100,4,3,0,20,0,0
40199,-100,4,3,0,27,0,0
40310,-100,4,3,0,34,0,0
40421,-100,4,3,0,41,0,0
40532,-100,4,3,0,48,0,0
40643,-100,4,3,0,55,0,0
40754,-100,4,3,0,62,0,0
40865,-100,4,3,0,69,0,0
40976,-100,4,3,0,75,0,0
41088,-100,4,3,0,82,0,0
41199,-100,4,3,0,89,0,0
41310,-100,4,3,0,95,0,0
41421,-100,4,3,0,20,0,0
41476,-100,4,3,0,25,0,0
41532,-100,4,3,0,30,0,0
41588,-100,4,3,0,35,0,0
41643,-100,4,3,0,40,0,0
41699,-100,4,3,0,45,0,0
41754,-100,4,3,0,50,0,0
41810,-100,4,3,0,55,0,0
41865,-100,4,3,0,60,0,0
41921,-100,4,3,0,65,0,0
41976,-100,4,3,0,70,0,0
42032,-100,4,3,0,75,0,0
42088,-100,4,3,0,80,0,0
43976,-50,4,2,0,80,0,0
44754,-100,4,2,0,80,0,0
45421,-50,4,1,0,80,0,1
47421,-100,4,1,0,80,0,1
49421,-66.6666666666667,4,1,0,80,0,1
49865,-100,4,1,0,80,0,1
52088,-50,4,1,0,80,0,1
52643,-100,4,1,0,80,0,1
53421,-66.6666666666667,4,1,0,80,0,1
54754,-50,4,1,0,80,0,1
55976,-100,4,1,0,80,0,1
56754,-66.6666666666667,4,1,0,80,0,1
57254,-58.8235294117647,4,1,0,80,0,1
57754,-50,4,1,0,80,0,1
58754,-100,4,1,0,80,0,1
60088,-50,4,1,0,80,0,1
60643,-100,4,3,0,80,0,1
61421,-100,4,1,0,80,0,0
63421,-66.6666666666667,4,1,0,80,0,0
64088,-100,4,1,0,80,0,0
67754,-66.6666666666667,4,1,0,80,0,0
68754,-66.6666666666667,4,1,0,80,0,0
69421,-100,4,1,0,80,0,0
72089,-100,4,3,0,27,0,0
72422,-100,4,3,0,35,0,0
72755,-100,4,3,0,53,0,0
73088,-100,4,3,0,63,0,0
73421,-100,4,3,0,70,0,0
73754,-100,4,3,0,77,0,0
74088,-100,4,3,0,82,0,0
74421,-100,4,3,0,86,0,0
74754,-100,4,3,0,90,0,0
78421,-66.6666666666667,4,3,0,90,0,0
78865,-50,4,3,0,90,0,0
79976,-100,4,3,0,90,0,0
86754,-66.6666666666667,4,3,0,90,0,0
87421,-100,4,3,0,90,0,0
89421,-66.6666666666667,4,3,0,90,0,0
90643,-100,4,3,0,90,0,0
91754,-66.6666666666667,4,3,0,90,0,0
97421,-66.6666666666667,4,3,0,90,0,0

[HitObjects]
160,96,88,5,0,0:0:0:0:
392,184,254,1,0,0:0:0:0:
160,228,421,1,0,0:0:0:0:
120,304,643,6,0,P|140:324|164:332,1,45,8|0,0:0|0:0,0:0:0:0:
316,344,1088,1,8,0:0:0:0:
316,264,1421,1,0,0:0:0:0:
180,168,1588,1,0,0:0:0:0:
248,296,1754,1,0,0:0:0:0:
248,132,1921,1,0,0:0:0:0:
180,272,2088,1,0,0:0:0:0:
372,212,2421,1,0,0:0:0:0:
372,212,2754,5,0,0:0:0:0:
176,140,2921,1,0,0:0:0:0:
312,264,3088,1,0,0:0:0:0:
328,96,3310,2,0,P|320:80|292:72,1,30,8|0,0:0|0:0,0:0:0:0:
176,140,3754,1,8,0:0:0:0:
296,252,4088,1,0,0:0:0:0:
164,212,4254,1,0,0:0:0:0:
80,340,4421,5,0,0:0:0:0:
52,296,4532,1,0,0:0:0:0:
36,244,4643,1,0,0:0:0:0:
28,192,4754,1,0,0:0:0:0:
48,140,4865,1,0,0:0:0:0:
76,92,4976,1,0,0:0:0:0:
116,56,5088,2,0,L|93:36,2,30
164,212,5421,5,0,0:0:0:0:
404,332,5976,1,0,0:0:0:0:
412,280,6088,1,0,0:0:0:0:
432,120,6421,1,8,0:0:0:0:
272,136,6754,1,0,0:0:0:0:
164,140,6921,1,0,0:0:0:0:
112,36,7088,2,0,P|168:20|220:40,1,90,0|8,0:0|0:0,0:0:0:0:
100,272,8088,5,0,0:0:0:0:
220,340,8310,1,0,0:0:0:0:
288,344,8421,1,0,0:0:0:0:
400,280,8643,2,0,B|416:264|416:264|424:240,1,30,8|0,0:0|0:0,0:0:0:0:
452,100,9088,1,8,0:0:0:0:
336,208,9421,1,0,0:0:0:0:
144,304,9588,1,0,0:0:0:0:
256,112,9754,1,0,0:0:0:0:
256,304,9921,1,0,0:0:0:0:
144,112,10088,1,0,0:0:0:0:
284,16,10421,1,0,0:0:0:0:
428,88,10754,5,0,0:0:0:0:
460,192,10976,2,0,L|452:232,1,30
396,312,11310,1,8,0:0:0:0:
344,332,11421,1,8,0:0:0:0:
384,136,11754,1,0,0:0:0:0:
188,228,12088,2,0,P|176:196|184:168,1,60
216,124,12421,1,0,0:0:0:0:
468,328,12754,1,8,0:0:0:0:
468,328,13421,5,0,0:0:0:0:
480,220,13643,1,0,0:0:0:0:
460,172,13754,1,0,0:0:0:0:
420,72,13976,2,0,L|376:48,1,30
308,188,14421,1,0,0:0:0:0:
172,248,14754,1,0,0:0:0:0:
24,96,14921,1,0,0:0:0:0:
24,248,15088,1,0,0:0:0:0:
168,376,15421,1,8,0:0:0:0:
444,348,16088,5,0,0:0:0:0:
492,252,16310,2,0,P|492:232|472:204,1,30
476,116,16643,1,0,0:0:0:0:
448,72,16754,1,0,0:0:0:0:
308,156,17088,1,0,0:0:0:0:
148,184,17421,2,0,L|80:216,1,60
24,192,17754,2,0,P|24:240|60:280,1,90,0|8,0:0|0:0,0:0:0:0:
300,376,18754,5,0,0:0:0:0:
392,320,18976,1,0,0:0:0:0:
432,284,19088,1,0,0:0:0:0:
124,112,19421,1,0,0:0:0:0:
40,256,20088,6,0,P|82:247|97:207,2,90
92,140,20754,6,0,P|40:160|40:204,2,90
176,280,21421,1,0,0:0:0:0:
276,152,21754,1,0,0:0:0:0:
352,76,21976,2,0,L|316:108,1,30
212,208,22421,1,0,0:0:0:0:
192,48,22754,1,0,0:0:0:0:
60,140,23088,1,0,0:0:0:0:
44,248,23310,1,0,0:0:0:0:
72,296,23421,1,0,0:0:0:0:
264,178,23754,2,0,L|208:210,1,60
88,240,24088,5,0,0:0:0:0:
20,156,24310,1,0,0:0:0:0:
68,132,24421,1,0,0:0:0:0:
144,276,24754,1,0,0:0:0:0:
316,116,25088,1,0,0:0:0:0:
408,20,25421,2,0,B|484:72,1,90,8|0,0:0|0:0,0:0:0:0:
480,316,26088,2,0,P|404:372|404:372,1,90,2|8,0:0|0:0,0:0:0:0:
456,256,26754,5,0,0:0:0:0:
352,220,26976,1,0,0:0:0:0:
388,180,27088,1,0,0:0:0:0:
208,192,27310,6,0,L|260:212,1,30
84,148,27754,1,0,0:0:0:0:
72,308,28088,2,0,B|144:336|140:336|132:336,1,60
184,352,28421,1,0,0:0:0:0:
176,180,28754,1,0,0:0:0:0:
60,68,29088,2,0,L|56:112,1,30,4|0,0:0|0:0,0:0:0:0:
56,204,29421,5,0,0:0:0:0:
92,304,29643,1,0,0:0:0:0:
104,356,29754,1,0,0:0:0:0:
244,276,30088,1,0,0:0:0:0:
384,356,30421,2,0,L|428:292,1,60
448,260,30754,1,0,0:0:0:0:
464,152,30976,1,0,0:0:0:0:
412,148,31087,1,0,0:0:0:0:
420,312,31421,2,0,B|392:348|332:364,1,90
308,204,32088,5,0,0:0:0:0:
372,116,32310,2,0,L|328:88,1,30
208,12,32754,1,0,0:0:0:0:
56,72,33088,1,0,0:0:0:0:
104,168,33310,1,0,0:0:0:0:
116,220,33421,1,0,0:0:0:0:
236,44,33643,1,0,0:0:0:0:
280,76,33754,1,0,0:0:0:0:
172,108,34087,2,0,L|248:184,1,90
360,276,34754,5,0,0:0:0:0:
256,300,34976,1,0,0:0:0:0:
256,248,35087,1,0,0:0:0:0:
404,276,35310,1,0,0:0:0:0:
420,276,35421,2,0,B|304:276,1,90
400,128,36088,2,0,B|328:52,1,90,8|0,0:0|0:0,0:0:0:0:
176,60,36754,6,0,L|92:132,1,90,2|0,0:0|0:0,0:0:0:0:
256,184,37421,2,0,L|256:248,1,60
256,296,37754,1,0,0:0:0:0:
392,212,37976,1,0,0:0:0:0:
392,212,38088,1,0,0:0:0:0:
256,120,38421,1,0,0:0:0:0:
112,44,38754,2,0,L|80:72,5,30,0|0|0|8|0|8,0:0|0:0|0:0|0:0|0:0|0:0,0:0:0:0:
24,136,39421,2,0,L|48:172,3,30,0|0|0|2,0:0|0:0|0:0|0:0,0:0:0:0:
104,280,40088,5,2,0:0:0:0:
132,316,40199,1,0,0:0:0:0:
172,336,40310,1,0,0:0:0:0:
216,348,40421,5,2,0:0:0:0:
260,348,40532,1,0,0:0:0:0:
304,336,40643,1,0,0:0:0:0:
344,316,40754,5,2,0:0:0:0:
376,284,40865,1,0,0:0:0:0:
404,248,40976,1,0,0:0:0:0:
424,208,41088,5,2,0:0:0:0:
432,164,41199,1,0,0:0:0:0:
432,120,41310,1,0,0:0:0:0:
420,76,41421,6,0,L|408:56,5,15,2|0|0|0|0|2,0:0|0:0|0:0|0:0|0:0|0:0,0:0:0:0:
396,48,41754,2,0,L|376:32,5,15,0|0|0|0|0|2,0:0|0:0|0:0|0:0|0:0|0:0,0:0:0:0:
20,184,42421,1,0,0:0:0:0:
124,344,42643,1,0,0:0:0:0:
164,308,42754,2,0,P|216:312|160:184,1,270
152,172,43865,1,0,0:0:0:0:
128,168,43976,2,0,B|92:156|92:156|84:128|84:128|64:120|64:120|64:100|64:100|40:84|40:84|56:68|56:68|48:44|48:44|68:44|68:44|76:24|76:24|92:36|92:36|108:16|108:16|128:32|128:32|144:12|144:12|168:32|168:32|184:12|184:12|200:32|200:32|224:16,1,420,0|10,0:0|0:0,0:0:0:0:
312,100,45088,1,0,0:0:0:0:
368,192,45310,1,0,0:0:0:0:
432,200,45421,6,0,P|360:272|348:236,1,180
280,120,46088,2,0,P|284:108|168:104,1,180
80,100,46754,1,0,0:0:0:0:
56,148,46976,2,0,B|52:188|52:188|-12:212|44:264|44:264|44:308,1,180
116,356,47421,6,0,B|176:308|176:308|232:320|232:320,1,135
408,360,48088,1,0,0:0:0:0:
424,180,48421,1,0,0:0:0:0:
288,64,48754,1,0,0:0:0:0:
232,236,49088,1,0,0:0:0:0:
384,352,49421,2,0,B|348:360|348:360|304:332|304:332|268:368|268:368|236:340|236:340|204:336,1,180.000006866455
144,268,50088,1,0,0:0:0:0:
304,188,50421,1,0,0:0:0:0:
184,56,50754,6,0,P|216:48|248:56,1,60
412,160,51310,1,0,0:0:0:0:
448,208,51421,1,0,0:0:0:0:
272,232,51754,1,0,0:0:0:0:
92,252,52088,2,0,B|36:204|36:204|64:156|64:156,1,120
68,152,52421,2,0,B|144:155|144:155|176:115,1,120
172,112,52754,2,0,P|245:61|249:69,1,150
284,80,53421,6,0,P|300:72|284:264,1,450.000017166138
272,264,54643,1,0,0:0:0:0:
260,256,54754,2,0,B|216:256|216:256|188:240|188:240|152:236|152:236|132:208|132:208|104:200|104:200|76:168|76:168|72:124,1,240
68,112,55421,2,0,P|68:104|256:116,1,300
264,164,56088,1,0,0:0:0:0:
420,200,56421,1,0,0:0:0:0:
392,248,56532,1,0,0:0:0:0:
291,351,56754,6,0,L|111:323,1,180.000006866455
114,324,57254,2,0,P|56:264|112:264,1,191.250003647804
120,252,57754,2,0,P|132:252|100:148,1,202.5
72,144,58310,2,0,P|52:144|112:80,1,240
204,120,58976,5,0,0:0:0:0:
340,32,59310,6,0,L|368:56,1,30
452,112,59643,1,0,0:0:0:0:
352,308,60088,2,0,B|344:320|344:320|328:340|328:340|304:324|304:324|288:340|288:340|260:324|260:324|240:336|240:336|212:324|212:324|188:336|188:336|168:328|168:328|148:340|148:340|124:332|124:332|108:348|108:348|84:328,1,300
64,320,60754,1,0,0:0:0:0:
40,264,60865,1,0,0:0:0:0:
28,204,60976,1,0,0:0:0:0:
20,144,61088,1,0,0:0:0:0:
28,84,61199,1,0,0:0:0:0:
64,36,61310,1,0,0:0:0:0:
112,12,61421,6,0,B|144:20|144:20|140:40|140:40|152:52|152:52|144:68|144:68|168:72|168:72|160:92|160:92|180:100|180:100|180:124|180:124|200:128|200:128|204:152|204:152|232:160|232:160|244:188|244:188|264:204|264:204|300:208,1,330
336,216,62754,2,0,B|360:232|360:232|340:256|340:256|368:272|368:272|352:300|352:300|368:320|368:320,1,150
368,348,63421,2,0,P|296:388|220:332,1,180.000006866455
308,236,64088,5,0,0:0:0:0:
244,192,64310,1,0,0:0:0:0:
208,28,64643,2,0,L|160:36,1,30
72,104,65088,5,0,0:0:0:0:
272,336,65421,1,0,0:0:0:0:
404,68,65976,2,0,L|380:88,1,30
40,204,66754,5,0,0:0:0:0:
72,276,66976,1,0,0:0:0:0:
212,144,67310,2,0,L|240:128,1,30
384,32,67754,2,0,P|408:72|380:112,1,90.0000034332277
264,48,68088,2,0,B|211:62|216:120,1,90.0000034332277
436,176,68421,2,0,B|432:212|416:244|372:236,1,90.0000034332277
292,252,68754,2,0,P|288:260|88:260,1,247.500009441376
80,248,69421,2,0,B|56:212|56:212|60:188|60:188|52:168|52:168|64:148|64:148|52:124|52:124|60:100|60:100|48:80|48:80,1,180,0|10,0:0|0:0,0:0:0:0:
132,28,70310,1,0,0:0:0:0:
172,48,70421,1,0,0:0:0:0:
304,76,70754,2,0,B|348:28|412:32|432:92,1,150
448,124,71421,1,0,0:0:0:0:
89,331,72088,5,2,0:0:0:0:
127,368,72199,1,8,0:0:0:0:
180,376,72310,1,8,0:0:0:0:
232,377,72421,5,2,0:0:0:0:
284,373,72532,1,0,0:0:0:0:
330,346,72643,1,8,0:0:0:0:
372,311,72754,5,2,0:0:0:0:
401,265,72865,1,0,0:0:0:0:
425,215,72976,1,8,0:0:0:0:
438,162,73088,5,2,0:0:0:0:
434,110,73199,1,0,0:0:0:0:
422,59,73310,1,8,0:0:0:0:
396,28,73421,5,2,0:0:0:0:
367,10,73532,1,0,0:0:0:0:
326,5,73643,1,8,0:0:0:0:
296,4,73754,5,2,0:0:0:0:
272,4,73865,1,0,0:0:0:0:
252,12,73976,1,8,0:0:0:0:
232,20,74088,5,2,0:0:0:0:
220,28,74199,1,0,0:0:0:0:
212,36,74310,1,8,0:0:0:0:
208,48,74421,5,2,0:0:0:0:
208,56,74532,1,0,0:0:0:0:
208,68,74643,1,8,0:0:0:0:
184,96,74754,6,0,P|160:84|8:104,1,180,6|0,0:0|0:0,0:0:0:0:
100,204,75754,1,0,0:0:0:0:
16,308,76088,1,0,0:0:0:0:
240,336,76643,2,0,L|292:360,1,30
464,188,77421,5,0,0:0:0:0:
168,208,77643,1,0,0:0:0:0:
248,112,77976,2,0,L|300:100,1,30
444,16,78421,2,0,P|408:132|400:132,1,135.000005149842
376,128,78865,2,0,B|316:124|316:124|316:196|316:196,1,120
352,236,79199,2,0,P|320:292|256:252,1,120
220,192,79532,2,0,P|176:236|193:231,1,240
264,316,80088,5,0,0:0:0:0:
252,112,80643,1,0,0:0:0:0:
420,132,81088,1,0,0:0:0:0:
304,244,81421,1,0,0:0:0:0:
96,272,81976,2,0,B|112:304,1,30
364,332,82754,5,0,0:0:0:0:
408,240,82921,1,0,0:0:0:0:
364,332,83088,1,0,0:0:0:0:
408,240,83254,1,0,0:0:0:0:
412,236,83421,1,0,0:0:0:0:
424,208,83504,1,0,0:0:0:0:
436,180,83588,1,0,0:0:0:0:
440,148,83671,1,0,0:0:0:0:
440,116,83754,1,0,0:0:0:0:
440,84,83838,2,0,L|428:52,5,22.5
372,40,84421,6,0,L|292:68,1,67.5
260,84,84754,2,0,L|180:52,1,60
160,40,85088,2,0,P|112:44|88:60,1,60
72,108,85421,2,0,P|36:120|36:248,1,180
180,188,86421,2,0,L|212:204,1,30
116,248,86754,2,0,P|232:344|276:300,1,225.000008583069
324,76,87754,5,0,0:0:0:0:
352,200,87976,1,0,0:0:0:0:
308,244,88088,1,0,0:0:0:0:
200,88,88421,1,0,0:0:0:0:
88,144,88643,2,0,L|120:184,1,30
276,308,89421,6,0,B|324:344|324:344|388:332,1,90.0000034332277
412,320,89754,2,0,B|448:292|448:292|428:232,1,90.0000034332277
424,188,90088,2,0,P|436:188|416:56,1,225.000008583069
368,100,90754,1,0,0:0:0:0:
276,184,90976,1,0,0:0:0:0:
260,204,91088,1,0,0:0:0:0:
184,104,91310,2,0,L|152:128,1,30
32,220,91754,2,0,P|28:284|84:328,1,135.000005149842
124,344,92129,2,0,L|140:348,5,16.8750006437302
304,364,92754,5,0,0:0:0:0:
388,296,92976,1,0,0:0:0:0:
228,192,93310,1,0,0:0:0:0:
228,192,93421,1,0,0:0:0:0:
384,84,93754,1,0,0:0:0:0:
300,40,93976,2,0,L|216:44,1,45.0000017166138
144,80,94310,1,0,0:0:0:0:
128,96,94421,1,0,0:0:0:0:
28,316,94754,2,0,L|40:328,3,16.8750006437302
340,304,95088,2,0,L|356:292,3,16.8750006437302
404,104,95421,2,0,L|384:100,6,16.8750006437302
40,12,96088,6,0,P|92:128|160:88,1,225.000008583069
168,72,96754,2,0,P|284:28|360:92,1,225.000008583069
404,124,97421,2,0,B|400:164|400:164|384:180|384:180|384:218|384:218|368:248|368:248|372:285|372:285|349:305|349:305|328:324,1,225.000008583069
256,348,98088,2,0,L|232:356,10,16.8750006437302
180,352,98643,6,0,P|109:330|84:292,1,90.0000034332277
68,288,98977,2,0,P|40:252|40:188,1,90.0000034332277
32,112,99421,1,0,0:0:0:0:
40,84,99532,1,0,0:0:0:0:
64,56,99643,1,0,0:0:0:0:
96,36,99754,1,0,0:0:0:0:
136,24,99865,1,0,0:0:0:0:
176,20,99976,1,0,0:0:0:0:
240,24,100088,2,0,L|264:36,11,22.5000008583069
280,56,100754,2,0,B|316:80|316:80|292:124|292:124|324:156|324:156|308:192|308:192|328:220|328:220|356:256,1,225.000008583069
348,272,101421,6,0,B|308:340|252:328|252:328|220:344|220:344|188:328|188:328|156:340|136:332,1,225.000008583069
124,332,102088,1,0,0:0:0:0:
44,232,102310,1,0,0:0:0:0:
44,232,102421,1,0,0:0:0:0:
84,112,102643,1,0,0:0:0:0:
84,112,102754,2,0,P|116:72|168:56,1,90.0000034332277
212,36,103088,6,0,B|272:12|324:36,1,90.0000034332277
360,48,103421,2,0,B|408:84|424:140,1,90.0000034332277
444,172,103754,2,0,P|444:240|416:280,1,90.0000034332277
404,312,104088,1,0,0:0:0:0:
184,324,104310,1,0,0:0:0:0:
184,324,104421,1,0,0:0:0:0:
68,152,104643,1,0,0:0:0:0:
68,152,104754,1,0,0:0:0:0:
344,24,104976,1,0,0:0:0:0:
496,48,105199,2,0,B|472:92|472:92|440:100|440:100|424:136|424:136|388:152|388:152|372:180|372:180|344:188|344:188|328:208|328:208|296:220|296:220|276:248|276:248|244:248|244:248|212:264|212:264|168:284|128:288|60:308|-12:200,1,630.000024032594
