osu file format v14

[General]
AudioFilename: audio.mp3
AudioLeadIn: 0
PreviewTime: 42101
Countdown: 0
SampleSet: Normal
StackLeniency: 0.4
Mode: 1
LetterboxInBreaks: 0
WidescreenStoryboard: 1

[Editor]
Bookmarks: 21792,32578,42016,43365,50106,55499,60893,64938,86511,91904,107969
DistanceSpacing: 1.6
BeatDivisor: 4
GridSize: 32
TimelineZoom: 1.5

[Metadata]
Title:Airplanes (Feint Drum and Bass Remix) (Cut Ver.)
TitleUnicode:Airplanes (Feint Drum and Bass Remix) (Cut Ver.)
Artist:Hayley Williams
ArtistUnicode:Hayley Williams
Creator:Undead Alice
Version:Babero's Muzukashii
Source:
Tags:pop dnb drum and bass electronic english female vocals short cut ver version planes in the air bootleg b.o.b bob Slim_san slim san slim-san UndeadAlice Undead_Alice babero
BeatmapID:4488655
BeatmapSetID:2133100

[Difficulty]
HPDrainRate:7
CircleSize:2
OverallDifficulty:5
ApproachRate:10
SliderMultiplier:1.4
SliderTickRate:1

[Events]
//Background and Video events
0,0,"91896957_p0.jpg",0,0
//Break Periods
//Storyboard Layer 0 (Background)
//Storyboard Layer 1 (Fail)
//Storyboard Layer 2 (Pass)
//Storyboard Layer 3 (Foreground)
//Storyboard Layer 4 (Overlay)
//Storyboard Sound Samples

[TimingPoints]
219,337.078651685393,4,1,0,60,1,0
219,-142.857142857143,4,1,0,60,0,0
17742,-140.842716580668,4,1,0,60,0,0
18416,-138.887172197845,4,1,0,60,0,0
18753,-137.929623567922,4,1,0,60,0,0
19090,-136.985188044781,4,1,0,60,0,0
19764,-135.134593413642,4,1,0,60,0,0
20101,-134.227920681692,4,1,0,60,0,0
20442,-133.333333333333,4,1,0,70,0,0
20607,-132.228974710841,4,1,0,70,0,0
20775,-131.149134746257,4,1,0,70,0,0
20944,-130.080516850682,4,1,0,70,0,0
21112,-129.035343631929,4,1,0,70,0,0
21449,-126.988609620635,4,1,0,70,0,0
21787,-125,4,1,0,70,0,0
32573,-125,4,1,0,70,0,0
32910,-124.444561648712,4,1,0,70,0,0
33079,-124.167872648336,4,1,0,70,0,0
33247,-123.894037648665,4,1,0,70,0,0
33584,-123.348363066066,4,1,0,70,0,0
33753,-123.078126833848,4,1,0,70,0,0
33921,-122.807474106074,4,1,0,70,0,0
34258,-122.27130808794,4,1,0,70,0,0
34427,-122.004188319243,4,1,0,70,0,0
34596,-121.739803420788,4,1,0,70,0,0
34933,-121.212899580032,4,1,0,70,0,0
35270,-120.688993746883,4,1,0,70,0,0
35438,-120.430272173946,4,1,0,70,0,0
35775,-119.914618961706,4,1,0,70,0,0
35944,-119.659203286254,4,1,0,70,0,0
36112,-119.403362726617,4,1,0,70,0,0
36281,-119.150118039161,4,1,0,70,0,0
36618,-118.643854731046,4,1,0,70,0,0
36955,-118.143354279849,4,1,0,70,0,0
37124,-117.893947910811,4,1,0,70,0,0
37292,-117.647058823529,4,1,0,70,0,0
37461,-117.399741267788,4,1,0,70,0,0
37629,-117.154915590864,4,1,0,70,0,0
37798,-116.909660716719,4,1,0,70,0,0
37966,-116.666872689964,4,1,0,70,0,0
38303,-116.182879090036,4,1,0,70,0,0
38640,-115.702884603597,4,1,0,70,0,0
38809,-115.463665280157,4,1,0,70,0,0
38978,-115.225433102589,4,1,0,70,0,0
39315,-114.753301072393,4,1,0,70,0,0
39652,-114.28502234116,4,1,0,70,0,0
39989,-113.820549927641,4,1,0,70,0,0
40157,-113.590410167533,4,1,0,70,0,0
40326,-113.359837611252,4,1,0,70,0,0
40663,-112.90283991674,4,1,0,70,0,0
40831,-112.676392636279,4,1,0,70,0,0
42015,-111.111111111111,4,1,0,85,0,0
42690,-111.111111111111,4,1,0,40,0,0
43365,-100,4,1,0,90,0,1
64938,-90.9090909090909,4,1,0,90,0,0
65274,-125,4,1,0,60,0,0
86510,-142.85909,4,1,0,50,0,0

[HitObjects]
32,192,219,5,8,0:0:0:0:
32,192,893,1,0,0:0:0:0:
32,192,1567,1,8,0:0:0:0:
32,192,2241,1,0,0:0:0:0:
32,192,2578,1,0,0:0:0:0:
32,192,2915,1,8,0:0:0:0:
32,192,3589,1,0,0:0:0:0:
32,192,3926,1,8,0:0:0:0:
32,192,4263,1,8,0:0:0:0:
32,192,4938,1,0,0:0:0:0:
32,192,5275,1,8,0:0:0:0:
32,192,5612,1,0,0:0:0:0:
32,192,6286,1,0,0:0:0:0:
32,192,6960,1,0,0:0:0:0:
32,192,7634,1,8,0:0:0:0:
32,192,7971,1,0,0:0:0:0:
32,192,8308,1,8,0:0:0:0:
32,192,8983,1,0,0:0:0:0:
32,192,9320,1,8,0:0:0:0:
32,192,9657,1,8,0:0:0:0:
32,192,10331,1,0,0:0:0:0:
32,192,10668,1,0,0:0:0:0:
32,192,11005,1,8,0:0:0:0:
32,192,11679,1,0,0:0:0:0:
32,192,12353,1,0,0:0:0:0:
32,192,13027,1,8,0:0:0:0:
32,192,13365,1,0,0:0:0:0:
32,192,13702,1,8,0:0:0:0:
32,192,14376,1,0,0:0:0:0:
32,192,14713,1,8,0:0:0:0:
32,192,15050,1,8,0:0:0:0:
32,192,15724,1,8,0:0:0:0:
32,192,16061,1,0,0:0:0:0:
32,192,16398,1,8,0:0:0:0:
32,192,17072,1,0,0:0:0:0:
32,192,17747,1,8,0:0:0:0:
32,192,18421,1,8,0:0:0:0:
32,192,18758,1,0,0:0:0:0:
32,192,19095,1,8,0:0:0:0:
32,192,19769,1,0,0:0:0:0:
32,192,20106,1,0,0:0:0:0:
32,192,20443,1,8,0:0:0:0:
32,192,20612,1,0,0:0:0:0:
32,192,20780,1,8,0:0:0:0:
32,192,20949,1,8,0:0:0:0:
32,192,21117,1,0,0:0:0:0:
32,192,21454,1,8,0:0:0:0:
32,192,21792,1,8,0:0:0:0:
32,192,22129,1,0,0:0:0:0:
32,192,22297,1,8,0:0:0:0:
32,192,22466,1,0,0:0:0:0:
32,192,22803,1,8,0:0:0:0:
32,192,22971,1,0,0:0:0:0:
32,192,23140,1,8,0:0:0:0:
32,192,23477,1,0,0:0:0:0:
32,192,23645,1,0,0:0:0:0:
32,192,23814,1,8,0:0:0:0:
32,192,24151,1,0,0:0:0:0:
32,192,24488,1,8,0:0:0:0:
32,192,24657,1,0,0:0:0:0:
32,192,24994,1,0,0:0:0:0:
32,192,25162,1,8,0:0:0:0:
32,192,25331,1,8,0:0:0:0:
32,192,25499,1,0,0:0:0:0:
32,192,25836,1,8,0:0:0:0:
32,192,26174,1,0,0:0:0:0:
32,192,26342,1,8,0:0:0:0:
32,192,26511,1,8,0:0:0:0:
32,192,26679,1,8,0:0:0:0:
32,192,26848,1,0,0:0:0:0:
32,192,27016,1,0,0:0:0:0:
32,192,27185,1,8,0:0:0:0:
32,192,27522,1,0,0:0:0:0:
32,192,27859,1,8,0:0:0:0:
32,192,28027,1,0,0:0:0:0:
32,192,28196,1,8,0:0:0:0:
32,192,28533,1,0,0:0:0:0:
32,192,28870,1,0,0:0:0:0:
32,192,29207,1,8,0:0:0:0:
32,192,29376,1,0,0:0:0:0:
32,192,29544,1,8,0:0:0:0:
32,192,29881,1,0,0:0:0:0:
32,192,30218,1,8,0:0:0:0:
32,192,30556,1,0,0:0:0:0:
32,192,30724,1,8,0:0:0:0:
32,192,30893,1,8,0:0:0:0:
32,192,31230,1,8,0:0:0:0:
32,192,31567,1,0,0:0:0:0:
32,192,31735,1,8,0:0:0:0:
32,192,31904,1,0,0:0:0:0:
32,192,32241,1,8,0:0:0:0:
32,192,32578,1,8,0:0:0:0:
32,192,32915,1,0,0:0:0:0:
32,192,33084,1,8,0:0:0:0:
32,192,33252,1,0,0:0:0:0:
32,192,33589,1,8,0:0:0:0:
32,192,33758,1,0,0:0:0:0:
32,192,33926,1,8,0:0:0:0:
32,192,34263,1,0,0:0:0:0:
32,192,34432,1,0,0:0:0:0:
32,192,34601,1,8,0:0:0:0:
32,192,34938,1,0,0:0:0:0:
32,192,35275,1,8,0:0:0:0:
32,192,35443,1,0,0:0:0:0:
32,192,35780,1,8,0:0:0:0:
32,192,35949,1,8,0:0:0:0:
32,192,36117,1,0,0:0:0:0:
32,192,36286,1,0,0:0:0:0:
32,192,36623,1,0,0:0:0:0:
32,192,36960,1,0,0:0:0:0:
32,192,37129,1,8,0:0:0:0:
32,192,37297,1,8,0:0:0:0:
32,192,37466,1,0,0:0:0:0:
32,192,37634,1,8,0:0:0:0:
32,192,37803,1,0,0:0:0:0:
32,192,37971,1,8,0:0:0:0:
32,192,38308,1,0,0:0:0:0:
32,192,38645,1,8,0:0:0:0:
32,192,38814,1,8,0:0:0:0:
32,192,38983,1,0,0:0:0:0:
32,192,39320,1,8,0:0:0:0:
32,192,39657,1,8,0:0:0:0:
32,192,39994,1,8,0:0:0:0:
32,192,40162,1,0,0:0:0:0:
32,192,40331,1,8,0:0:0:0:
32,192,40668,1,8,0:0:0:0:
256,192,40836,12,8,41848,0:0:0:0:
32,192,42016,5,0,0:0:0:0:
32,192,43365,1,8,0:0:0:0:
32,192,43449,1,8,0:0:0:0:
32,192,43533,1,8,0:0:0:0:
32,192,43702,1,0,0:0:0:0:
32,192,43870,1,8,0:0:0:0:
32,192,44207,1,8,0:0:0:0:
32,192,44376,1,0,0:0:0:0:
32,192,44544,1,0,0:0:0:0:
32,192,44713,1,8,0:0:0:0:
32,192,44797,1,8,0:0:0:0:
32,192,44881,1,8,0:0:0:0:
32,192,45050,1,0,0:0:0:0:
32,192,45218,1,8,0:0:0:0:
32,192,45556,1,0,0:0:0:0:
32,192,45724,1,8,0:0:0:0:
32,192,46061,1,0,0:0:0:0:
32,192,46145,1,0,0:0:0:0:
32,192,46230,1,0,0:0:0:0:
32,192,46398,1,8,0:0:0:0:
32,192,46567,1,0,0:0:0:0:
32,192,46735,1,8,0:0:0:0:
32,192,46904,1,8,0:0:0:0:
32,192,47072,1,0,0:0:0:0:
32,192,47410,1,8,0:0:0:0:
32,192,47747,1,8,0:0:0:0:
32,192,47915,1,0,0:0:0:0:
32,192,48084,1,8,0:0:0:0:
32,192,48168,1,8,0:0:0:0:
32,192,48252,1,8,0:0:0:0:
32,192,48421,1,0,0:0:0:0:
32,192,48589,1,8,0:0:0:0:
32,192,48758,1,0,0:0:0:0:
32,192,48842,1,0,0:0:0:0:
32,192,48926,1,0,0:0:0:0:
32,192,49095,1,8,0:0:0:0:
32,192,49432,1,0,0:0:0:0:
32,192,49601,1,0,0:0:0:0:
32,192,49769,1,8,0:0:0:0:
32,192,50106,1,8,0:0:0:0:
32,192,50443,1,0,0:0:0:0:
32,192,50780,1,8,0:0:0:0:
32,192,50949,1,0,0:0:0:0:
32,192,51117,1,8,0:0:0:0:
32,192,51454,1,8,0:0:0:0:
32,192,51792,1,8,0:0:0:0:
32,192,52129,1,0,0:0:0:0:
32,192,52297,1,8,0:0:0:0:
32,192,52381,1,8,0:0:0:0:
32,192,52466,1,8,0:0:0:0:
32,192,52803,1,0,0:0:0:0:
32,192,53140,1,0,0:0:0:0:
32,192,53308,1,8,0:0:0:0:
32,192,53477,1,8,0:0:0:0:
32,192,53814,1,8,0:0:0:0:
32,192,54151,1,8,0:0:0:0:
32,192,54235,1,8,0:0:0:0:
32,192,54320,1,8,0:0:0:0:
32,192,54488,1,0,0:0:0:0:
32,192,54657,1,8,0:0:0:0:
32,192,55162,1,8,0:0:0:0:
32,192,55331,1,0,0:0:0:0:
32,192,55499,1,8,0:0:0:0:
32,192,55584,1,8,0:0:0:0:
32,192,55668,1,8,0:0:0:0:
32,192,55836,1,0,0:0:0:0:
32,192,56005,1,8,0:0:0:0:
32,192,56342,1,0,0:0:0:0:
32,192,56511,1,8,0:0:0:0:
32,192,56848,1,8,0:0:0:0:
32,192,56932,1,8,0:0:0:0:
32,192,57016,1,8,0:0:0:0:
32,192,57185,1,0,0:0:0:0:
32,192,57353,1,8,0:0:0:0:
32,192,57522,1,8,0:0:0:0:
32,192,57690,1,0,0:0:0:0:
32,192,57859,1,8,0:0:0:0:
32,192,58196,1,8,0:0:0:0:
32,192,58533,1,0,0:0:0:0:
32,192,58702,1,0,0:0:0:0:
32,192,58870,1,8,0:0:0:0:
32,192,58954,1,8,0:0:0:0:
32,192,59039,1,8,0:0:0:0:
32,192,59207,1,0,0:0:0:0:
32,192,59376,1,8,0:0:0:0:
32,192,59544,1,0,0:0:0:0:
32,192,59629,1,0,0:0:0:0:
32,192,59713,1,0,0:0:0:0:
32,192,59881,1,8,0:0:0:0:
32,192,60218,1,0,0:0:0:0:
32,192,60387,1,0,0:0:0:0:
32,192,60556,1,8,0:0:0:0:
32,192,60893,1,0,0:0:0:0:
32,192,61230,1,8,0:0:0:0:
32,192,61567,1,8,0:0:0:0:
32,192,61735,1,0,0:0:0:0:
32,192,61904,1,8,0:0:0:0:
32,192,62241,1,8,0:0:0:0:
32,192,62578,1,0,0:0:0:0:
32,192,62915,1,0,0:0:0:0:
32,192,63084,1,8,0:0:0:0:
32,192,63168,1,8,0:0:0:0:
32,192,63252,1,8,0:0:0:0:
32,192,63589,1,8,0:0:0:0:
32,192,63758,1,0,0:0:0:0:
32,192,63926,1,0,0:0:0:0:
32,192,64095,1,8,0:0:0:0:
32,192,64179,1,8,0:0:0:0:
32,192,64263,1,8,0:0:0:0:
32,192,64432,1,0,0:0:0:0:
32,192,64601,1,8,0:0:0:0:
32,192,64769,1,0,0:0:0:0:
32,192,64938,1,12,0:0:0:0:
32,192,65612,1,0,0:0:0:0:
32,192,66286,1,0,0:0:0:0:
32,192,66960,1,8,0:0:0:0:
32,192,67297,1,0,0:0:0:0:
32,192,67634,1,8,0:0:0:0:
32,192,68308,1,0,0:0:0:0:
32,192,68645,1,0,0:0:0:0:
32,192,68983,1,8,0:0:0:0:
32,192,69657,1,8,0:0:0:0:
32,192,69994,1,0,0:0:0:0:
32,192,70331,1,8,0:0:0:0:
32,192,71005,1,0,0:0:0:0:
32,192,71679,1,0,0:0:0:0:
32,192,72353,1,8,0:0:0:0:
32,192,72690,1,0,0:0:0:0:
32,192,73027,1,8,0:0:0:0:
32,192,73702,1,0,0:0:0:0:
32,192,74039,1,0,0:0:0:0:
32,192,74376,1,8,0:0:0:0:
32,192,75050,1,8,0:0:0:0:
32,192,75387,1,0,0:0:0:0:
32,192,75724,1,8,0:0:0:0:
32,192,76398,1,0,0:0:0:0:
32,192,77072,1,0,0:0:0:0:
32,192,77747,1,8,0:0:0:0:
32,192,78084,1,0,0:0:0:0:
32,192,78421,1,8,0:0:0:0:
32,192,79095,1,0,0:0:0:0:
32,192,79432,1,0,0:0:0:0:
32,192,79769,1,8,0:0:0:0:
32,192,80443,1,8,0:0:0:0:
32,192,80780,1,0,0:0:0:0:
32,192,81117,1,8,0:0:0:0:
32,192,81792,1,0,0:0:0:0:
32,192,82466,1,8,0:0:0:0:
32,192,83140,1,8,0:0:0:0:
32,192,83477,1,0,0:0:0:0:
32,192,83814,1,8,0:0:0:0:
32,192,84488,1,0,0:0:0:0:
32,192,84825,1,0,0:0:0:0:
32,192,85162,1,8,0:0:0:0:
32,192,85836,1,8,0:0:0:0:
32,192,86174,1,0,0:0:0:0:
32,192,86511,1,8,0:0:0:0:
32,192,87859,1,8,0:0:0:0:
32,192,89207,1,0,0:0:0:0:
32,192,89881,1,8,0:0:0:0:
32,192,90556,1,8,0:0:0:0:
32,192,91230,1,0,0:0:0:0:
32,192,91904,1,8,0:0:0:0:
32,192,93252,1,0,0:0:0:0:
32,192,93926,1,8,0:0:0:0:
32,192,94263,1,8,0:0:0:0:
32,192,94601,1,0,0:0:0:0:
32,192,95949,1,8,0:0:0:0:
32,192,96623,1,0,0:0:0:0:
32,192,97297,1,8,0:0:0:0:
