osu file format v14

[General]
AudioFilename: audio.mp3
AudioLeadIn: 0
PreviewTime: 63705
Countdown: 0
SampleSet: Soft
StackLeniency: 0.4
Mode: 0
LetterboxInBreaks: 0
WidescreenStoryboard: 1

[Editor]
Bookmarks: 24822,32747,43314,63567
DistanceSpacing: 1
BeatDivisor: 2
GridSize: 32
TimelineZoom: 0.9499998

[Metadata]
Title:W-P.NEURONS (Cut Ver.)
TitleUnicode:W-P.NEURONS (Cut Ver.)
Artist:Hayato Asano
ArtistUnicode:浅野隼人
Creator:Asaiga
Version:Normal
Source:ブルー リフレクション 帝/タイ
Tags:LMT Hikan Ducky- GanyuMyMommy Nytrocide_ Blue Reflection Tie Second Light Gust Koei Tecmo Games battle theme 渡邉俊彦 Toshihiko Watanabe electronic instrumental
BeatmapID:3319015
BeatmapSetID:1622821

[Difficulty]
HPDrainRate:4
CircleSize:3.2
OverallDifficulty:5
ApproachRate:5.5
SliderMultiplier:1
SliderTickRate:1

[Events]
//Background and Video events
0,0,"bururifurii.jpg",0,0
//Break Periods
//Storyboard Layer 0 (Background)
//Storyboard Layer 1 (Fail)
//Storyboard Layer 2 (Pass)
//Storyboard Layer 3 (Foreground)
//Storyboard Layer 4 (Overlay)
//Storyboard Sound Samples

[TimingPoints]
1047,330.214639515685,4,2,1,50,1,0
2698,-100,4,2,3,50,0,0
3688,-100,4,2,1,50,0,0
6000,-100,4,2,3,50,0,0
6165,-100,4,2,1,50,0,0
10623,-100,4,2,3,50,0,0
11613,-100,4,2,1,50,0,0
13595,-100,4,2,3,50,0,0
14255,-100,4,2,1,50,0,0
18630,-100,4,2,3,50,0,0
18878,-100,4,2,1,50,0,0
21355,-100,4,2,3,50,0,0
22180,-100,4,2,1,50,0,0
24657,-100,4,2,1,55,0,0
24822,-100,4,2,1,60,0,0
27464,-100,4,2,2,70,0,0
32747,-100,4,2,3,50,0,0
42984,-100,4,2,3,60,0,0
43314,-100,4,2,3,50,0,0
63127,-100,4,2,2,60,0,0
63787,-100,4,2,1,40,0,0
63952,-100,4,2,1,50,0,0
64117,-100,4,2,1,60,0,0
64283,-100,4,2,1,70,0,0
64448,-100,4,2,1,80,0,1
84921,-100,4,2,1,70,0,1
85251,-100,4,2,1,60,0,1
85581,-100,4,2,1,50,0,0
85912,-100,4,2,3,50,0,0
90865,-100,4,2,3,40,0,0
95405,-100,4,2,3,55,0,0
96148,-100,4,2,1,55,0,0

[Colours]
Combo1 : 89,189,232
Combo2 : 202,142,208
Combo3 : 213,203,136

[HitObjects]
64,254,1047,5,6,3:1:0:0:
21,163,1377,1,8,0:2:0:0:
65,73,1707,2,0,L|76:8,2,50,8|2|10,0:2|3:2|0:2,0:0:0:0:
100,108,2202,2,0,P|167:82|256:133,1,150,2|8,3:2|0:3,0:0:0:0:
298,187,3028,2,0,L|280:307,1,100,8|8,0:3|0:3,0:0:0:0:
362,346,3688,6,0,L|376:247,1,100,2|8,3:1|0:2,0:0:0:0:
443,172,4349,1,8,0:2:0:0:
443,172,4514,2,0,P|420:125|361:112,1,100,2|2,3:2|3:2,0:0:0:0:
249,30,5339,2,0,B|200:12|202:68|151:49,2,100,10|10|0,0:2|0:2|0:0,0:0:0:0:
325,95,6330,5,2,3:1:0:0:
281,184,6660,1,8,0:2:0:0:
191,152,6990,1,10,0:2:0:0:
191,152,7155,2,0,P|157:190|112:189,1,100,2|2,3:2|3:2,0:0:0:0:
63,203,7651,1,2,0:1:0:0:
114,288,7981,2,0,B|115:349|80:322|79:390,2,100,10|2|10,0:2|3:2|0:2,0:0:0:0:
210,261,8972,6,0,P|261:271|292:318,1,100,2|8,3:1|0:2,0:0:0:0:
360,237,9632,1,2,3:2:0:0:
360,237,9797,2,0,P|389:194|445:192,1,100,2|2,3:2|3:2,0:0:0:0:
433,187,11613,5,6,3:1:0:0:
482,99,11944,1,8,0:2:0:0:
412,27,12274,2,0,L|464:8,2,50,0|2|10,3:2|3:2|0:2,0:0:0:0:
374,60,12769,2,0,B|315:43|308:121|230:104,1,150,2|10,3:2|0:2,0:0:0:0:
151,54,13595,1,8,0:3:0:0:
52,68,13925,1,2,0:3:0:0:
71,166,14255,6,0,L|55:272,1,100,2|8,3:2|0:2,0:0:0:0:
109,356,14916,1,0,3:2:0:0:
109,356,15081,2,0,P|133:317|199:302,1,100,2|2,3:2|3:2,0:0:0:0:
199,252,15576,2,0,P|298:267|422:292,1,200,2|2,0:1|3:1,0:0:0:0:
476,226,16567,1,2,0:1:0:0:
431,136,16897,6,0,P|444:84|454:22,1,100,2|8,3:1|0:2,0:0:0:0:
352,51,17557,2,0,P|345:26|333:3,2,50,0|2|2,3:2|3:2|0:2,0:0:0:0:
335,98,18053,2,0,P|269:70|200:110,1,150,2|10,3:2|0:2,0:0:0:0:
130,172,18878,1,10,0:2:0:0:
158,267,19208,1,0,0:0:0:0:
257,281,19539,6,0,L|267:396,1,100,2|0,3:2|0:2,0:0:0:0:
360,342,20199,1,8,0:2:0:0:
360,342,20364,2,0,L|348:226,1,100,0|2,3:2|3:2,0:0:0:0:
424,112,21190,2,0,B|454:128|463:144|463:144|483:142|520:151,2,100,8|8|0,0:2|0:3|0:0,0:0:0:0:
404,14,22180,5,2,3:2:0:0:
330,81,22510,1,8,0:2:0:0:
232,58,22841,2,0,L|214:2,2,50,0|0|2,3:2|3:2|0:2,0:0:0:0:
222,107,23336,2,0,P|149:87|81:137,1,150,2|10,3:2|0:2,0:0:0:0:
37,209,24162,1,2,0:2:0:0:
75,301,24492,1,10,0:3:0:0:
151,237,24822,6,0,P|198:241|256:251,1,100,4|2,3:1|3:2,0:0:0:0:
288,341,25482,2,0,P|335:337|393:327,1,100,0|2,3:2|3:2,0:0:0:0:
478,288,26143,1,0,3:2:0:0:
430,200,26473,1,2,3:2:0:0:
483,115,26803,2,0,P|488:64|502:13,1,100,2|2,3:2|3:2,0:0:0:0:
403,42,27464,6,0,B|381:50|358:46|358:46|333:61|315:81|315:81|286:67|259:74,1,150,4|2,3:1|0:3,0:0:0:0:
223,88,28124,1,0,1:2:0:0:
223,88,28289,2,0,P|224:60|209:18,2,50,0|0|0,3:2|0:0|3:0,0:0:0:0:
276,179,28950,1,2,3:2:0:0:
276,179,29115,2,0,P|327:185|379:163,1,100,0|2,3:2|1:2,0:0:0:0:
453,225,29775,1,0,0:0:0:0:
417,318,30105,6,0,P|371:322|325:366,1,100,2|0,3:2|0:0,0:0:0:0:
244,303,30766,2,0,L|259:237,1,50,0|2,1:2|3:2,0:0:0:0:
220,161,31261,2,0,P|166:210|87:196,1,150,2|0,3:2|1:2,0:0:0:0:
15,139,32087,1,0,0:0:0:0:
29,40,32417,1,2,1:2:0:0:
126,20,32747,6,0,B|197:12|172:106|247:96,1,150,4|0,0:1|0:0,0:0:0:0:
336,63,33573,1,2,0:3:0:0:
390,146,33903,2,0,P|417:138|456:136,2,50,2|2|2,0:2|0:2|0:3,0:0:0:0:
363,188,34398,2,0,L|379:311,2,100,8|2|2,0:3|0:2|0:2,0:0:0:0:
287,122,35389,5,0,0:2:0:0:
198,164,35719,1,2,0:3:0:0:
198,164,35884,2,0,P|149:169|109:132,1,100,2|2,0:3|0:2,0:0:0:0:
51,65,36545,1,2,0:3:0:0:
51,65,36710,2,0,L|64:11,2,50,8|2|2,0:3|0:3|0:3,0:0:0:0:
1,151,37370,5,2,0:3:0:0:
69,223,37700,1,2,0:3:0:0:
47,320,38031,1,2,0:3:0:0:
138,373,38361,1,8,0:3:0:0:
138,373,38526,2,0,P|177:344|250:344,1,100,2|2,0:2|0:2,0:0:0:0:
295,265,39186,6,0,P|290:242|279:208,2,50,2|8|2,0:3|0:3|0:3,0:0:0:0:
339,287,39682,2,0,P|376:312|435:303,2,100,8|8|2,0:3|0:3|0:3,0:0:0:0:
392,204,40672,1,2,0:3:0:0:
392,204,40837,2,0,P|411:191|444:168,2,50,2|8|2,0:2|0:3|0:2,0:0:0:0:
316,138,41498,1,2,0:2:0:0:
367,54,41828,5,2,0:2:0:0:
367,54,41993,2,0,P|374:31|379:-10,2,50,2|0|2,0:3|0:0|0:3,0:0:0:0:
277,8,42654,1,8,0:3:0:0:
182,41,42984,1,2,0:3:0:0:
86,13,43314,6,0,P|53:47|55:110,1,100,0|2,3:2|0:2,0:0:0:0:
82,135,43809,2,0,B|64:149|42:156|42:156|32:156|32:156|14:160|-6:192,2,100,2|2|2,0:2|0:2|3:2,0:0:0:0:
206,219,44965,1,2,3:2:0:0:
206,219,45295,1,2,1:2:0:0:
206,219,45625,1,2,0:2:0:0:
157,306,45956,6,0,P|203:318|235:371,1,100,2|2,3:2|0:2,0:0:0:0:
274,331,46451,2,0,P|316:347|388:346,2,100,2|2|2,0:2|0:2|3:2,0:0:0:0:
199,200,47607,2,0,P|153:218|96:222,2,100,0|0|2,3:2|1:2|0:0,0:0:0:0:
265,125,48597,6,0,P|273:79|330:45,1,100,2|2,3:2|0:2,0:0:0:0:
344,8,49093,2,0,B|375:54|389:10|429:60,2,100,2|2|2,0:2|0:2|3:2,0:0:0:0:
379,153,50248,1,2,3:2:0:0:
379,153,50579,1,2,1:2:0:0:
379,153,50909,1,2,0:2:0:0:
428,240,51239,6,0,L|442:354,1,100,2|2,3:2|0:2,0:0:0:0:
401,370,51734,2,0,P|362:343|302:352,2,100,2|2|2,0:2|0:2|3:2,0:0:0:0:
315,246,52890,2,0,P|346:213|344:139,2,100,2|0|2,3:3|1:2|0:2,0:0:0:0:
228,297,53881,6,0,L|108:279,1,100,2|2,3:2|0:2,0:0:0:0:
81,297,54376,2,0,B|64:232|64:232|25:206,2,100,2|2|2,0:2|0:2|3:2,0:0:0:0:
123,152,55532,1,2,3:2:0:0:
123,152,55862,1,2,1:2:0:0:
123,152,56192,1,2,0:2:0:0:
201,214,56523,6,0,P|256:218|304:174,1,100,2|2,3:2|0:2,0:0:0:0:
307,146,57018,2,0,L|283:23,2,100,2|2|2,0:2|0:2|3:2,0:0:0:0:
415,249,58174,2,0,L|395:347,2,100,2|0|2,3:3|1:2|0:2,0:0:0:0:
486,178,59164,6,0,P|442:151|391:154,1,100,2|2,3:2|0:2,0:0:0:0:
349,173,59660,2,0,P|311:200|246:189,2,100,2|2|2,0:2|0:2|3:2,0:0:0:0:
442,56,60815,1,2,3:2:0:0:
348,19,61146,1,2,1:2:0:0:
257,62,61476,1,2,0:2:0:0:
167,17,61806,6,0,P|136:55|76:54,1,100,2|2,3:2|0:2,0:0:0:0:
2,111,62466,2,0,P|-15:160|9:214,1,100,2|2,1:2|0:2,0:0:0:0:
66,279,63127,1,0,1:2:0:0:
217,148,63787,5,2,0:1:0:0:
217,148,63952,2,0,L|228:70,2,50,2|2|2,0:1|0:1|0:1,0:0:0:0:
210,197,64448,5,14,3:1:0:0:
306,163,64778,1,2,1:2:0:0:
306,163,64943,2,0,L|419:145,1,100,2|2,0:2|0:2,0:0:0:0:
490,197,65603,2,0,P|512:245|489:304,1,100,2|2,0:2|0:2,0:0:0:0:
467,326,66099,2,0,L|359:302,1,100,2|2,1:1|3:1,0:0:0:0:
331,335,66594,1,2,0:2:0:0:
331,335,66759,1,2,1:1:0:0:
271,254,67089,5,2,3:1:0:0:
197,321,67420,1,2,1:2:0:0:
197,321,67585,2,0,P|154:350|101:339,1,100,2|2,0:2|0:2,0:0:0:0:
40,277,68245,1,2,0:1:0:0:
40,277,68410,2,0,L|46:210,1,50,2|2,3:1|0:1,0:0:0:0:
14,186,68741,2,0,L|23:86,1,100,2|2,1:1|3:1,0:0:0:0:
109,36,69401,2,0,L|166:57,1,50,2|2,1:1|3:1,0:0:0:0:
204,39,69731,5,6,3:2:0:0:
306,27,70061,1,2,1:2:0:0:
306,27,70226,2,0,P|345:58|349:120,1,100,2|2,0:2|0:2,0:0:0:0:
328,202,70887,2,0,P|368:232|431:223,1,100,2|2,0:2|0:2,0:0:0:0:
464,219,71382,2,0,L|441:351,1,100,2|2,1:1|3:1,0:0:0:0:
484,359,71878,1,2,0:2:0:0:
484,359,72043,1,2,1:1:0:0:
385,375,72373,5,2,3:1:0:0:
303,327,72703,1,2,1:2:0:0:
303,327,72868,2,0,P|252:330|211:362,1,100,2|2,0:2|0:2,0:0:0:0:
138,291,73529,2,0,L|161:128,1,150,2|2,0:1|1:1,0:0:0:0:
237,80,74354,1,2,3:1:0:0:
168,6,74684,2,0,L|119:21,1,50,2|2,1:1|3:1,0:0:0:0:
71,7,75015,5,14,3:1:0:0:
17,92,75345,1,2,1:2:0:0:
17,92,75510,2,0,P|68:109|95:151,1,100,2|2,0:2|0:2,0:0:0:0:
123,241,76170,2,0,L|104:360,1,100,2|2,0:2|0:2,0:0:0:0:
143,374,76666,2,0,P|180:340|245:344,1,100,2|2,1:1|3:1,0:0:0:0:
263,302,77161,1,2,0:2:0:0:
263,302,77326,1,2,1:1:0:0:
343,242,77656,5,10,3:1:0:0:
380,340,77987,1,2,1:0:0:0:
380,340,78152,2,0,P|417:311|481:310,1,100,2|2,0:1|0:1,0:0:0:0:
506,214,78812,2,0,B|426:217|461:126|382:130,1,150,2|2,0:1|1:2,0:0:0:0:
356,37,79638,1,2,3:2:0:0:
261,68,79968,2,0,L|210:57,1,50,2|2,1:1|3:1,0:0:0:0:
164,71,80298,5,6,3:2:0:0:
73,43,80628,1,2,1:2:0:0:
73,43,80793,2,0,P|35:75|32:137,1,100,2|2,0:2|0:1,0:0:0:0:
105,185,81454,1,2,0:1:0:0:
51,269,81784,2,0,L|-7:253,2,50,2|2|2,0:2|1:2|0:2,0:0:0:0:
171,358,82610,2,0,L|232:338,1,50,2|2,1:1|3:1,0:0:0:0:
267,352,82940,5,10,3:1:0:0:
324,271,83270,1,2,1:2:0:0:
324,271,83435,2,0,P|370:289|441:297,1,100,2|2,0:2|0:1,0:0:0:0:
499,237,84095,2,0,P|524:185|507:135,1,100,2|2,0:1|0:2,0:0:0:0:
490,101,84591,1,2,1:2:0:0:
404,49,84921,1,2,3:2:0:0:
324,109,85251,1,2,1:2:0:0:
244,47,85581,6,0,B|129:29|137:117|55:102,1,200,2|2,0:2|0:3,0:0:0:0:
150,336,87067,2,0,L|209:328,1,50,2|8,3:0|0:0,0:0:0:0:
243,354,87398,2,0,P|279:316|346:320,1,100,2|2,0:3|3:0,0:0:0:0:
452,233,88223,6,0,L|505:245,2,50,2|2|2,0:3|0:3|3:0,0:0:0:0:
416,268,88718,2,0,L|396:137,1,100,8|0,0:3|0:0,0:0:0:0:
444,78,89379,1,2,3:0:0:0:
304,37,89874,1,8,0:0:0:0:
304,37,90039,2,0,P|266:93|177:86,1,150,2|2,0:3|0:0,0:0:0:0:
94,62,90865,6,0,B|101:130|101:130|115:145|115:145|123:218,1,150,0|2,3:0|0:3,0:0:0:0:
134,304,91690,2,0,P|107:295|73:293,2,50,0|2|8,3:0|0:3|0:0,0:0:0:0:
204,375,92351,1,2,3:0:0:0:
242,282,92681,1,2,0:3:0:0:
328,342,93011,1,2,3:0:0:0:
328,342,93176,2,0,L|388:328,1,50,8|2,0:0|0:3,0:0:0:0:
424,346,93507,5,2,0:3:0:0:
486,268,93837,1,0,3:0:0:0:
486,268,94002,2,0,P|497:224|465:158,1,100,8|0,0:3|0:0,0:0:0:0:
256,192,94662,12,8,96148,3:1:0:0:
