osu file format v14

[General]
AudioFilename: audio.mp3
AudioLeadIn: 0
PreviewTime: 63705
Countdown: 0
SampleSet: Soft
StackLeniency: 0.4
Mode: 0
LetterboxInBreaks: 0
WidescreenStoryboard: 1

[Editor]
DistanceSpacing: 0.7
BeatDivisor: 4
GridSize: 32
TimelineZoom: 2.65

[Metadata]
Title:W-P.NEURONS (Cut Ver.)
TitleUnicode:W-P.NEURONS (Cut Ver.)
Artist:Hayato Asano
ArtistUnicode:浅野隼人
Creator:Asaiga
Version:LMT's Finale
Source:ブルー リフレクション 帝/タイ
Tags:LMT Hikan Ducky- GanyuMyMommy Nytrocide_ Blue Reflection Tie Second Light Gust Koei Tecmo Games battle theme 渡邉俊彦 Toshihiko Watanabe electronic instrumental
BeatmapID:3313424
BeatmapSetID:1622821

[Difficulty]
HPDrainRate:6
CircleSize:4
OverallDifficulty:8.5
ApproachRate:9.2
SliderMultiplier:2
SliderTickRate:1

[Events]
//Background and Video events
0,0,"bururifurii.jpg",0,0
//Break Periods
//Storyboard Layer 0 (Background)
//Storyboard Layer 1 (Fail)
//Storyboard Layer 2 (Pass)
//Storyboard Layer 3 (Foreground)
//Storyboard Layer 4 (Overlay)
//Storyboard Sound Samples

[TimingPoints]
1047,330.214639515685,4,2,1,50,1,0
2698,-100,4,2,3,50,0,0
3688,-100,4,2,1,50,0,0
6000,-100,4,2,3,50,0,0
6165,-100,4,2,1,50,0,0
10623,-100,4,2,3,50,0,0
11613,-100,4,2,1,50,0,0
13595,-100,4,2,3,50,0,0
14255,-100,4,2,1,50,0,0
18630,-100,4,2,3,50,0,0
18878,-100,4,2,1,50,0,0
21355,-100,4,2,3,50,0,0
22180,-100,4,2,1,50,0,0
24657,-100,4,2,1,55,0,0
24822,-66.6666666666667,4,2,1,60,0,0
27464,-66.6666666666667,4,2,2,70,0,0
28950,-125,4,2,2,70,0,0
29115,-500,4,2,2,70,0,0
29445,-50,4,2,2,70,0,0
30105,-66.6666666666667,4,2,2,70,0,0
32747,-133.333333333333,4,2,3,50,0,0
42984,-66.6666666666667,4,2,3,60,0,0
43314,-100,4,2,3,50,0,0
63127,-100,4,2,2,60,0,0
63787,-100,4,2,1,40,0,0
63952,-100,4,2,1,50,0,0
64117,-100,4,2,1,60,0,0
64283,-100,4,2,1,70,0,0
64448,-66.6666666666667,4,2,1,80,0,0
69236,-133.333333333333,4,2,1,80,0,0
69401,-66.6666666666667,4,2,1,80,0,0
69566,-50,4,2,1,80,0,0
69731,-66.6666666666667,4,2,1,80,0,0
84921,-66.6666666666667,4,2,1,70,0,0
85251,-66.6666666666667,4,2,1,60,0,0
85581,-100,4,2,1,50,0,0
85912,-100,4,2,3,50,0,0
90865,-100,4,2,3,40,0,0
95405,-100,4,2,3,55,0,0
96148,-100,4,2,1,55,0,0

[Colours]
Combo1 : 89,189,232
Combo2 : 202,142,208
Combo3 : 213,203,136

[HitObjects]
85,211,1047,6,0,B|126:207|185:263|182:313|254:326,1,200,6|8,3:1|0:2,0:0:0:0:
461,94,1624,5,0,3:2:0:0:
392,66,1707,2,0,P|373:126|371:148,1,50,8|0,0:2|0:2,0:0:0:0:
362,219,1872,2,0,B|347:180|313:165|291:154|311:104,1,100,2|10,3:2|0:2,0:0:0:0:
108,27,2202,2,0,P|185:54|221:180,1,200,2|0,3:2|3:2,0:0:0:0:
89,353,2698,5,8,0:3:0:0:
36,134,2863,1,2,0:3:0:0:
74,151,2945,1,2,0:3:0:0:
106,169,3028,1,8,0:3:0:0:
88,257,3193,1,2,0:3:0:0:
50,274,3275,1,2,0:3:0:0:
18,292,3358,1,8,0:3:0:0:
187,318,3523,2,0,B|216:318|241:340|250:372|291:366,1,100,8|2,0:3|3:1,0:0:0:0:
282,357,4018,5,8,0:2:0:0:
406,149,4266,1,0,3:2:0:0:
373,215,4349,2,0,P|395:261|417:295,1,50,8|0,0:2|0:2,0:0:0:0:
208,210,4514,2,0,P|269:196|321:187,1,100,2|10,3:2|0:2,0:0:0:0:
188,31,4844,2,0,B|142:43|108:97|82:166|28:166,1,200,2|0,3:2|3:2,0:0:0:0:
503,70,5339,5,10,0:2:0:0:
429,77,5587,1,8,0:2:0:0:
429,77,5670,1,10,0:2:0:0:
356,48,5835,1,0,3:2:0:0:
356,48,5917,1,8,0:2:0:0:
293,2,6165,1,8,0:2:0:0:
246,95,6330,6,0,P|240:169|235:311,1,200,2|8,3:1|0:2,0:0:0:0:
68,337,6908,5,0,3:2:0:0:
25,273,6990,2,0,P|36:243|64:192,1,50,10|0,0:2|0:2,0:0:0:0:
40,70,7155,2,0,P|77:143|92:203,1,100,2|10,3:2|0:2,0:0:0:0:
151,121,7403,1,8,0:2:0:0:
151,121,7486,2,0,B|180:122|213:165|217:185|257:177,1,100,2|2,3:2|0:1,0:0:0:0:
302,163,7733,2,0,P|363:221|330:292,1,150,0|10,3:2|0:2,0:0:0:0:
341,291,8311,5,2,3:2:0:0:
270,366,8559,1,0,3:2:0:0:
270,366,8641,1,10,0:2:0:0:
176,305,8807,2,0,P|155:254|125:205,1,100,8|2,0:2|3:1,0:0:0:0:
87,154,9219,5,0,3:2:0:0:
87,154,9302,1,8,0:2:0:0:
48,69,9550,1,8,0:2:0:0:
9,135,9632,2,0,P|3:170|-3:206,1,50,2|0,3:2|0:2,0:0:0:0:
46,248,9797,2,0,P|41:310|36:362,1,100,2|10,3:2|0:2,0:0:0:0:
188,95,10127,2,0,B|217:76|311:136|317:183|386:167,1,200,2|2,3:2|0:2,0:0:0:0:
452,139,10623,5,8,0:3:0:0:
503,221,10870,1,2,0:3:0:0:
503,221,10953,1,8,0:3:0:0:
444,296,11201,1,8,0:3:0:0:
444,296,11283,1,2,0:3:0:0:
349,277,11448,1,2,0:3:0:0:
149,234,11613,5,6,3:1:0:0:
211,168,11861,1,0,3:2:0:0:
211,168,11944,1,8,0:2:0:0:
83,79,12191,1,8,0:2:0:0:
27,125,12274,2,0,P|40:159|47:194,1,50,0|0,3:2|0:2,0:0:0:0:
144,37,12439,2,0,P|214:57|270:84,1,100,2|10,3:2|0:2,0:0:0:0:
294,122,12687,1,0,3:2:0:0:
294,122,12769,2,0,P|355:189|388:171,1,100,2|0,3:2|0:2,0:0:0:0:
419,177,13017,2,0,P|445:89|496:14,1,150,0|10,3:2|0:2,0:0:0:0:
443,305,13595,5,8,0:3:0:0:
353,348,13842,1,8,0:3:0:0:
353,348,13925,1,2,0:3:0:0:
261,300,14090,1,2,0:3:0:0:
272,211,14255,2,0,P|220:149|104:96,1,200,2|8,3:2|0:2,0:0:0:0:
467,111,14833,5,8,0:2:0:0:
415,166,14916,2,0,P|440:228|444:242,1,50,0|0,3:2|0:2,0:0:0:0:
463,32,15081,2,0,P|395:81|389:111,1,100,2|2,3:2|0:2,0:0:0:0:
473,370,15411,2,0,P|492:263|498:247,1,100,2|2,3:2|0:1,0:0:0:0:
403,281,15824,1,0,3:2:0:0:
403,281,15906,1,8,0:2:0:0:
82,91,16154,5,8,0:2:0:0:
160,85,16236,2,0,P|177:144|183:193,1,100,2|0,3:1|0:2,0:0:0:0:
118,216,16484,2,0,P|104:247|89:291,1,50,0|2,3:2|0:1,0:0:0:0:
289,374,16732,1,8,0:2:0:0:
215,308,16897,2,0,P|127:284|-10:259,1,200,2|8,3:1|0:2,0:0:0:0:
301,115,17475,5,8,0:2:0:0:
347,173,17557,2,0,P|366:182|411:218,1,50,0|0,3:2|0:2,0:0:0:0:
277,188,17722,2,0,P|210:195|139:215,1,100,2|2,3:2|0:2,0:0:0:0:
126,150,17970,1,0,3:2:0:0:
126,150,18053,2,0,P|144:101|291:49,1,200,2|0,3:2|0:2,0:0:0:0:
486,312,18548,5,10,0:2:0:0:
443,325,18630,1,8,0:3:0:0:
406,340,18713,1,2,0:3:0:0:
487,227,18878,1,10,0:2:0:0:
394,260,19043,1,8,0:2:0:0:
394,260,19126,1,0,3:2:0:0:
422,169,19291,1,0,3:2:0:0:
422,169,19373,1,8,0:2:0:0:
322,205,19539,2,0,B|280:198|202:255|169:293|124:280,1,200,2|0,3:2|0:2,0:0:0:0:
17,87,20116,5,0,3:2:0:0:
87,52,20199,2,0,P|100:127|106:141,1,50,8|0,0:2|0:2,0:0:0:0:
237,149,20364,2,0,B|207:164|135:131|177:86|171:100,1,100,0|2,3:2|0:2,0:0:0:0:
429,22,20694,2,0,P|335:30|228:79,1,200,2|0,3:2|3:2,0:0:0:0:
471,110,21190,2,0,P|449:168|437:221,1,100,8|2,0:2|0:3,0:0:0:0:
469,311,21520,5,8,0:3:0:0:
397,371,21685,1,2,0:3:0:0:
397,371,21767,1,8,0:3:0:0:
300,379,21933,1,2,0:3:0:0:
300,379,22015,1,2,0:3:0:0:
217,325,22180,2,0,P|200:252|174:120,1,200,2|8,3:2|0:2,0:0:0:0:
20,356,22758,5,8,0:2:0:0:
93,324,22841,2,0,P|80:306|66:275,1,50,0|0,3:2|0:2,0:0:0:0:
33,136,23006,2,0,P|89:199|120:234,1,100,0|2,3:2|0:2,0:0:0:0:
262,18,23336,2,0,P|148:8|93:80,1,200,2|0,3:2|0:2,0:0:0:0:
131,134,23831,5,10,0:2:0:0:
193,93,24162,5,2,0:2:0:0:
240,151,24409,5,8,0:3:0:0:
287,139,24492,5,10,0:3:0:0:
339,166,24574,5,8,0:3:0:0:
397,142,24657,5,8,0:3:0:0:
455,175,24739,5,8,0:3:0:0:
512,136,24822,6,0,P|500:226|481:326,1,150,4|0,3:1|0:2,0:0:0:0:
402,284,25070,1,2,0:2:0:0:
367,330,25152,1,2,3:2:0:0:
399,372,25235,1,2,0:2:0:0:
446,362,25317,2,0,B|390:338|337:381|303:392|273:371,1,150.000005722046,2|0,0:2|3:2,0:0:0:0:
57,266,25647,6,0,P|67:234|119:246,1,75.0000028610231,2|0,0:2|0:2,0:0:0:0:
181,257,25813,2,0,P|154:296|161:357,1,75.0000028610231,2|0,3:2|0:2,0:0:0:0:
140,112,25978,2,0,P|235:177|237:233,1,150.000005722046,2|0,0:2|3:2,0:0:0:0:
456,192,26308,5,2,0:2:0:0:
289,115,26473,1,2,3:2:0:0:
395,132,26638,1,2,0:2:0:0:
321,181,26803,1,2,3:2:0:0:
372,240,26968,1,2,0:2:0:0:
346,310,27133,1,2,3:2:0:0:
341,306,27299,1,2,0:2:0:0:
395,29,27464,6,0,B|364:27|241:66|247:166|138:194,1,300.000011444092,4|0,3:1|3:2,0:0:0:0:
79,158,27876,1,2,0:3:0:0:
89,147,27959,1,2,0:3:0:0:
66,148,28042,1,2,0:3:0:0:
158,168,28124,2,0,P|205:176|261:189,1,75.0000028610231,0|0,1:2|0:2,0:0:0:0:
306,187,28289,2,0,B|342:175|395:237|378:283|446:293|453:290|460:278|460:277|460:277|450:284|434:291|428:253,1,225.000008583069,0|0,3:2|0:2,0:0:0:0:
279,290,28619,6,0,B|279:246|358:188|414:171|424:102,1,225.000008583069,0|0,3:0|0:2,0:0:0:0:
344,96,28950,2,0,P|326:96|342:108,1,40,2|0,3:2|0:2,0:0:0:0:
473,197,29115,2,0,P|483:197|472:192,1,30,0|0,3:2|0:2,0:0:0:0:
512,125,29445,6,0,P|356:179|249:214,1,200,2|0,1:2|0:2,0:0:0:0:
11,215,29693,6,0,P|127:173|200:149,1,200,0|0,1:2|0:2,0:0:0:0:
323,285,29940,6,0,P|257:257|187:231,1,100,0|0,1:2|0:2,0:0:0:0:
180,70,30105,6,0,B|166:55|144:51|133:52|133:52|189:36|240:54|275:112|270:155|245:187|216:221|149:269|119:299|132:347|131:362|157:380|159:371|159:371|144:358|168:329,1,525.000020027161,2|2,3:2|0:3,0:0:0:0:
17,52,30766,2,0,B|-4:37|11:8|20:9|20:9|11:24|13:47,1,75.0000028610231,0|0,1:2|0:2,0:0:0:0:
76,114,30931,5,2,3:2:0:0:
264,176,31096,5,2,0:3:0:0:
478,103,31261,6,0,B|443:58|282:-4|156:59|127:132|165:201|184:192,1,375.000014305115,2|0,3:2|0:2,0:0:0:0:
282,335,31756,5,0,1:2:0:0:
176,291,31922,1,2,0:3:0:0:
176,291,32004,1,0,3:0:0:0:
423,375,32169,1,2,0:3:0:0:
398,338,32252,1,2,0:3:0:0:
424,295,32334,1,2,0:3:0:0:
401,264,32417,1,2,1:2:0:0:
278,191,32582,5,0,1:0:0:0:
281,185,32623,1,2,0:3:0:0:
285,178,32665,1,0,1:2:0:0:
347,139,32747,6,0,B|322:117|241:135|186:203|107:256|65:228,1,300.000011444092,4|0,0:1|0:2,0:0:0:0:
232,262,33573,2,0,P|236:294|245:340,1,75.0000028610231,2|0,0:3|0:2,0:0:0:0:
402,361,33903,1,2,0:2:0:0:
341,310,34068,1,2,0:2:0:0:
407,260,34233,1,2,0:3:0:0:
407,260,34316,1,2,0:3:0:0:
407,260,34398,1,8,0:3:0:0:
462,312,34563,1,2,0:3:0:0:
323,112,34728,6,0,P|371:100|411:90,1,75.0000028610231,2|2,0:2|0:3,0:0:0:0:
253,148,35059,2,0,B|213:139|195:81|180:60|134:58,1,150.000005722046,2|0,0:2|0:2,0:0:0:0:
70,94,35554,1,2,0:3:0:0:
70,94,35636,1,2,0:3:0:0:
70,94,35719,1,2,0:3:0:0:
124,151,35884,1,2,0:3:0:0:
27,254,36214,1,2,0:2:0:0:
122,355,36545,5,2,0:3:0:0:
201,384,36710,1,8,0:3:0:0:
201,384,36792,1,2,0:3:0:0:
201,384,36875,1,2,0:3:0:0:
257,331,37040,2,0,B|315:320|349:352|362:377|409:360,1,150.000005722046,2|2,0:3|0:3,0:0:0:0:
460,321,37535,1,8,0:3:0:0:
459,246,37700,1,2,0:3:0:0:
412,185,37865,5,2,0:3:0:0:
406,181,37920,1,2,0:3:0:0:
399,178,37976,1,2,0:3:0:0:
391,174,38031,2,0,P|349:160|311:153,1,75.0000028610231,2|0,0:3|0:2,0:0:0:0:
242,171,38361,1,8,0:3:0:0:
192,231,38526,1,2,0:2:0:0:
57,142,38856,1,2,0:2:0:0:
180,41,39186,5,2,0:3:0:0:
265,85,39351,1,8,0:3:0:0:
265,85,39434,1,2,0:3:0:0:
265,85,39517,1,2,0:3:0:0:
265,85,39599,1,2,0:3:0:0:
265,85,39682,1,8,0:3:0:0:
341,81,39847,1,2,0:3:0:0:
383,19,40012,2,0,P|439:35|482:50,1,75.0000028610231,8|0,0:3|0:2,0:0:0:0:
499,105,40342,2,0,P|458:136|416:147,1,75.0000028610231,2|0,0:3|0:2,0:0:0:0:
357,161,40672,5,2,0:3:0:0:
309,223,40837,1,2,0:2:0:0:
333,296,41002,1,8,0:3:0:0:
407,326,41168,1,2,0:2:0:0:
236,286,41498,1,2,0:2:0:0:
82,252,41828,5,2,0:2:0:0:
137,194,41993,1,2,0:3:0:0:
137,194,42076,1,2,0:3:0:0:
82,135,42241,1,8,0:3:0:0:
82,135,42323,1,2,0:3:0:0:
150,56,42488,5,2,0:3:0:0:
150,56,42571,1,2,0:3:0:0:
150,56,42654,2,0,P|131:50|128:79,1,37.5000014305115,8|0,0:3|0:2,0:0:0:0:
191,117,42819,2,0,P|191:86|165:71,1,37.5000014305115,2|0,0:3|0:2,0:0:0:0:
207,10,42984,2,0,B|188:31|217:103|302:142|289:228,1,225.000008583069,2|0,0:3|0:2,0:0:0:0:
215,204,43314,6,0,P|265:164|396:143,1,200,0|2,3:2|0:2,0:0:0:0:
174,295,43809,2,0,P|119:313|68:321,1,100,2|0,0:2|1:2,0:0:0:0:
328,348,44140,1,2,0:2:0:0:
415,318,44305,5,2,0:3:0:0:
415,318,44387,1,2,0:3:0:0:
415,318,44470,2,0,P|436:244|507:111,1,200,2|2,3:2|0:3,0:0:0:0:
496,102,44882,1,2,0:3:0:0:
479,75,44965,1,2,3:2:0:0:
342,118,45130,1,0,3:2:0:0:
205,160,45295,1,2,1:2:0:0:
131,185,45625,5,2,0:2:0:0:
131,185,45708,1,2,0:3:0:0:
58,211,45873,1,2,0:3:0:0:
58,211,45956,2,0,B|100:217|140:239|145:259|179:325|242:320,1,200,2|2,3:2|0:2,0:0:0:0:
19,131,46451,2,0,P|28:71|99:71,1,100,2|0,0:2|1:2,0:0:0:0:
296,160,46781,2,0,P|269:214|267:261,1,100,2|0,0:2|0:2,0:0:0:0:
447,215,47111,2,0,P|408:138|457:-2,1,200,2|0,3:2|0:2,0:0:0:0:
315,72,47607,1,0,3:2:0:0:
230,114,47772,1,0,3:2:0:0:
150,64,47937,1,0,1:2:0:0:
150,64,48267,5,2,0:0:0:0:
131,149,48432,1,2,0:2:0:0:
137,159,48487,1,2,0:3:0:0:
143,169,48542,1,2,0:3:0:0:
147,181,48597,2,0,P|119:231|74:382,1,200,2|2,3:2|0:2,0:0:0:0:
336,334,49093,2,0,P|343:291|291:261,1,100,2|0,0:2|1:2,0:0:0:0:
220,219,49423,2,0,P|208:298|206:342,1,100,2|0,0:2|0:2,0:0:0:0:
446,280,49753,2,0,P|435:195|483:60,1,200,2|2,3:2|0:3,0:0:0:0:
485,66,50166,1,2,0:3:0:0:
469,34,50248,1,2,3:2:0:0:
283,97,50414,1,0,3:2:0:0:
359,154,50579,1,2,1:2:0:0:
359,154,50909,1,2,0:2:0:0:
359,154,51157,5,8,0:3:0:0:
359,154,51239,2,0,P|378:94|280:5,1,200,2|2,3:2|0:2,0:0:0:0:
186,242,51734,2,0,P|208:298|219:349,1,100,2|0,0:2|1:2,0:0:0:0:
14,158,52065,2,0,P|62:123|121:125,1,100,2|0,0:2|0:2,0:0:0:0:
251,161,52395,2,0,B|183:174|144:212|132:277|57:251,1,200,2|2,3:2|0:3,0:0:0:0:
46,263,52808,1,2,0:3:0:0:
22,244,52891,1,2,3:3:0:0:
141,375,53055,1,0,3:2:0:0:
294,311,53220,1,0,1:2:0:0:
294,311,53551,1,2,0:2:0:0:
372,288,53716,5,2,0:2:0:0:
375,276,53771,1,2,0:3:0:0:
382,266,53826,1,2,0:3:0:0:
391,259,53881,2,0,P|431:192|486:57,1,200,2|2,3:2|0:2,0:0:0:0:
171,71,54376,2,0,P|212:123|253:155,1,100,2|0,0:2|1:2,0:0:0:0:
399,33,54706,2,0,P|362:41|332:101,1,100,2|0,0:2|0:2,0:0:0:0:
435,344,55037,2,0,B|435:281|366:250|326:225|325:169,1,200,2|0,3:2|0:2,0:0:0:0:
351,169,55449,1,0,0:2:0:0:
382,169,55532,1,2,3:2:0:0:
260,268,55697,1,0,3:2:0:0:
127,224,55862,1,2,1:2:0:0:
58,193,56192,5,2,0:2:0:0:
58,193,56275,1,2,0:3:0:0:
25,119,56440,1,2,1:3:0:0:
25,119,56523,2,0,B|95:90|128:127|188:160|246:120,1,200,2|2,3:2|0:2,0:0:0:0:
107,353,57018,2,0,P|60:311|87:275,1,100,2|0,0:2|1:2,0:0:0:0:
349,103,57348,2,0,P|299:159|286:213,1,100,2|0,0:2|0:2,0:0:0:0:
186,268,57678,2,0,P|152:163|113:53,1,200,2|2,3:2|0:3,0:0:0:0:
86,61,58091,1,2,0:3:0:0:
92,27,58174,1,2,3:3:0:0:
22,143,58339,1,0,3:2:0:0:
221,73,58504,1,0,1:2:0:0:
285,37,58834,1,2,0:2:0:0:
362,34,58999,5,2,0:2:0:0:
372,43,59054,1,2,0:3:0:0:
379,55,59109,1,2,0:3:0:0:
383,67,59164,2,0,P|402:132|429:291,1,200,2|2,3:2|0:2,0:0:0:0:
498,11,59660,2,0,P|475:77|524:105,1,100,2|0,0:2|1:2,0:0:0:0:
257,268,59990,2,0,P|194:216|160:200,1,100,2|0,0:2|0:2,0:0:0:0:
311,188,60320,2,0,B|287:227|173:255|141:264|130:315,1,200,2|2,3:2|0:3,0:0:0:0:
140,324,60733,1,2,0:3:0:0:
165,345,60815,1,2,3:2:0:0:
39,251,60980,1,0,3:2:0:0:
120,121,61146,1,2,1:2:0:0:
60,76,61476,5,2,0:2:0:0:
60,76,61558,1,2,0:3:0:0:
116,23,61723,1,2,0:3:0:0:
116,23,61806,2,0,B|177:28|213:50|217:89|248:129|308:114,1,200,2|2,3:2|0:2,0:0:0:0:
462,223,62301,1,2,0:3:0:0:
428,136,62466,2,0,P|377:161|315:199,1,100,2|0,1:2|0:2,0:0:0:0:
362,261,62797,2,0,P|326:309|303:347,1,100,2|0,0:2|0:2,0:0:0:0:
225,364,63127,5,0,1:2:0:0:
174,299,63237,5,0,1:2:0:0:
227,249,63347,6,0,P|219:232|201:204,2,33.3333333333333,8|2|8,0:3|0:3|0:3,0:0:0:0:
166,167,63567,5,2,0:3:0:0:
175,157,63622,1,2,0:3:0:0:
169,149,63677,1,0,1:2:0:0:
219,90,63787,5,2,0:1:0:0:
100,63,63952,5,2,0:1:0:0:
12,156,64117,5,2,0:1:0:0:
55,272,64283,5,2,0:1:0:0:
345,339,64448,6,0,B|306:301|304:189|374:150|411:177,1,225.000008583069,14|0,3:1|0:2,0:0:0:0:
451,234,64778,2,0,B|469:264|484:270|498:257|498:257|481:258|472:236,1,75.0000028610231,2|0,1:2|0:2,0:0:0:0:
259,172,64943,2,0,P|208:181|108:207,1,150.000005722046,2|0,0:2|3:2,0:0:0:0:
512,13,65273,2,0,P|455:37|493:132,1,150.000005722046,2|0,0:2|1:2,0:0:0:0:
490,372,65603,5,2,0:2:0:0:
512,351,65686,1,2,0:2:0:0:
488,334,65769,2,0,B|483:319|444:326|431:346|431:350|404:338,1,75.0000028610231,2|0,3:2|0:2,0:0:0:0:
217,228,65934,2,0,P|196:206|233:199,1,75.0000028610231,2|0,0:2|0:2,0:0:0:0:
366,256,66099,2,0,B|305:256|242:303|204:347|134:335,1,225.000008583069,2|0,1:1|0:2,0:0:0:0:
90,290,66429,5,2,3:1:0:0:
419,191,66594,1,2,0:2:0:0:
419,191,66677,1,2,0:2:0:0:
419,191,66759,1,2,1:1:0:0:
176,92,66924,1,2,0:2:0:0:
250,32,67089,6,0,B|280:21|303:37|292:89|274:44,1,75.0000028610231,2|0,3:1|0:2,0:0:0:0:
88,70,67255,2,0,B|82:54|89:25|138:20|118:42,1,75.0000028610231,2|0,0:2|0:2,0:0:0:0:
440,77,67420,2,0,B|476:104|434:120|399:104|424:95,1,75.0000028610231,2|0,1:2|0:2,0:0:0:0:
367,30,67585,2,0,P|445:114|408:262,1,225.000008583069,2|0,0:2|0:2,0:0:0:0:
379,263,67915,2,0,P|304:286|234:343,1,150.000005722046,2|0,0:2|1:2,0:0:0:0:
44,212,68245,5,2,0:1:0:0:
12,175,68328,1,2,0:1:0:0:
48,137,68410,1,2,3:1:0:0:
459,318,68575,5,2,0:1:0:0:
458,370,68658,1,2,0:1:0:0:
413,372,68741,1,2,1:1:0:0:
248,177,68906,5,2,0:1:0:0:
278,153,68988,1,2,0:1:0:0:
292,188,69071,1,2,3:1:0:0:
179,227,69236,6,0,B|159:239|151:213|157:209,1,37.5000014305115,2|0,0:2|0:2,0:0:0:0:
169,135,69401,2,0,P|194:103|257:90,1,75.0000028610231,2|0,1:1|0:2,0:0:0:0:
302,77,69566,2,0,B|322:72|360:97|373:117|417:113,1,100,2|0,3:1|0:2,0:0:0:0:
461,237,69731,6,0,B|436:171|489:80|544:30|473:-11,1,225.000008583069,6|0,3:2|0:2,0:0:0:0:
296,309,70061,2,0,P|289:341|336:348,1,75.0000028610231,2|0,1:2|0:2,0:0:0:0:
401,292,70226,2,0,P|328:277|242:242,1,150.000005722046,2|0,0:2|3:2,0:0:0:0:
42,51,70557,2,0,P|67:176|127:170,1,150.000005722046,2|0,0:2|1:2,0:0:0:0:
259,66,70887,5,2,0:2:0:0:
281,36,70969,1,2,0:2:0:0:
250,9,71052,2,0,P|267:53|292:100,1,75.0000028610231,2|0,3:2|0:2,0:0:0:0:
189,177,71217,2,0,P|175:165|224:141,1,75.0000028610231,2|0,0:2|0:2,0:0:0:0:
484,70,71382,2,0,B|430:73|386:120|354:171|275:168,1,225.000008583069,2|0,1:1|0:2,0:0:0:0:
116,248,71712,5,2,3:1:0:0:
429,358,71878,1,2,0:2:0:0:
429,358,71960,1,2,0:2:0:0:
429,358,72043,1,2,1:1:0:0:
214,328,72208,1,2,0:2:0:0:
281,290,72373,6,0,B|312:269|344:350|294:353|306:293,1,75.0000028610231,2|0,3:1|0:2,0:0:0:0:
99,376,72538,2,0,B|82:366|104:308|144:313|129:340,1,75.0000028610231,2|0,0:2|0:2,0:0:0:0:
217,185,72703,2,0,P|204:222|194:278,1,75.0000028610231,2|0,1:2|0:2,0:0:0:0:
214,343,72868,2,0,B|213:288|139:224|74:162|123:123,1,225.000008583069,2|0,0:2|0:2,0:0:0:0:
151,84,73198,2,0,P|228:74|327:65,1,150.000005722046,2|0,0:2|1:2,0:0:0:0:
28,281,73529,5,2,0:1:0:0:
57,249,73611,1,2,0:1:0:0:
28,209,73694,1,2,3:1:0:0:
30,115,73859,6,0,P|27:85|11:111,1,75.0000028610231,2|0,0:1|0:2,0:0:0:0:
233,170,74024,6,0,P|205:157|220:184,1,75.0000028610231,2|0,1:1|0:2,0:0:0:0:
415,137,74189,6,0,P|390:154|421:155,1,75.0000028610231,2|0,0:1|0:2,0:0:0:0:
488,96,74354,5,2,3:1:0:0:
316,214,74519,1,2,0:1:0:0:
316,214,74602,1,2,0:1:0:0:
316,214,74684,1,2,1:1:0:0:
474,336,74849,1,2,3:1:0:0:
506,232,75015,6,0,B|467:214|389:280|359:320|297:318,1,225.000008583069,14|0,3:1|0:2,0:0:0:0:
144,289,75345,2,0,P|131:275|174:274,1,75.0000028610231,2|0,1:2|0:2,0:0:0:0:
223,320,75510,2,0,P|199:215|165:137,1,150.000005722046,2|0,0:2|3:2,0:0:0:0:
440,91,75840,2,0,P|366:130|326:67,1,150.000005722046,2|0,0:2|1:2,0:0:0:0:
199,49,76170,5,2,0:2:0:0:
228,24,76253,1,2,0:2:0:0:
257,37,76335,2,0,P|222:56|167:102,1,75.0000028610231,2|0,3:2|0:2,0:0:0:0:
79,183,76501,2,0,P|29:191|51:152,1,75.0000028610231,2|0,0:2|0:2,0:0:0:0:
80,95,76666,2,0,B|114:81|183:172|191:230|275:240,1,225.000008583069,2|0,1:1|0:2,0:0:0:0:
380,211,76996,5,2,3:1:0:0:
129,288,77161,1,2,0:2:0:0:
129,288,77244,1,2,0:2:0:0:
129,288,77326,1,2,1:1:0:0:
440,371,77491,1,2,0:2:0:0:
474,101,77656,6,0,B|433:49|318:92|280:173|309:181,1,225.000008583069,10|0,3:1|0:2,0:0:0:0:
480,233,77987,2,0,P|509:210|488:174,1,75.0000028610231,2|0,1:0|0:2,0:0:0:0:
333,3,78152,2,0,B|304:41|384:127|416:166|380:242,1,225.000008583069,2|0,0:1|0:2,0:0:0:0:
201,107,78482,2,0,P|217:83|268:80,1,75.0000028610231,2|0,0:1|0:2,0:0:0:0:
281,263,78647,5,2,1:2:0:0:
281,263,78729,1,2,0:2:0:0:
281,263,78812,2,0,B|251:206|162:197|117:180|99:129,1,225.000008583069,2|0,0:1|0:2,0:0:0:0:
130,66,79142,1,2,0:2:0:0:
175,281,79307,1,2,1:2:0:0:
49,258,79472,5,2,0:2:0:0:
14,228,79555,1,2,0:2:0:0:
42,192,79638,1,2,3:2:0:0:
323,34,79803,5,2,0:2:0:0:
366,61,79885,1,2,0:2:0:0:
355,105,79968,2,0,P|333:145|318:197,1,75.0000028610231,2|0,1:1|0:2,0:0:0:0:
446,319,80133,2,0,P|457:281|485:222,1,75.0000028610231,2|0,3:1|0:2,0:0:0:0:
503,163,80298,6,0,B|430:151|388:228|350:269|298:252,1,225.000008583069,6|0,3:2|0:2,0:0:0:0:
164,181,80628,2,0,P|150:138|187:129,1,75.0000028610231,2|0,1:2|0:2,0:0:0:0:
210,350,80793,2,0,P|225:256|249:188,1,150.000005722046,2|0,0:2|3:2,0:0:0:0:
41,26,81124,6,0,P|16:50|29:106,1,75.0000028610231,2|0,0:1|0:2,0:0:0:0:
101,93,81289,1,2,1:2:0:0:
101,93,81371,1,2,0:2:0:0:
101,93,81454,2,0,B|174:83|248:126|283:146|331:134,1,225.000008583069,2|0,0:1|0:2,0:0:0:0:
391,92,81784,5,2,0:2:0:0:
278,22,81949,1,2,1:2:0:0:
140,227,82114,1,2,0:2:0:0:
140,227,82197,1,2,0:2:0:0:
140,227,82279,1,2,3:2:0:0:
237,266,82444,5,2,0:2:0:0:
254,261,82499,1,2,0:2:0:0:
271,267,82554,1,2,0:2:0:0:
281,276,82610,2,0,P|305:306|281:343,1,75.0000028610231,2|0,1:1|0:2,0:0:0:0:
455,180,82775,2,0,P|433:203|419:271,1,75.0000028610231,2|0,3:1|0:2,0:0:0:0:
405,359,82940,2,0,B|423:303|373:231|327:181|349:106,1,225.000008583069,10|0,3:1|0:2,0:0:0:0:
444,31,83270,6,0,P|484:52|465:89,1,75.0000028610231,2|0,1:2|0:2,0:0:0:0:
290,48,83435,2,0,P|360:115|427:74,1,150.000005722046,2|0,0:2|3:2,0:0:0:0:
67,354,83765,2,0,P|31:227|9:182,1,150.000005722046,2|0,0:1|1:2,0:0:0:0:
434,220,84095,6,0,B|373:217|326:264|302:313|224:313,1,225.000008583069,2|0,0:1|0:2,0:0:0:0:
171,264,84426,1,2,0:2:0:0:
458,354,84591,5,2,1:2:0:0:
495,335,84673,1,2,0:2:0:0:
491,300,84756,2,0,P|482:282|424:233,1,75.0000028610231,2|0,0:2|0:2,0:0:0:0:
215,69,84921,5,2,3:2:0:0:
192,109,85004,1,2,0:2:0:0:
221,141,85086,2,0,P|251:145|321:158,1,75.0000028610231,2|0,0:2|0:2,0:0:0:0:
460,45,85251,5,2,1:2:0:0:
411,39,85334,1,2,0:2:0:0:
365,63,85416,1,2,0:2:0:0:
358,113,85499,1,2,0:2:0:0:
379,162,85581,2,0,P|335:243|199:244,1,200,2|8,0:2|0:2,0:0:0:0:
170,222,86077,1,2,0:3:0:0:
103,261,86242,1,2,0:3:0:0:
103,261,86324,1,2,0:3:0:0:
103,261,86407,1,0,3:3:0:0:
110,338,86572,1,0,3:3:0:0:
183,358,86737,1,8,0:0:0:0:
77,128,87067,5,2,3:0:0:0:
132,71,87233,1,8,0:0:0:0:
216,114,87398,1,2,0:3:0:0:
216,114,87480,1,8,0:3:0:0:
216,114,87563,1,2,0:3:0:0:
216,114,87645,1,8,0:3:0:0:
216,114,87728,1,2,3:0:0:0:
192,187,87893,1,8,0:0:0:0:
275,230,88058,5,2,0:3:0:0:
275,230,88141,1,8,0:3:0:0:
275,230,88223,1,2,0:3:0:0:
353,246,88388,1,2,0:3:0:0:
408,189,88553,1,2,3:0:0:0:
382,116,88718,1,8,0:3:0:0:
307,98,88884,5,8,0:0:0:0:
307,98,88966,1,2,0:3:0:0:
360,39,89131,1,8,0:0:0:0:
360,39,89214,1,2,3:0:0:0:
439,55,89379,1,2,3:0:0:0:
439,55,89874,5,8,0:0:0:0:
487,124,90039,1,2,0:3:0:0:
487,124,90122,1,8,0:3:0:0:
487,124,90204,1,2,3:0:0:0:
442,183,90370,1,0,3:0:0:0:
487,249,90535,5,2,0:0:0:0:
487,249,90617,1,0,3:0:0:0:
452,318,90782,1,2,0:0:0:0:
452,318,90865,1,0,3:0:0:0:
379,346,91030,1,0,3:0:0:0:
306,333,91195,1,8,0:0:0:0:
264,268,91360,1,2,0:3:0:0:
212,214,91525,1,2,0:3:0:0:
212,214,91608,1,8,0:3:0:0:
212,214,91690,1,0,3:0:0:0:
132,204,91856,1,2,0:3:0:0:
78,249,92021,1,8,0:0:0:0:
167,38,92351,5,2,3:0:0:0:
207,102,92516,1,8,0:0:0:0:
285,124,92681,1,2,0:3:0:0:
285,124,92764,1,8,0:3:0:0:
285,124,92846,1,2,0:3:0:0:
356,98,93011,1,2,3:0:0:0:
404,41,93176,1,8,0:0:0:0:
460,135,93341,5,2,0:3:0:0:
460,135,93424,1,8,0:3:0:0:
460,135,93507,1,2,0:3:0:0:
406,194,93672,1,2,0:3:0:0:
464,245,93837,1,0,3:0:0:0:
414,296,94002,1,8,0:3:0:0:
354,247,94167,1,8,0:0:0:0:
354,247,94250,1,2,0:3:0:0:
406,194,94415,1,8,0:0:0:0:
406,194,94497,1,2,3:0:0:0:
207,156,94662,5,0,3:0:0:0:
255,252,94827,5,2,0:3:0:0:
255,252,94910,1,8,0:3:0:0:
255,252,94993,1,2,0:3:0:0:
305,89,95158,5,2,0:3:0:0:
305,89,95240,1,8,0:3:0:0:
135,240,95405,5,2,0:3:0:0:
135,240,95488,1,8,0:3:0:0:
104,195,95570,1,2,0:3:0:0:
134,156,95653,1,8,0:3:0:0:
112,124,95736,1,2,0:3:0:0:
133,80,95818,5,8,0:3:0:0:
134,85,95873,1,8,0:3:0:0:
136,90,95928,1,8,0:3:0:0:
138,95,95983,1,8,0:3:0:0:
140,100,96038,1,8,0:3:0:0:
142,106,96093,1,8,0:3:0:0:
143,111,96148,1,8,3:1:0:0:
