osu file format v14

[General]
AudioFilename: audio.mp3
AudioLeadIn: 0
PreviewTime: 63705
Countdown: 0
SampleSet: Soft
StackLeniency: 0.4
Mode: 0
LetterboxInBreaks: 0
WidescreenStoryboard: 0

[Editor]
Bookmarks: 24822,32747,63567
DistanceSpacing: 0.7
BeatDivisor: 6
GridSize: 32
TimelineZoom: 2.65

[Metadata]
Title:W-P.NEURONS (Cut Ver.)
TitleUnicode:W-P.NEURONS (Cut Ver.)
Artist:Hayato Asano
ArtistUnicode:浅野隼人
Creator:Asaiga
Version:Insane
Source:ブルー リフレクション 帝/タイ
Tags:LMT Hikan Ducky- GanyuMyMommy Nytrocide_ Blue Reflection Tie Second Light Gust Koei Tecmo Games battle theme 渡邉俊彦 Toshihiko Watanabe electronic instrumental
BeatmapID:3313423
BeatmapSetID:1622821

[Difficulty]
HPDrainRate:5
CircleSize:4
OverallDifficulty:8
ApproachRate:9
SliderMultiplier:1.6
SliderTickRate:1

[Events]
//Background and Video events
0,0,"bururifurii.jpg",0,0
//Break Periods
//Storyboard Layer 0 (Background)
//Storyboard Layer 1 (Fail)
//Storyboard Layer 2 (Pass)
//Storyboard Layer 3 (Foreground)
//Storyboard Layer 4 (Overlay)
//Storyboard Sound Samples

[TimingPoints]
1047,330.214639515685,4,2,1,50,1,0
1047,-100,4,2,1,50,0,0
2698,-100,4,2,3,50,0,0
3688,-100,4,2,1,50,0,0
5587,-100,4,2,1,5,0,0
5670,-100,4,2,1,50,0,0
5917,-100,4,2,1,5,0,0
6000,-100,4,2,3,50,0,0
6247,-100,4,2,1,5,0,0
6330,-100,4,2,1,50,0,0
10293,-100,4,2,3,50,0,0
11613,-100,4,2,1,50,0,0
13512,-100,4,2,1,50,0,0
13595,-100,4,2,3,50,0,0
13842,-100,4,2,3,50,0,0
13925,-100,4,2,3,50,0,0
14173,-100,4,2,3,50,0,0
14255,-100,4,2,1,50,0,0
18796,-100,4,2,1,5,0,0
18878,-100,4,2,1,50,0,0
19126,-100,4,2,1,5,0,0
19208,-100,4,2,1,50,0,0
19456,-100,4,2,1,5,0,0
19539,-100,4,2,1,50,0,0
21437,-100,4,2,3,50,0,0
22180,-100,4,2,1,50,0,0
24657,-100,4,2,1,55,0,0
24822,-90.9090909090909,4,2,1,60,0,0
27464,-90.9090909090909,4,2,2,70,0,0
32747,-90.9090909090909,4,2,3,50,0,0
33077,-125,4,2,3,50,0,0
42984,-125,4,2,3,60,0,0
43314,-111.111111111111,4,2,3,50,0,0
63127,-111.111111111111,4,2,2,60,0,0
63787,-111.111111111111,4,2,1,40,0,0
63952,-111.111111111111,4,2,1,50,0,0
64117,-111.111111111111,4,2,1,60,0,0
64283,-111.111111111111,4,2,1,70,0,0
64448,-83.3333333333333,4,2,1,80,0,1
84921,-83.3333333333333,4,2,1,70,0,1
85251,-83.3333333333333,4,2,1,60,0,1
85581,-125,4,2,1,50,0,0
85912,-125,4,2,3,50,0,0
90865,-125,4,2,3,40,0,0
94662,-100,4,2,3,40,0,0
95405,-100,4,2,3,55,0,0
96148,-100,4,2,1,55,0,0

[Colours]
Combo1 : 89,189,232
Combo2 : 202,142,208
Combo3 : 213,203,136

[HitObjects]
142,57,1047,6,0,L|126:143,1,80,6|0,3:1|0:0,0:0:0:0:
127,170,1294,1,0,0:0:0:0:
127,170,1377,1,8,0:2:0:0:
93,354,1624,5,0,3:2:0:0:
97,330,1707,1,8,0:2:0:0:
21,261,1872,5,2,3:2:0:0:
112,244,2037,1,10,0:2:0:0:
196,294,2202,1,2,3:2:0:0:
283,258,2367,6,0,P|315:235|361:237,1,80,2|0,0:1|3:2,0:0:0:0:
372,262,2615,1,0,0:0:0:0:
372,262,2698,2,0,L|360:353,1,80,8|2,0:3|0:3,0:0:0:0:
452,221,3028,6,0,B|428:185|408:179|408:179|422:164|425:123,2,120,8|2|8,0:3|0:3|0:3,0:0:0:0:
345,127,3688,6,0,L|216:104,1,120,2|0,3:1|0:0,0:0:0:0:
226,106,4018,1,8,0:2:0:0:
60,46,4266,5,0,3:2:0:0:
79,43,4349,2,0,P|114:52|140:97,1,80,8|2,0:2|3:2,0:0:0:0:
150,193,4679,5,10,0:2:0:0:
67,128,4844,2,0,L|77:255,1,120,2|0,3:2|0:0,0:0:0:0:
291,362,5339,6,0,B|308:296|349:339|369:268,1,120,10|8,0:2|0:2,0:0:0:0:
269,239,5670,2,0,B|334:221|317:278|389:259,1,120,10|8,0:2|0:2,0:0:0:0:
365,159,6000,2,0,B|413:207|355:220|407:273,1,120,8|0,0:3|0:0,0:0:0:0:
465,217,6330,6,0,L|483:87,1,120,2|0,3:1|0:0,0:0:0:0:
481,98,6660,1,8,0:2:0:0:
326,35,6908,5,0,3:2:0:0:
317,12,6990,1,10,0:2:0:0:
356,122,7155,2,0,P|275:104|211:154,1,160,2|2,3:2|3:2,0:0:0:0:
140,62,7651,6,0,L|148:11,1,40,2|0,0:1|3:2,0:0:0:0:
5,176,7898,5,0,0:0:0:0:
27,168,7981,2,0,P|86:170|128:212,1,120,10|0,0:2|0:0,0:0:0:0:
179,270,8311,6,0,L|169:361,1,80,2|0,3:2|0:0,0:0:0:0:
171,380,8559,1,0,3:2:0:0:
171,380,8641,1,10,0:2:0:0:
272,305,8807,5,8,0:2:0:0:
285,324,8889,1,0,3:2:0:0:
299,342,8972,2,0,B|373:362|368:267|448:298,1,160,2|8,3:1|0:2,0:0:0:0:
421,166,9550,5,8,0:2:0:0:
417,189,9632,1,2,3:2:0:0:
494,105,9797,2,0,P|425:108|378:72,1,120,2|0,3:2|0:0,0:0:0:0:
384,80,10127,1,2,3:2:0:0:
294,12,10293,5,2,0:3:0:0:
300,34,10375,1,8,0:3:0:0:
253,153,10540,5,8,0:3:0:0:
259,131,10622,1,10,0:3:0:0:
59,34,10870,5,2,0:3:0:0:
81,29,10953,2,0,B|160:20|156:65|199:54,2,120,8|8|2,0:3|0:3|0:3,0:0:0:0:
100,136,11613,5,6,3:1:0:0:
186,251,11861,1,0,3:2:0:0:
186,251,11944,1,8,0:2:0:0:
99,279,12109,2,0,L|18:264,1,80,0|0,3:0|3:2,0:0:0:0:
156,356,12439,5,2,3:2:0:0:
234,320,12604,1,10,0:2:0:0:
310,357,12769,2,0,P|366:347|386:286,1,120,2|0,3:2|0:2,0:0:0:0:
479,155,13264,6,0,L|361:132,1,120,10|0,0:2|0:0,0:0:0:0:
283,200,13595,2,0,L|361:109,1,120,8|8,0:3|0:3,0:0:0:0:
341,7,13925,2,0,L|380:120,1,120,2|0,0:3|0:0,0:0:0:0:
381,220,14255,6,0,L|420:333,1,120,2|0,3:2|3:0,0:0:0:0:
420,333,14585,1,8,0:2:0:0:
252,276,14833,5,8,0:2:0:0:
275,281,14915,1,0,3:2:0:0:
197,356,15080,2,0,P|140:305|62:324,1,160,2|2,3:2|3:2,0:0:0:0:
0,221,15576,6,0,L|42:235,1,40,2|0,0:1|0:0,0:0:0:0:
110,185,15823,5,0,3:2:0:0:
110,185,15906,1,8,0:2:0:0:
191,147,16154,5,8,0:2:0:0:
191,147,16236,1,2,3:1:0:0:
280,154,16484,5,0,3:2:0:0:
280,154,16567,1,2,3:1:0:0:
358,206,16732,5,8,0:2:0:0:
403,349,16897,2,0,B|388:265|462:277|450:203,1,160,2|8,3:1|0:2,0:0:0:0:
402,21,17475,5,8,0:2:0:0:
409,43,17557,1,0,3:2:0:0:
493,91,17722,5,2,3:2:0:0:
409,128,17887,1,2,0:2:0:0:
325,86,18053,2,0,P|278:26|196:41,1,160,2|0,3:2|0:2,0:0:0:0:
218,206,18548,6,0,B|179:195|179:195|158:163|158:163|113:151,1,120,10|0,0:2|0:0,0:0:0:0:
42,67,18878,2,0,B|52:106|52:106|34:139|34:139|47:184,1,120,10|0,0:2|3:2,0:0:0:0:
12,291,19208,2,0,B|40:262|40:262|78:260|78:260|110:227,1,120,2|0,0:0|0:0,0:0:0:0:
163,291,19539,6,0,L|286:321,1,120,2|0,3:2|0:0,0:0:0:0:
279,319,19869,1,8,0:2:0:0:
458,251,20116,5,0,3:2:0:0:
454,274,20199,1,8,0:2:0:0:
360,248,20364,2,0,B|346:167|425:185|406:100,1,160,0|2,3:2|3:2,0:0:0:0:
202,24,20942,5,0,0:0:0:0:
213,7,21024,1,0,3:2:0:0:
260,115,21190,1,8,0:2:0:0:
42,53,21437,5,0,0:0:0:0:
57,71,21520,2,0,L|42:170,1,80,8|2,0:3|0:3,0:0:0:0:
27,273,21850,5,8,0:3:0:0:
116,242,22015,1,2,0:3:0:0:
219,325,22180,6,0,P|179:329|137:336,1,80,2|0,3:2|0:0,0:0:0:0:
204,199,22510,2,0,P|243:205|283:209,1,80,8|0,0:2|0:0,0:0:0:0:
320,212,22758,1,8,0:2:0:0:
320,212,22841,1,0,3:2:0:0:
356,309,23006,1,0,3:2:0:0:
469,253,23171,5,2,0:2:0:0:
446,161,23336,2,0,P|458:81|362:29,1,200,2|0,3:2|0:0,0:0:0:0:
304,73,23831,2,0,P|243:84|196:41,1,120,10|0,0:2|0:0,0:0:0:0:
132,17,24162,2,0,P|89:25|50:64,1,80,2|0,0:2|0:0,0:0:0:0:
34,129,24409,5,8,0:3:0:0:
72,129,24492,1,10,0:3:0:0:
101,156,24574,1,8,0:3:0:0:
141,156,24657,1,8,0:3:0:0:
177,174,24739,1,8,0:3:0:0:
216,168,24822,6,0,P|177:191|160:236,1,88.000002685547,4|0,3:1|0:2,0:0:0:0:
270,314,25152,1,2,3:2:0:0:
264,292,25235,1,2,0:2:0:0:
257,270,25317,2,0,L|358:286,1,88.000002685547,2|0,0:2|3:2,0:0:0:0:
470,308,25647,1,2,0:2:0:0:
394,358,25813,1,2,3:2:0:0:
458,221,25978,5,2,0:2:0:0:
446,197,26060,1,0,0:0:0:0:
457,172,26143,2,0,L|467:106,1,44.0000013427735,2|0,3:2|0:0,0:0:0:0:
386,7,26308,2,0,L|392:50,1,44.0000013427735,2|0,0:2|0:0,0:0:0:0:
353,168,26473,6,0,L|359:124,1,44.0000013427735,2|0,3:2|0:0,0:0:0:0:
287,34,26638,2,0,L|293:77,1,44.0000013427735,2|0,0:2|0:0,0:0:0:0:
246,162,26803,5,2,3:2:0:0:
196,72,26968,1,2,0:2:0:0:
136,133,27133,5,2,3:2:0:0:
77,87,27299,1,2,0:2:0:0:
134,212,27464,6,0,B|148:253|148:253|111:335|111:335|125:377,1,176.000005371094,4|0,3:1|3:2,0:0:0:0:
62,252,27959,1,2,0:3:0:0:
198,336,28124,2,0,L|244:356,1,44.0000013427735,0|0,1:2|0:2,0:0:0:0:
319,225,28289,2,0,L|273:245,1,44.0000013427735,0|0,3:2|0:0,0:0:0:0:
427,334,28454,5,2,0:3:0:0:
417,253,28619,1,0,3:0:0:0:
406,171,28785,1,2,0:3:0:0:
433,65,28950,6,0,P|405:78|374:96,1,44.0000013427735,2|0,3:2|0:2,0:0:0:0:
315,0,29115,2,0,P|297:25|279:56,1,44.0000013427735,0|0,3:2|0:0,0:0:0:0:
51,89,29445,6,0,B|61:81|76:76|76:76|90:79|106:88|106:88|120:88|135:80,1,88.000002685547,2|0,1:2|0:2,0:0:0:0:
203,116,29693,1,0,1:2:0:0:
203,116,29775,2,0,L|192:169,1,44.0000013427735,2|0,0:0|0:2,0:0:0:0:
75,260,29940,2,0,L|66:303,1,44.0000013427735,0|0,1:2|0:2,0:0:0:0:
53,186,30105,6,0,B|142:164|126:250|214:233,1,176.000005371094,2|0,3:2|3:0,0:0:0:0:
365,193,30601,1,2,0:3:0:0:
299,121,30766,6,0,P|287:145|278:178,1,44.0000013427735,0|0,1:2|0:2,0:0:0:0:
342,312,30931,2,0,P|334:291|324:271,1,44.0000013427735,2|0,3:2|0:0,0:0:0:0:
153,257,31096,2,0,P|174:255|201:247,1,44.0000013427735,2|0,0:3|0:0,0:0:0:0:
194,363,31261,6,0,L|215:215,1,132.00000402832,2|0,3:2|0:0,0:0:0:0:
178,77,31674,5,0,3:2:0:0:
153,86,31756,2,0,L|165:23,2,44.0000013427735,0|0|2,1:2|3:0|3:3,0:0:0:0:
85,132,32004,6,0,P|76:110|63:91,1,44.0000013427735,0|2,3:0|3:2,0:0:0:0:
156,180,32169,2,0,P|175:164|197:154,1,44.0000013427735,0|0,3:3|3:0,0:0:0:0:
80,213,32334,5,2,0:3:0:0:
72,238,32417,1,2,1:2:0:0:
65,263,32499,1,0,1:0:0:0:
58,288,32582,1,0,1:0:0:0:
51,313,32665,1,0,1:2:0:0:
45,338,32747,5,4,0:1:0:0:
45,338,33242,5,2,0:0:0:0:
129,308,33573,1,2,0:3:0:0:
212,275,33903,5,2,0:2:0:0:
261,331,34068,1,2,0:2:0:0:
334,349,34233,1,2,0:3:0:0:
409,331,34398,2,0,P|441:280|422:211,2,128,8|2|2,0:3|0:2|0:2,0:0:0:0:
447,64,35389,5,0,0:2:0:0:
383,104,35554,1,2,0:3:0:0:
306,93,35719,1,2,0:3:0:0:
249,44,35884,2,0,P|188:29|122:58,1,128,2|2,0:3|0:2,0:0:0:0:
18,312,36545,5,2,0:3:0:0:
29,236,36710,1,8,0:3:0:0:
86,183,36875,1,2,0:3:0:0:
161,162,37040,1,2,0:3:0:0:
126,349,37370,5,2,0:3:0:0:
198,327,37535,1,8,0:3:0:0:
254,277,37700,1,2,0:3:0:0:
283,206,37865,1,2,0:3:0:0:
279,132,38031,5,2,0:3:0:0:
304,205,38196,1,0,0:2:0:0:
373,239,38361,1,8,0:3:0:0:
453,245,38526,2,0,B|469:170|405:191|423:117,1,128,2|2,0:2|0:2,0:0:0:0:
101,27,39186,5,2,0:3:0:0:
161,72,39351,1,8,0:3:0:0:
236,86,39517,1,2,0:3:0:0:
310,63,39682,2,0,P|264:100|253:176,2,128,8|8|2,0:3|0:3|0:3,0:0:0:0:
386,345,40672,5,2,0:3:0:0:
406,271,40837,1,2,0:2:0:0:
386,196,41002,1,8,0:3:0:0:
333,143,41168,2,0,P|392:166|476:171,1,128,2|2,0:2|0:2,0:0:0:0:
225,326,41828,5,2,0:2:0:0:
161,287,41993,1,2,0:3:0:0:
96,326,42158,1,0,0:0:0:0:
39,276,42323,1,2,0:3:0:0:
134,118,42654,5,8,0:3:0:0:
80,59,42819,1,2,0:3:0:0:
149,20,42984,1,2,0:3:0:0:
203,79,43149,1,2,0:0:0:0:
254,145,43314,6,0,L|342:164,1,71.9999978027344,0|0,3:2|0:0,0:0:0:0:
434,122,43644,1,2,0:2:0:0:
434,122,43809,2,0,P|458:150|462:192,1,71.9999978027344,2|0,0:2|1:2,0:0:0:0:
345,237,44140,2,0,P|357:202|391:177,1,71.9999978027344,2|2,0:2|0:3,0:0:0:0:
410,298,44470,6,0,L|243:263,1,143.999995605469,2|2,3:2|0:3,0:0:0:0:
150,242,44965,2,0,P|178:264|194:305,1,71.9999978027344,2|0,3:2|3:2,0:0:0:0:
101,384,45295,2,0,L|118:300,1,71.9999978027344,2|0,1:2|0:0,0:0:0:0:
21,328,45625,2,0,L|38:244,1,71.9999978027344,2|0,0:2|0:0,0:0:0:0:
1,144,45956,6,0,P|32:161|77:156,1,71.9999978027344,2|0,3:2|0:0,0:0:0:0:
129,86,46286,1,2,0:2:0:0:
129,86,46451,2,0,L|119:11,1,71.9999978027344,2|0,0:2|1:2,0:0:0:0:
209,137,46781,2,0,L|219:62,1,71.9999978027344,2|0,0:2|0:2,0:0:0:0:
154,206,47111,6,0,P|212:168|283:186,1,143.999995605469,2|0,3:2|0:2,0:0:0:0:
378,114,47607,2,0,L|307:96,1,71.9999978027344,0|0,3:2|3:2,0:0:0:0:
368,210,47937,2,0,L|437:192,1,71.9999978027344,0|0,1:2|0:0,0:0:0:0:
389,322,48267,5,2,0:2:0:0:
320,283,48432,1,2,0:2:0:0:
213,352,48597,2,0,L|121:372,1,71.9999978027344,2|0,3:2|0:0,0:0:0:0:
70,291,48928,1,2,0:2:0:0:
70,291,49093,2,0,P|41:267|-7:269,1,71.9999978027344,2|0,0:2|1:2,0:0:0:0:
164,201,49423,2,0,L|148:271,1,71.9999978027344,2|0,0:2|0:2,0:0:0:0:
244,153,49753,6,0,P|189:110|119:117,1,143.999995605469,2|2,3:2|0:3,0:0:0:0:
9,66,50248,2,0,P|44:67|75:50,1,71.9999978027344,2|0,3:2|3:2,0:0:0:0:
174,3,50579,2,0,P|210:5|241:26,1,71.9999978027344,2|0,1:2|0:0,0:0:0:0:
310,91,50909,2,0,P|342:106|391:103,1,71.9999978027344,2|0,0:2|0:0,0:0:0:0:
471,0,51239,6,0,L|452:79,1,71.9999978027344,2|0,3:2|0:0,0:0:0:0:
512,166,51569,1,2,0:2:0:0:
512,166,51734,2,0,P|473:163|441:185,1,71.9999978027344,2|0,0:2|1:2,0:0:0:0:
347,189,52065,2,0,P|363:224|398:240,1,71.9999978027344,2|0,0:2|0:2,0:0:0:0:
438,329,52395,6,0,P|387:286|310:310,1,143.999995605469,2|2,3:2|0:3,0:0:0:0:
243,354,52890,1,2,3:3:0:0:
150,375,53055,1,0,3:0:0:0:
72,322,53220,1,0,1:2:0:0:
267,230,53551,5,2,0:2:0:0:
193,257,53716,1,2,0:2:0:0:
136,153,53881,2,0,L|220:177,1,71.9999978027344,2|0,3:2|0:0,0:0:0:0:
47,247,54211,1,2,0:2:0:0:
47,247,54376,2,0,P|41:211|56:177,1,71.9999978027344,2|0,0:2|1:2,0:0:0:0:
13,93,54706,2,0,P|26:60|20:25,1,71.9999978027344,2|0,0:2|0:2,0:0:0:0:
115,54,55037,6,0,L|274:74,1,143.999995605469,2|0,3:2|0:2,0:0:0:0:
392,23,55532,2,0,P|362:39|323:35,1,71.9999978027344,2|0,3:2|3:2,0:0:0:0:
436,91,55862,2,0,P|466:75|505:79,1,71.9999978027344,2|0,1:2|0:0,0:0:0:0:
472,225,56192,2,0,L|484:145,1,71.9999978027344,2|0,0:2|0:0,0:0:0:0:
328,136,56523,6,0,P|364:152|381:187,1,71.9999978027344,2|0,3:2|0:0,0:0:0:0:
418,290,56853,1,2,0:2:0:0:
418,290,57018,2,0,L|338:274,1,71.9999978027344,2|0,0:2|1:2,0:0:0:0:
265,371,57348,2,0,L|250:300,1,71.9999978027344,2|0,0:2|0:2,0:0:0:0:
268,207,57678,6,0,B|178:184|189:256|118:240,1,143.999995605469,2|2,3:2|0:3,0:0:0:0:
106,326,58174,2,0,P|114:291|100:246,1,71.9999978027344,2|0,3:3|3:2,0:0:0:0:
33,193,58504,2,0,P|25:158|39:113,1,71.9999978027344,0|0,1:2|0:0,0:0:0:0:
92,3,58834,5,2,0:2:0:0:
128,71,58999,1,2,0:2:0:0:
113,159,59164,2,0,L|197:146,1,71.9999978027344,2|0,3:2|0:0,0:0:0:0:
263,16,59494,1,2,0:2:0:0:
263,16,59660,2,0,L|252:100,1,71.9999978027344,2|0,0:2|1:2,0:0:0:0:
325,173,59990,2,0,L|334:101,1,71.9999978027344,2|0,0:2|0:2,0:0:0:0:
399,23,60320,6,0,P|464:37|499:118,1,143.999995605469,2|2,3:2|0:3,0:0:0:0:
402,182,60815,2,0,P|435:170|477:177,1,71.9999978027344,2|0,3:2|3:2,0:0:0:0:
435,285,61146,2,0,P|399:289|366:277,1,71.9999978027344,2|0,1:2|0:0,0:0:0:0:
249,202,61476,2,0,P|213:206|184:227,1,71.9999978027344,2|0,0:2|0:0,0:0:0:0:
120,384,61806,6,0,L|102:299,1,71.9999978027344,2|0,3:2|0:0,0:0:0:0:
15,253,62136,2,0,L|41:170,1,71.9999978027344,2|2,0:2|0:3,0:0:0:0:
0,82,62466,2,0,L|64:23,1,71.9999978027344,2|0,1:2|0:2,0:0:0:0:
130,178,62797,2,0,L|108:109,1,71.9999978027344,2|0,0:2|0:2,0:0:0:0:
187,34,63127,5,0,1:2:0:0:
243,64,63237,5,0,1:2:0:0:
302,45,63347,6,0,L|296:11,2,23.9999992675781,8|2|8,0:3|0:3|0:3,0:0:0:0:
354,83,63567,6,0,L|358:106,2,23.9999992675781,2|2|0,0:3|0:3|1:2,0:0:0:0:
396,37,63787,5,2,0:1:0:0:
422,155,63952,1,2,0:1:0:0:
446,274,64117,1,2,0:1:0:0:
501,141,64283,1,2,0:1:0:0:
439,294,64448,6,0,B|422:297|399:292|399:292|369:309|346:332|346:332|319:328|302:312,1,143.999995605469,14|0,3:1|0:2,0:0:0:0:
311,319,64778,1,2,1:2:0:0:
238,177,64943,2,0,P|245:131|267:75,1,95.9999970703126,2|0,0:2|3:2,0:0:0:0:
161,280,65273,2,0,P|153:327|137:372,1,95.9999970703126,2|0,0:2|1:2,0:0:0:0:
81,153,65603,5,2,0:2:0:0:
42,294,65769,1,2,3:2:0:0:
56,180,65934,1,2,0:2:0:0:
248,258,66099,6,0,P|298:267|343:282,1,95.9999970703126,2|0,1:1|0:0,0:0:0:0:
459,366,66429,2,0,P|441:318|432:271,1,95.9999970703126,2|2,3:1|0:2,0:0:0:0:
478,66,66759,2,0,P|445:104|409:136,1,95.9999970703126,2|2,1:1|0:2,0:0:0:0:
340,281,67089,6,0,P|331:209|295:137,1,143.999995605469,2|0,3:1|0:2,0:0:0:0:
300,144,67420,1,2,1:2:0:0:
135,179,67585,2,0,P|176:189|233:210,1,95.9999970703126,2|0,0:2|3:2,0:0:0:0:
352,34,67915,2,0,P|306:50|260:62,1,95.9999970703126,2|0,0:2|1:2,0:0:0:0:
39,76,68245,5,2,0:1:0:0:
43,97,68328,1,2,0:1:0:0:
48,117,68410,2,0,P|93:126|139:152,1,95.9999970703126,2|2,3:1|0:1,0:0:0:0:
208,228,68741,1,2,1:1:0:0:
240,149,68906,1,2,0:1:0:0:
88,338,69071,2,0,P|130:317|186:309,1,95.9999970703126,2|2,3:1|0:2,0:0:0:0:
337,358,69401,5,2,1:1:0:0:
300,228,69566,1,2,3:1:0:0:
512,264,69731,2,0,B|481:304|435:316|435:316|413:309|387:268,1,143.999995605469,6|0,3:2|0:2,0:0:0:0:
398,285,70061,1,2,1:2:0:0:
322,152,70226,2,0,P|361:171|416:177,1,95.9999970703126,2|0,0:2|3:2,0:0:0:0:
512,57,70557,2,0,P|473:76|418:82,1,95.9999970703126,2|0,0:2|1:2,0:0:0:0:
234,7,70887,5,2,0:2:0:0:
311,131,71052,1,2,3:2:0:0:
224,29,71217,1,2,0:2:0:0:
84,124,71382,6,0,P|132:116|193:111,1,95.9999970703126,2|0,1:1|0:0,0:0:0:0:
347,42,71712,2,0,P|329:87|303:142,1,95.9999970703126,2|2,3:1|0:2,0:0:0:0:
322,359,72043,2,0,P|291:321|256:271,1,95.9999970703126,2|2,1:1|0:2,0:0:0:0:
57,200,72373,6,0,B|146:173|146:233|198:216,1,143.999995605469,2|0,3:1|0:2,0:0:0:0:
194,217,72703,1,2,1:2:0:0:
240,55,72868,2,0,P|198:84|181:140,1,95.9999970703126,2|0,0:2|3:0,0:0:0:0:
307,232,73198,2,0,P|302:181|262:139,1,95.9999970703126,2|0,0:2|1:2,0:0:0:0:
146,357,73529,5,2,0:1:0:0:
197,222,73694,1,2,3:1:0:0:
133,338,73859,1,2,0:1:0:0:
346,324,74024,5,2,1:1:0:0:
285,377,74189,1,2,0:1:0:0:
322,247,74354,1,2,3:1:0:0:
427,333,74519,1,2,0:1:0:0:
241,301,74684,5,2,1:1:0:0:
307,232,74849,1,2,3:1:0:0:
130,360,75015,2,0,B|131:313|100:266|100:266|110:242|122:229,1,143.999995605469,14|0,3:1|0:2,0:0:0:0:
122,229,75345,1,2,1:2:0:0:
1,118,75510,2,0,P|45:135|92:144,1,95.9999970703126,2|0,0:2|3:2,0:0:0:0:
201,17,75840,2,0,P|183:61|174:108,1,95.9999970703126,2|0,0:2|1:2,0:0:0:0:
243,320,76170,5,2,0:2:0:0:
215,188,76335,1,2,3:2:0:0:
253,298,76501,1,2,0:2:0:0:
310,56,76666,6,0,P|377:80|448:93,1,143.999995605469,2|0,1:1|0:2,0:0:0:0:
448,93,76996,1,2,3:1:0:0:
338,158,77161,1,2,0:2:0:0:
467,318,77326,2,0,P|453:269|448:217,1,95.9999970703126,2|2,1:1|0:2,0:0:0:0:
245,275,77656,6,0,P|294:279|357:296,1,95.9999970703126,10|0,3:1|0:0,0:0:0:0:
135,126,77987,1,2,1:0:0:0:
226,64,78152,2,0,P|239:109|260:153,1,95.9999970703126,2|0,0:1|3:0,0:0:0:0:
81,296,78482,2,0,P|113:261|141:221,1,95.9999970703126,2|2,0:1|1:2,0:0:0:0:
321,86,78812,6,0,B|414:60|407:158|500:132,1,191.999994140625,2|2,0:1|0:2,0:0:0:0:
477,38,79307,1,2,1:2:0:0:
346,178,79472,2,0,P|408:110|496:131,1,191.999994140625,2|2,0:2|0:2,0:0:0:0:
497,284,79968,5,2,1:1:0:0:
438,200,80133,1,2,3:1:0:0:
303,339,80298,2,0,P|349:343|412:357,1,95.9999970703126,6|0,3:2|0:0,0:0:0:0:
267,196,80628,1,2,1:2:0:0:
216,277,80793,2,0,P|212:323|198:386,1,95.9999970703126,2|0,0:2|3:2,0:0:0:0:
156,200,81124,2,0,P|160:154|174:91,1,95.9999970703126,2|2,0:1|1:2,0:0:0:0:
0,299,81454,6,0,P|47:292|88:253,1,95.9999970703126,2|0,0:1|3:0,0:0:0:0:
41,91,81784,1,2,0:2:0:0:
18,213,81949,1,2,1:2:0:0:
53,103,82114,1,2,0:2:0:0:
156,200,82279,2,0,P|196:173|258:177,1,95.9999970703126,2|2,3:2|0:2,0:0:0:0:
382,146,82610,5,2,1:1:0:0:
308,244,82775,1,2,3:1:0:0:
333,32,82940,2,0,P|379:56|444:68,1,95.9999970703126,10|0,3:1|0:0,0:0:0:0:
418,266,83270,1,2,1:2:0:0:
380,175,83435,2,0,P|426:151|491:139,1,95.9999970703126,2|0,0:2|3:2,0:0:0:0:
385,357,83765,2,0,P|340:340|284:333,1,95.9999970703126,2|0,0:1|1:2,0:0:0:0:
59,370,84095,6,0,B|42:268|132:304|117:198,1,191.999994140625,2|2,0:1|0:2,0:0:0:0:
0,111,84591,2,0,P|9:160|26:207,1,95.9999970703126,2|2,1:2|0:2,0:0:0:0:
238,333,84921,2,0,P|192:336|131:354,1,95.9999970703126,2|2,3:2|0:2,0:0:0:0:
224,64,85251,2,0,P|200:107|185:164,1,95.9999970703126,2|2,1:2|0:2,0:0:0:0:
298,218,85581,6,0,L|283:132,1,64,2|0,0:2|0:0,0:0:0:0:
328,73,85912,1,8,0:2:0:0:
328,73,86077,2,0,P|351:95|392:105,1,64,2|2,0:3|0:3,0:0:0:0:
442,167,86407,2,0,P|473:171|505:190,2,64,0|0|8,3:3|3:3|0:0,0:0:0:0:
359,237,86902,5,2,0:3:0:0:
359,237,86985,1,8,0:3:0:0:
359,237,87067,1,2,3:0:0:0:
429,302,87233,1,8,0:0:0:0:
329,362,87398,5,2,0:3:0:0:
329,362,87480,1,8,0:3:0:0:
329,362,87563,1,2,0:3:0:0:
238,336,87728,1,2,3:0:0:0:
157,374,87893,1,8,0:0:0:0:
183,280,88058,5,2,0:3:0:0:
183,280,88141,1,8,0:3:0:0:
183,280,88223,2,0,L|192:230,1,32,2|0,0:3|0:0,0:0:0:0:
136,197,88388,2,0,L|127:147,1,32,2|8,0:3|0:3,0:0:0:0:
188,112,88553,1,2,3:0:0:0:
159,18,88718,1,8,0:3:0:0:
201,97,88884,5,8,0:0:0:0:
280,51,89049,1,2,3:0:0:0:
280,51,89131,1,8,0:0:0:0:
370,47,89296,1,2,0:3:0:0:
370,47,89379,1,2,3:0:0:0:
370,47,89874,6,0,L|355:131,1,64,8|2,0:0|0:3,0:0:0:0:
421,216,90204,1,2,3:0:0:0:
445,102,90370,1,0,3:0:0:0:
355,143,90535,1,2,0:0:0:0:
355,143,90617,1,0,3:0:0:0:
268,172,90782,5,2,0:0:0:0:
268,172,90865,2,0,P|252:141|226:124,1,64,0|0,3:0|3:0,0:0:0:0:
125,106,91195,1,8,0:0:0:0:
191,201,91360,1,2,0:3:0:0:
191,201,91443,1,2,0:3:0:0:
191,201,91525,1,2,0:3:0:0:
132,283,91690,5,0,3:0:0:0:
195,356,91856,1,2,0:3:0:0:
284,326,92021,1,8,0:0:0:0:
282,339,92351,5,2,3:0:0:0:
380,356,92516,1,8,0:0:0:0:
438,286,92681,1,2,0:3:0:0:
438,286,92764,1,8,0:3:0:0:
438,286,92846,2,0,L|443:240,1,32,2|0,0:3|0:0,0:0:0:0:
401,178,93011,2,0,L|405:138,1,32,2|0,3:0|0:0,0:0:0:0:
466,79,93176,1,8,0:0:0:0:
466,79,93507,6,0,L|506:84,2,32,2|2|2,0:3|0:3|0:3,0:0:0:0:
401,17,93837,1,0,3:0:0:0:
318,44,94002,1,8,0:3:0:0:
221,19,94167,5,8,0:0:0:0:
221,19,94250,1,2,0:3:0:0:
135,55,94415,1,8,0:0:0:0:
135,55,94497,1,2,3:0:0:0:
68,115,94662,6,0,B|121:136|121:136|143:204,1,120,0|8,3:0|0:3,0:0:0:0:
215,190,94993,6,0,B|215:230|215:230|175:263,1,80,2|2,0:3|0:3,0:0:0:0:
227,321,95240,6,0,B|192:340|192:340|143:323,1,80,8|2,0:3|0:3,0:0:0:0:
184,255,95488,5,8,0:3:0:0:
226,234,95570,1,2,0:3:0:0:
270,254,95653,1,8,0:3:0:0:
315,237,95736,1,2,0:3:0:0:
360,252,95818,6,0,B|372:216,6,26.6666666666667,8|8|8|8|8|8|8,0:3|0:3|0:3|0:3|0:3|0:3|3:1,0:0:0:0:
