osu file format v14

[General]
AudioFilename: audio.mp3
AudioLeadIn: 0
PreviewTime: 63705
Countdown: 0
SampleSet: Soft
StackLeniency: 0.4
Mode: 0
LetterboxInBreaks: 0
WidescreenStoryboard: 1

[Editor]
Bookmarks: 24822,32747,63567
DistanceSpacing: 1.2
BeatDivisor: 4
GridSize: 32
TimelineZoom: 1.650001

[Metadata]
Title:W-P.NEURONS (Cut Ver.)
TitleUnicode:W-P.NEURONS (Cut Ver.)
Artist:Hayato Asano
ArtistUnicode:浅野隼人
Creator:Asaiga
Version:Hard
Source:ブルー リフレクション 帝/タイ
Tags:LMT Hikan Ducky- GanyuMyMommy Nytrocide_ Blue Reflection Tie Second Light Gust Koei Tecmo Games battle theme 渡邉俊彦 Toshihiko Watanabe electronic instrumental
BeatmapID:3313422
BeatmapSetID:1622821

[Difficulty]
HPDrainRate:4.5
CircleSize:3.5
OverallDifficulty:6.5
ApproachRate:7.8
SliderMultiplier:1.4
SliderTickRate:1

[Events]
//Background and Video events
0,0,"bururifurii.jpg",0,0
//Break Periods
//Storyboard Layer 0 (Background)
//Storyboard Layer 1 (Fail)
//Storyboard Layer 2 (Pass)
//Storyboard Layer 3 (Foreground)
//Storyboard Layer 4 (Overlay)
//Storyboard Sound Samples

[TimingPoints]
1047,330.214639515685,4,2,1,50,1,0
1047,-100,4,2,1,50,0,0
2698,-100,4,2,3,50,0,0
3688,-100,4,2,1,50,0,0
5587,-100,4,2,1,50,0,0
5670,-100,4,2,1,50,0,0
5917,-100,4,2,1,50,0,0
6000,-100,4,2,3,50,0,0
6165,-100,4,2,1,50,0,0
6247,-100,4,2,1,50,0,0
6330,-100,4,2,1,50,0,0
10623,-100,4,2,3,50,0,0
11613,-100,4,2,1,50,0,0
13512,-100,4,2,1,50,0,0
13595,-100,4,2,3,50,0,0
13842,-100,4,2,3,50,0,0
13925,-100,4,2,3,50,0,0
14173,-100,4,2,3,50,0,0
14255,-100,4,2,1,50,0,0
18630,-100,4,2,3,50,0,0
18796,-100,4,2,3,50,0,0
18878,-100,4,2,1,50,0,0
19126,-100,4,2,1,50,0,0
19208,-100,4,2,1,50,0,0
19456,-100,4,2,1,50,0,0
19539,-100,4,2,1,50,0,0
21355,-100,4,2,3,50,0,0
22180,-100,4,2,1,50,0,0
24657,-100,4,2,1,55,0,0
24822,-100,4,2,1,60,0,0
27464,-100,4,2,2,70,0,0
32747,-100,4,2,3,50,0,0
33077,-125,4,2,3,50,0,0
42984,-125,4,2,3,60,0,0
43314,-111.111111111111,4,2,3,50,0,0
63127,-111.111111111111,4,2,2,60,0,0
63787,-111.111111111111,4,2,1,40,0,0
63952,-111.111111111111,4,2,1,50,0,0
64117,-111.111111111111,4,2,1,60,0,0
64283,-111.111111111111,4,2,1,70,0,0
64448,-90.9090909090909,4,2,1,80,0,1
84921,-90.9090909090909,4,2,1,70,0,1
85251,-90.9090909090909,4,2,1,60,0,1
85581,-111.111111111111,4,2,1,50,0,0
85912,-111.111111111111,4,2,3,50,0,0
90865,-111.111111111111,4,2,3,40,0,0
94662,-100,4,2,3,40,0,0
95405,-100,4,2,3,55,0,0
96148,-100,4,2,1,55,0,0

[Colours]
Combo1 : 89,189,232
Combo2 : 202,142,208
Combo3 : 213,203,136

[HitObjects]
469,84,1047,6,0,P|424:59|365:74,1,105,6|0,3:1|0:0,0:0:0:0:
358,83,1377,1,8,0:2:0:0:
316,223,1624,1,0,3:2:0:0:
305,241,1707,1,8,0:2:0:0:
233,191,1872,2,0,P|206:175|165:175,2,70,2|10|2,3:2|0:2|3:2,0:0:0:0:
305,241,2367,6,0,P|365:267|437:242,1,140,0|8,0:0|0:3,0:0:0:0:
300,349,3028,2,0,B|256:323|256:323|203:335,2,105,8|2|8,0:3|0:3|0:3,0:0:0:0:
305,241,3688,6,0,B|290:187|340:206|315:127,1,105,2|0,3:1|0:0,0:0:0:0:
325,113,4018,1,8,0:2:0:0:
159,42,4266,1,0,3:2:0:0:
163,21,4349,2,0,P|196:27|225:59,1,70,8|2,0:2|3:2,0:0:0:0:
239,134,4679,1,10,0:2:0:0:
157,156,4844,2,0,P|93:157|34:229,1,140,2|0,3:2|3:2,0:0:0:0:
18,288,5339,5,10,0:2:0:0:
170,359,5670,1,10,0:2:0:0:
285,236,6000,1,0,0:0:0:0:
440,303,6330,6,0,L|459:178,1,105,2|0,3:1|0:0,0:0:0:0:
476,186,6660,1,8,0:2:0:0:
456,62,6908,1,0,3:2:0:0:
461,42,6990,1,10,0:2:0:0:
374,100,7155,2,0,P|313:120|249:68,1,140,2|2,3:2|3:2,0:0:0:0:
182,36,7651,5,2,0:1:0:0:
28,104,7981,2,0,P|59:121|78:163,1,70,10|0,0:2|0:0,0:0:0:0:
92,232,8311,2,0,P|135:287|209:282,1,140,2|10,3:2|0:2,0:0:0:0:
275,345,8807,5,8,0:2:0:0:
275,345,8889,1,0,3:2:0:0:
275,345,8972,2,0,B|333:305|333:305|404:324,1,140,2|8,3:1|0:2,0:0:0:0:
494,184,9632,1,2,3:2:0:0:
432,127,9797,2,0,P|448:69|459:48,1,70,2|10,3:2|0:2,0:0:0:0:
379,18,10127,2,0,P|315:50|245:23,1,140,2|2,3:2|0:2,0:0:0:0:
174,61,10623,6,0,L|188:129,1,70,8|0,0:3|0:0,0:0:0:0:
117,173,10953,2,0,P|75:147|8:154,2,105,8|8|2,0:3|0:3|0:3,0:0:0:0:
190,213,11613,5,6,3:1:0:0:
117,318,11861,1,0,3:2:0:0:
109,338,11944,2,0,P|78:318|38:321,2,70,8|0|0,0:2|0:0|3:2,0:0:0:0:
191,357,12439,1,2,3:2:0:0:
268,324,12604,1,10,0:2:0:0:
334,374,12769,2,0,P|326:294|312:227,1,140,2|0,3:2|0:0,0:0:0:0:
325,152,13264,5,10,0:2:0:0:
203,35,13595,1,8,0:3:0:0:
56,116,13925,1,2,0:3:0:0:
101,279,14255,6,0,L|268:256,1,140,2|8,3:2|0:2,0:0:0:0:
304,117,14833,1,8,0:2:0:0:
294,141,14916,1,0,3:2:0:0:
362,193,15080,2,0,L|505:220,1,140,2|2,3:2|3:2,0:0:0:0:
456,291,15576,5,2,0:1:0:0:
456,291,15906,1,8,0:2:0:0:
315,335,16236,1,2,3:1:0:0:
456,291,16567,5,2,0:1:0:0:
373,274,16732,1,8,0:2:0:0:
315,335,16897,2,0,P|255:353|187:284,2,140,2|8|0,3:1|0:2|3:2,0:0:0:0:
373,274,17722,5,2,3:2:0:0:
357,191,17887,1,2,0:2:0:0:
337,108,18053,2,0,P|412:111|456:63,1,140,2|0,3:2|0:2,0:0:0:0:
378,32,18548,5,10,0:2:0:0:
211,54,18878,1,10,0:2:0:0:
44,77,19208,1,0,0:0:0:0:
5,240,19539,6,0,P|58:247|101:289,1,105,2|0,3:2|0:0,0:0:0:0:
112,299,19869,1,0,0:2:0:0:
225,210,20116,1,0,3:2:0:0:
221,190,20199,1,8,0:2:0:0:
307,233,20364,2,0,P|336:276|323:335,1,105,0|0,3:2|0:0,0:0:0:0:
343,365,20694,2,0,P|383:309|461:285,1,140,2|0,3:2|3:2,0:0:0:0:
398,208,21190,1,8,0:2:0:0:
447,47,21520,1,8,0:3:0:0:
362,192,21850,5,0,0:0:0:0:
300,134,22015,1,2,0:3:0:0:
235,79,22180,2,0,P|202:83|159:115,1,70,2|0,3:2|0:0,0:0:0:0:
87,94,22510,2,0,P|94:56|81:17,1,70,8|0,0:2|0:0,0:0:0:0:
10,64,22841,1,0,3:2:0:0:
10,64,23006,1,0,3:2:0:0:
27,146,23171,5,2,0:2:0:0:
50,226,23336,2,0,P|118:215|181:267,1,140,2|0,3:2|0:2,0:0:0:0:
232,313,23831,2,0,L|311:294,1,70,10|0,0:2|0:0,0:0:0:0:
353,362,24162,1,2,0:2:0:0:
484,324,24409,5,8,0:3:0:0:
484,324,24492,1,10,0:3:0:0:
484,324,24574,1,8,0:3:0:0:
484,324,24657,1,8,0:3:0:0:
484,324,24739,1,8,0:3:0:0:
484,324,24822,6,0,P|494:249|509:181,1,140,4|2,3:1|3:2,0:0:0:0:
368,92,25482,2,0,P|364:58|349:8,2,70,0|2|2,3:2|0:2|3:2,0:0:0:0:
292,130,25978,6,0,P|237:88|144:105,1,140,2|2,0:2|0:2,0:0:0:0:
99,138,26473,1,2,3:2:0:0:
67,215,26638,1,2,0:2:0:0:
83,297,26803,2,0,L|159:278,1,70,2|2,3:2|0:2,0:0:0:0:
198,210,27133,2,0,L|277:228,1,70,2|2,3:2|0:2,0:0:0:0:
318,291,27464,6,0,B|303:244|303:244|319:203|319:203|308:155,1,140,4|0,3:1|3:2,0:0:0:0:
362,93,27959,2,0,L|386:50,2,35,2|2|0,0:3|0:3|1:2,0:0:0:0:
280,72,28289,1,0,3:2:0:0:
226,136,28454,2,0,L|145:105,2,70,0|0|0,0:0|3:0|0:0,0:0:0:0:
308,157,28950,5,2,3:2:0:0:
366,217,29115,2,0,P|401:203|435:206,1,70,0|0,3:2|0:0,0:0:0:0:
504,249,29445,2,0,L|489:362,1,105,2|0,1:2|1:2,0:0:0:0:
460,323,29775,2,0,B|423:321|423:321|394:339,1,70,2|0,0:0|1:2,0:0:0:0:
311,338,30105,6,0,B|297:271|366:283|349:209,1,140,2|0,3:2|0:0,0:0:0:0:
265,219,30601,2,0,P|257:182|276:142,1,70,0|0,0:0|1:2,0:0:0:0:
319,87,30931,1,2,3:2:0:0:
277,13,31096,1,2,0:3:0:0:
205,56,31261,2,0,P|158:102|87:90,1,140,2|0,3:2|0:0,0:0:0:0:
5,90,31756,6,0,P|6:128|18:170,1,70,0|2,1:2|0:3,0:0:0:0:
88,198,32087,2,0,P|100:235|101:285,1,70,2|2,3:2|0:3,0:0:0:0:
76,345,32417,2,0,L|30:340,2,35,2|0|0,1:2|0:0|1:0,0:0:0:0:
153,376,32747,5,4,0:1:0:0:
284,223,33242,5,0,0:0:0:0:
284,223,33573,1,2,0:3:0:0:
284,223,33903,5,2,0:2:0:0:
267,288,34068,1,2,0:2:0:0:
331,306,34233,1,2,0:3:0:0:
351,241,34398,2,0,P|400:211|477:209,2,112,8|2|2,0:3|0:2|0:2,0:0:0:0:
324,109,35389,5,0,0:2:0:0:
273,153,35554,1,2,0:3:0:0:
234,97,35719,1,2,0:3:0:0:
176,132,35884,2,0,P|124:132|80:88,1,112,2|2,0:3|0:2,0:0:0:0:
18,211,36545,5,2,0:3:0:0:
43,273,36710,1,8,0:3:0:0:
104,299,36875,1,2,0:3:0:0:
170,293,37040,1,2,0:3:0:0:
284,363,37370,5,2,0:3:0:0:
324,309,37535,1,8,0:3:0:0:
389,294,37700,1,2,0:3:0:0:
455,304,37865,1,2,0:3:0:0:
499,354,38031,5,2,0:3:0:0:
439,322,38196,1,0,0:2:0:0:
425,256,38361,1,8,0:3:0:0:
460,198,38526,2,0,P|480:148|453:89,1,112,2|2,0:2|0:2,0:0:0:0:
346,24,39186,5,2,0:3:0:0:
279,30,39351,1,8,0:3:0:0:
261,95,39517,1,2,0:3:0:0:
199,121,39682,2,0,P|167:79|94:72,2,112,8|8|2,0:3|0:3|0:3,0:0:0:0:
181,254,40672,5,2,0:3:0:0:
119,280,40837,1,2,0:2:0:0:
159,333,41002,1,8,0:3:0:0:
220,304,41168,2,0,P|269:305|322:346,1,112,2|2,0:2|0:2,0:0:0:0:
443,292,41828,5,2,0:2:0:0:
460,227,41993,1,2,0:3:0:0:
464,159,42158,1,0,0:0:0:0:
491,97,42323,1,2,0:3:0:0:
384,15,42654,5,8,0:3:0:0:
364,90,42819,1,2,0:3:0:0:
344,165,42984,1,2,0:3:0:0:
324,240,43149,1,0,0:0:0:0:
266,173,43314,5,0,3:2:0:0:
237,79,43644,1,2,0:2:0:0:
237,79,43809,1,2,0:2:0:0:
143,39,44140,1,2,0:2:0:0:
41,47,44470,1,2,3:2:0:0:
102,185,44965,6,0,P|45:191|4:254,2,125.999996154785,2|2|2,3:2|1:2|0:2,0:0:0:0:
188,236,45956,5,2,3:2:0:0:
248,316,46286,1,2,0:2:0:0:
248,316,46451,1,2,0:2:0:0:
329,256,46781,1,2,0:2:0:0:
395,331,47111,1,2,3:2:0:0:
473,201,47607,5,0,3:2:0:0:
459,101,47937,1,0,1:2:0:0:
392,33,48267,1,2,0:0:0:0:
392,33,48432,1,2,0:2:0:0:
392,33,48597,5,2,3:2:0:0:
299,68,48928,1,2,0:2:0:0:
299,68,49093,1,2,0:2:0:0:
206,28,49423,1,2,0:2:0:0:
109,57,49753,1,2,3:2:0:0:
44,193,50248,6,0,B|34:261|-6:238|-16:309,2,125.999996154785,2|2|2,3:2|1:2|0:2,0:0:0:0:
136,152,51239,5,2,3:2:0:0:
216,221,51569,1,2,0:2:0:0:
216,221,51734,1,2,0:2:0:0:
300,165,52065,1,2,0:2:0:0:
386,216,52395,1,2,3:2:0:0:
459,348,52890,5,2,3:3:0:0:
365,311,53220,1,0,1:2:0:0:
277,352,53551,1,2,0:2:0:0:
277,352,53716,1,2,0:2:0:0:
277,352,53881,5,2,3:2:0:0:
219,276,54211,1,2,0:2:0:0:
219,276,54376,1,2,0:2:0:0:
252,181,54706,1,2,0:2:0:0:
212,87,55037,1,2,3:2:0:0:
356,42,55532,6,0,P|412:35|445:96,2,125.999996154785,2|2|2,3:2|1:2|0:2,0:0:0:0:
322,137,56523,5,2,3:2:0:0:
402,205,56853,1,2,0:2:0:0:
402,205,57018,1,2,0:2:0:0:
350,291,57348,1,2,0:2:0:0:
254,258,57678,1,2,3:2:0:0:
107,294,58174,5,2,3:3:0:0:
11,325,58504,1,0,1:2:0:0:
27,225,58834,1,2,0:2:0:0:
27,225,58999,1,2,0:2:0:0:
27,225,59164,5,2,3:2:0:0:
49,129,59494,1,2,0:2:0:0:
49,129,59660,1,2,0:2:0:0:
126,65,59990,1,2,0:2:0:0:
226,64,60320,1,2,3:2:0:0:
337,166,60815,6,0,B|345:90|386:130|394:47,2,125.999996154785,2|2|2,3:2|1:2|0:2,0:0:0:0:
274,245,61806,6,0,P|245:230|203:230,1,62.9999980773926,2|0,3:2|0:0,0:0:0:0:
146,197,62136,2,0,P|120:210|82:217,1,62.9999980773926,2|2,0:2|0:3,0:0:0:0:
29,265,62466,2,0,P|23:296|30:329,1,62.9999980773926,2|0,1:2|0:2,0:0:0:0:
96,361,62797,2,0,P|125:348|170:354,1,62.9999980773926,2|0,0:2|0:2,0:0:0:0:
219,309,63127,5,0,1:2:0:0:
219,309,63787,5,2,0:1:0:0:
307,295,63952,1,2,0:1:0:0:
388,329,64117,1,2,0:1:0:0:
472,300,64283,1,2,0:1:0:0:
472,300,64448,6,0,P|476:256|484:204,1,77.0000023498536,14|0,3:1|0:0,0:0:0:0:
435,142,64778,1,2,1:2:0:0:
435,142,64943,2,0,P|441:102|440:53,1,77.0000023498536,2|0,0:2|3:2,0:0:0:0:
342,23,65273,2,0,P|336:63|337:112,1,77.0000023498536,2|0,0:2|1:2,0:0:0:0:
278,171,65603,6,0,B|200:158|211:228|128:216,1,154.000004699707,2|2,0:2|0:2,0:0:0:0:
67,163,66099,1,2,1:1:0:0:
67,163,66264,1,0,0:0:0:0:
20,242,66429,2,0,P|56:259|76:306,1,77.0000023498536,2|2,3:1|0:2,0:0:0:0:
117,371,66759,2,0,P|141:342|188:332,1,77.0000023498536,2|2,1:1|0:2,0:0:0:0:
228,254,67089,6,0,L|318:267,1,77.0000023498536,2|2,3:1|0:2,0:0:0:0:
363,343,67420,1,2,1:2:0:0:
363,343,67585,2,0,P|393:322|440:319,1,77.0000023498536,2|0,0:2|0:0,0:0:0:0:
491,246,67915,2,0,P|456:229|436:187,1,77.0000023498536,2|0,0:2|1:2,0:0:0:0:
453,112,68245,5,2,0:1:0:0:
453,112,68328,1,2,0:1:0:0:
453,112,68410,2,0,P|413:104|370:84,1,77.0000023498536,2|2,3:1|0:1,0:0:0:0:
337,6,68741,2,0,P|297:12|256:29,1,77.0000023498536,2|2,1:1|0:1,0:0:0:0:
197,89,69071,1,2,3:1:0:0:
25,20,69401,5,2,1:1:0:0:
82,92,69566,1,2,3:1:0:0:
62,182,69731,2,0,L|42:272,1,77.0000023498536,6|0,3:2|0:0,0:0:0:0:
32,351,70061,1,2,1:2:0:0:
32,351,70226,2,0,P|64:333|111:331,1,77.0000023498536,2|0,0:2|3:2,0:0:0:0:
183,282,70557,2,0,L|174:188,1,77.0000023498536,2|0,0:2|1:2,0:0:0:0:
165,113,70887,6,0,P|220:170|302:153,1,154.000004699707,2|2,0:2|0:2,0:0:0:0:
346,90,71382,1,2,1:1:0:0:
346,90,71547,1,0,0:0:0:0:
426,135,71712,2,0,P|461:162|481:210,1,77.0000023498536,2|2,3:1|0:2,0:0:0:0:
398,240,72043,2,0,P|392:283|360:325,1,77.0000023498536,2|2,1:1|0:2,0:0:0:0:
285,289,72373,6,0,L|203:317,1,77.0000023498536,2|2,3:1|0:2,0:0:0:0:
128,288,72703,1,2,1:2:0:0:
128,288,72868,2,0,P|138:326|126:369,1,77.0000023498536,2|0,0:2|0:0,0:0:0:0:
25,322,73198,2,0,P|16:284|26:247,1,77.0000023498536,2|0,0:2|1:2,0:0:0:0:
102,194,73529,6,0,B|118:111|52:130|70:45,1,154.000004699707,2|2,0:1|0:1,0:0:0:0:
159,72,74024,2,0,P|192:83|238:75,1,77.0000023498536,2|2,1:1|0:1,0:0:0:0:
314,33,74354,1,2,3:1:0:0:
476,120,74684,5,2,1:1:0:0:
447,207,74849,1,2,3:1:0:0:
480,293,75015,2,0,P|439:285|402:299,1,77.0000023498536,14|0,3:1|0:0,0:0:0:0:
336,355,75345,1,2,1:2:0:0:
336,355,75510,2,0,L|317:265,1,77.0000023498536,2|0,0:2|3:2,0:0:0:0:
238,236,75840,2,0,L|222:311,1,77.0000023498536,2|0,0:2|1:2,0:0:0:0:
141,356,76170,6,0,P|68:358|37:289,1,154.000004699707,2|2,0:2|0:2,0:0:0:0:
90,218,76666,1,2,1:1:0:0:
90,218,76831,1,0,0:0:0:0:
26,150,76996,2,0,P|17:109|29:70,1,77.0000023498536,2|2,3:1|0:2,0:0:0:0:
92,12,77326,2,0,L|175:29,1,77.0000023498536,2|2,1:1|0:2,0:0:0:0:
235,89,77656,6,0,B|316:72|307:116|349:108,1,115.50000352478,10|0,3:1|0:2,0:0:0:0:
361,117,77987,1,2,1:0:0:0:
439,166,78152,2,0,P|408:199|394:243,1,77.0000023498536,2|0,0:1|0:0,0:0:0:0:
384,319,78482,2,0,P|351:299|302:300,1,77.0000023498536,2|2,0:1|1:2,0:0:0:0:
243,356,78812,6,0,P|204:299|123:314,1,154.000004699707,2|2,0:1|0:2,0:0:0:0:
54,363,79307,1,2,1:2:0:0:
54,363,79472,1,2,0:2:0:0:
8,281,79638,2,0,L|24:202,1,77.0000023498536,2|2,3:2|0:2,0:0:0:0:
0,115,79968,5,2,1:1:0:0:
66,50,80133,1,2,3:1:0:0:
158,49,80298,2,0,L|138:141,1,77.0000023498536,6|0,3:2|0:0,0:0:0:0:
199,202,80628,1,2,1:2:0:0:
199,202,80793,2,0,P|230:182|275:181,1,77.0000023498536,2|0,0:2|3:2,0:0:0:0:
298,91,81124,2,0,P|331:112|388:107,1,77.0000023498536,2|2,0:1|1:2,0:0:0:0:
449,70,81454,6,0,B|462:177,1,77.0000023498536,2|0,0:1|0:0,0:0:0:0:
471,237,81784,1,2,0:2:0:0:
425,317,81949,1,2,1:2:0:0:
335,340,82114,2,0,P|271:279|197:290,1,154.000004699707,2|2,0:2|0:2,0:0:0:0:
116,286,82610,5,2,1:1:0:0:
33,244,82775,1,2,3:1:0:0:
18,152,82940,2,0,P|24:107|53:70,1,77.0000023498536,10|0,3:1|0:0,0:0:0:0:
120,32,83270,1,2,1:2:0:0:
120,32,83435,2,0,L|204:48,1,77.0000023498536,2|0,0:2|3:2,0:0:0:0:
231,131,83765,2,0,L|317:114,1,77.0000023498536,2|0,0:1|1:2,0:0:0:0:
378,58,84095,6,0,P|452:67|474:151,1,154.000004699707,2|2,0:1|0:2,0:0:0:0:
447,221,84591,2,0,P|406:226|371:237,1,77.0000023498536,2|2,1:2|0:2,0:0:0:0:
313,308,84921,2,0,P|276:296|238:292,1,77.0000023498536,2|2,3:2|0:2,0:0:0:0:
158,246,85251,2,0,P|117:251|82:262,1,77.0000023498536,2|2,1:2|0:2,0:0:0:0:
9,311,85581,5,2,0:2:0:0:
40,162,85912,1,8,0:2:0:0:
40,162,86077,1,2,0:3:0:0:
73,20,86407,1,0,3:3:0:0:
73,20,86572,1,0,3:3:0:0:
73,20,86737,1,8,0:0:0:0:
133,76,86902,6,0,L|178:69,2,31.4999990386963,0|0|2,0:0|0:0|3:0,0:0:0:0:
86,136,87233,1,8,0:0:0:0:
150,194,87398,1,2,0:3:0:0:
150,194,87480,1,8,0:3:0:0:
150,194,87563,2,0,L|212:210,1,62.9999980773926,2|2,0:3|3:0,0:0:0:0:
283,189,87893,2,0,L|294:151,2,31.4999990386963,8|0|2,0:0|0:0|0:3,0:0:0:0:
317,256,88223,5,2,0:3:0:0:
392,247,88388,1,2,0:3:0:0:
452,292,88553,1,2,3:0:0:0:
466,366,88718,2,0,P|478:305|535:249,2,125.999996154785,8|2|2,0:3|3:0|3:0,0:0:0:0:
250,311,89874,5,8,0:0:0:0:
250,311,90039,1,2,0:3:0:0:
171,294,90204,1,2,3:0:0:0:
171,294,90370,1,0,3:0:0:0:
97,320,90535,1,2,0:0:0:0:
26,186,90865,6,0,L|19:101,1,62.9999980773926,0|0,3:0|3:0,0:0:0:0:
90,93,91195,2,0,L|84:30,1,62.9999980773926,8|2,0:0|0:3,0:0:0:0:
154,1,91525,1,2,0:3:0:0:
224,28,91690,1,0,3:0:0:0:
295,2,91856,1,2,0:3:0:0:
363,33,92021,1,8,0:0:0:0:
472,136,92351,5,2,3:0:0:0:
415,185,92516,1,8,0:0:0:0:
392,257,92681,2,0,P|401:286|408:328,2,62.9999980773926,2|2|2,0:3|0:3|3:0,0:0:0:0:
334,208,93176,1,8,0:0:0:0:
216,304,93507,6,0,L|198:345,2,31.4999990386963,2|0|2,0:3|0:0|0:3,0:0:0:0:
194,231,93837,1,0,3:0:0:0:
124,200,94002,2,0,P|82:163|94:95,1,125.999996154785,8|0,0:3|0:0,0:0:0:0:
256,48,94662,5,0,3:0:0:0:
256,48,94993,2,0,L|278:173,1,105,2|8,0:3|0:3,0:0:0:0:
413,139,95488,5,8,0:3:0:0:
413,139,95570,1,2,0:3:0:0:
413,139,95653,1,8,0:3:0:0:
413,139,95736,1,2,0:3:0:0:
413,139,95818,2,0,L|390:295,1,140,8|8,0:3|3:1,0:0:0:0:
