osu file format v14

[General]
AudioFilename: audio.mp3
AudioLeadIn: 0
PreviewTime: 63705
Countdown: 0
SampleSet: Soft
StackLeniency: 0.5
Mode: 0
LetterboxInBreaks: 0
WidescreenStoryboard: 1

[Editor]
Bookmarks: 11613,22180,24409,24822,27464,32747,43314,53881,63787,64448,75015,85581
DistanceSpacing: 0.6
BeatDivisor: 6
GridSize: 32
TimelineZoom: 2.150001

[Metadata]
Title:W-P.NEURONS (Cut Ver.)
TitleUnicode:W-P.NEURONS (Cut Ver.)
Artist:Hayato Asano
ArtistUnicode:浅野隼人
Creator:Asaiga
Version:GanyuMyMommy's Light Insane
Source:ブルー リフレクション 帝/タイ
Tags:LMT Hikan Ducky- GanyuMyMommy Nytrocide_ Blue Reflection Tie Second Light Gust Koei Tecmo Games battle theme 渡邉俊彦 Toshihiko Watanabe electronic instrumental
BeatmapID:3322148
BeatmapSetID:1622821

[Difficulty]
HPDrainRate:5
CircleSize:4
OverallDifficulty:7.4
ApproachRate:8
SliderMultiplier:1.9
SliderTickRate:1

[Events]
//Background and Video events
0,0,"bururifurii.jpg",0,0
//Break Periods
//Storyboard Layer 0 (Background)
//Storyboard Layer 1 (Fail)
//Storyboard Layer 2 (Pass)
//Storyboard Layer 3 (Foreground)
//Storyboard Layer 4 (Overlay)
//Storyboard Sound Samples

[TimingPoints]
1047,330.214639515685,4,2,1,50,1,0
1047,-100,4,2,1,50,0,0
2698,-100,4,2,3,50,0,0
3688,-90.9090909090909,4,2,1,50,0,0
6000,-90.9090909090909,4,2,3,50,0,0
6165,-90.9090909090909,4,2,1,50,0,0
6330,-83.3333333333333,4,2,1,50,0,0
8972,-76.9230769230769,4,2,1,50,0,0
10623,-76.9230769230769,4,2,3,50,0,0
11613,-100,4,2,1,50,0,0
13595,-100,4,2,3,50,0,0
14255,-90.9090909090909,4,2,1,50,0,0
16897,-83.3333333333333,4,2,1,50,0,0
18630,-83.3333333333333,4,2,3,50,0,0
18878,-83.3333333333333,4,2,1,50,0,0
19539,-76.9230769230769,4,2,1,50,0,0
21355,-76.9230769230769,4,2,3,50,0,0
22180,-100,4,2,1,50,0,0
23831,-83.3333333333333,4,2,1,50,0,0
24657,-83.3333333333333,4,2,1,55,0,0
24822,-76.9230769230769,4,2,1,60,0,0
25482,-90.9090909090909,4,2,1,60,0,0
25978,-76.9230769230769,4,2,1,60,0,0
26968,-133.333333333333,4,2,1,60,0,0
27464,-200,4,2,2,70,0,0
30105,-83.3333333333333,4,2,2,70,0,0
30766,-133.333333333333,4,2,2,70,0,0
32747,-200,4,2,3,50,0,0
38031,-166.666666666667,4,2,3,50,0,0
42984,-166.666666666667,4,2,3,60,0,0
43314,-100,4,2,3,50,0,0
44635,-133.333333333333,4,2,3,50,0,0
45956,-90.9090909090909,4,2,3,50,0,0
47277,-133.333333333333,4,2,3,50,0,0
48597,-83.3333333333333,4,2,3,50,0,0
49918,-133.333333333333,4,2,3,50,0,0
51239,-76.9230769230769,4,2,3,50,0,0
52560,-133.333333333333,4,2,3,50,0,0
53881,-100,4,2,3,50,0,0
55202,-133.333333333333,4,2,3,50,0,0
56523,-90.9090909090909,4,2,3,50,0,0
57843,-133.333333333333,4,2,3,50,0,0
59164,-83.3333333333333,4,2,3,50,0,0
60485,-133.333333333333,4,2,3,50,0,0
61806,-100,4,2,3,50,0,0
63127,-90.9090909090909,4,2,2,60,0,0
63567,-181.818181818181,4,2,2,60,0,0
63787,-90.9090909090909,4,2,1,40,0,0
63952,-90.9090909090909,4,2,1,50,0,0
64117,-90.9090909090909,4,2,1,60,0,0
64283,-90.9090909090909,4,2,1,70,0,0
64448,-66.6666666666667,4,2,1,80,0,1
64943,-100,4,2,1,80,0,1
65769,-111.111111111111,4,2,1,80,0,1
67089,-66.6666666666667,4,2,1,80,0,1
67585,-100,4,2,1,80,0,1
68410,-111.111111111111,4,2,1,80,0,1
69731,-66.6666666666667,4,2,1,80,0,1
70226,-100,4,2,1,80,0,1
71052,-111.111111111111,4,2,1,80,0,1
72373,-66.6666666666667,4,2,1,80,0,1
72868,-100,4,2,1,80,0,1
73694,-111.111111111111,4,2,1,80,0,1
75015,-66.6666666666667,4,2,1,80,0,1
75510,-100,4,2,1,80,0,1
76335,-111.111111111111,4,2,1,80,0,1
77656,-66.6666666666667,4,2,1,80,0,1
78152,-100,4,2,1,80,0,1
78977,-111.111111111111,4,2,1,80,0,1
80298,-66.6666666666667,4,2,1,80,0,1
80793,-100,4,2,1,80,0,1
81619,-111.111111111111,4,2,1,80,0,1
82940,-66.6666666666667,4,2,1,80,0,1
83435,-100,4,2,1,80,0,1
84261,-111.111111111111,4,2,1,80,0,1
84921,-111.111111111111,4,2,1,70,0,1
85251,-111.111111111111,4,2,1,60,0,1
85581,-200,4,2,1,50,0,0
85912,-200,4,2,3,50,0,0
90865,-250,4,2,3,40,0,0
95405,-250,4,2,3,55,0,0
96148,-1000,4,2,1,55,0,0

[Colours]
Combo1 : 89,189,232
Combo2 : 202,142,208
Combo3 : 213,203,136

[HitObjects]
215,257,1047,6,0,B|220:249|220:249|183:54,1,190,6|8,3:1|0:2,0:0:0:0:
302,342,1624,1,0,3:2:0:0:
302,342,1707,2,0,P|343:294|374:274,2,95,8|2|10,0:2|3:2|0:2,0:0:0:0:
170,368,2202,2,0,P|115:336|79:328,1,95,2|2,3:2|0:1,0:0:0:0:
168,0,3028,1,8,0:3:0:0:
494,150,3688,6,0,B|488:143|488:143|267:125,1,209.000006378174,2|8,3:1|0:2,0:0:0:0:
470,280,4266,1,0,3:2:0:0:
468,261,4349,1,8,0:2:0:0:
401,83,4514,2,0,L|383:188,2,104.500003189087,2|10|2,3:2|0:2|3:2,0:0:0:0:
0,193,5339,2,0,P|63:245|131:352,2,209.000006378174,10|10|8,0:2|0:2|0:3,0:0:0:0:
198,0,6330,6,0,B|194:6|194:6|217:234,1,227.999993041992,2|8,3:1|0:2,0:0:0:0:
306,90,6908,1,0,3:2:0:0:
306,90,6990,2,0,L|425:106,2,113.999996520996,10|2|10,0:2|3:2|0:2,0:0:0:0:
108,107,7486,2,0,L|-7:144,1,113.999996520996,2|2,3:2|0:1,0:0:0:0:
387,278,7981,2,0,B|265:247|303:365|170:325,2,227.999993041992,10|2|10,0:2|3:2|0:2,0:0:0:0:
496,383,8972,6,0,B|501:378|501:378|467:128,1,246.999988693238,2|8,3:1|0:2,0:0:0:0:
383,371,9550,1,8,0:2:0:0:
402,369,9633,1,2,3:2:0:0:
420,211,9797,2,0,L|540:239,2,123.499994346619,2|10|2,3:2|0:2|3:2,0:0:0:0:
195,119,10623,6,0,P|126:197|-6:268,1,246.999988693238,8|8,0:3|0:3,0:0:0:0:
25,0,11201,1,8,0:3:0:0:
25,0,11283,2,0,P|59:45|87:111,1,123.499994346619,2|2,0:3|0:3,0:0:0:0:
300,315,11613,6,0,L|328:166,1,142.5,6|0,3:1|3:2,0:0:0:0:
320,167,11944,2,0,L|291:18,1,142.5,8|8,0:2|0:2,0:0:0:0:
299,19,12274,1,0,3:2:0:0:
421,77,12439,2,0,L|527:51,2,95,2|10|2,3:2|0:2|3:2,0:0:0:0:
183,363,13264,2,0,B|3:324|3:324|-2:327,2,190,10|8|2,0:2|0:3|0:3,0:0:0:0:
512,272,14255,6,0,P|465:244|342:222,1,156.750004783631,2|0,3:2|3:0,0:0:0:0:
361,228,14585,2,0,P|314:256|191:278,1,156.750004783631,8|8,0:2|0:2,0:0:0:0:
210,271,14916,1,0,3:2:0:0:
234,74,15081,2,0,P|250:124|264:190,2,104.500003189087,2|2|2,3:2|0:2|3:2,0:0:0:0:
181,0,15576,5,2,0:1:0:0:
35,384,16236,1,2,3:1:0:0:
112,206,16567,1,2,0:1:0:0:
16,72,16897,6,0,B|21:66|21:66|201:56,1,170.999994781494,2|0,3:1|3:0,0:0:0:0:
192,64,17227,2,0,B|197:70|197:70|377:80,1,170.999994781494,8|8,0:2|0:2,0:0:0:0:
368,71,17557,1,0,3:2:0:0:
466,2,17722,2,0,L|481:125,2,113.999996520996,2|2|2,3:2|0:2|3:2,0:0:0:0:
167,161,18548,2,0,B|141:375|141:375|148:384,2,227.999993041992,10|10|2,0:2|0:2|0:0,0:0:0:0:
351,0,19539,5,2,3:2:0:0:
346,6,19869,2,0,P|345:99|364:190,1,185.249991519928,0|0,0:2|3:2,0:0:0:0:
369,196,20199,1,8,0:2:0:0:
456,61,20364,2,0,B|340:35|352:171|239:145,1,246.999988693238,0|2,3:2|3:2,0:0:0:0:
0,0,21190,2,0,B|9:6|9:6|33:241,1,246.999988693238,8|8,0:2|0:3,0:0:0:0:
148,363,21767,5,8,0:3:0:0:
148,363,21850,2,0,L|162:215,1,123.499994346619,8|2,0:3|0:3,0:0:0:0:
236,166,22180,2,0,B|417:157|417:157|423:162,2,190,2|8|0,3:2|0:2|3:2,0:0:0:0:
411,374,23006,2,0,P|450:291|527:202,1,190,0|2,3:2|3:2,0:0:0:0:
96,11,23831,2,0,P|112:54|127:141,2,113.999996520996,10|0|2,0:2|0:0|0:2,0:0:0:0:
272,126,24409,5,8,0:3:0:0:
270,140,24492,1,10,0:3:0:0:
267,159,24574,1,8,0:3:0:0:
264,186,24657,1,8,0:3:0:0:
259,223,24739,1,8,0:3:0:0:
252,274,24822,6,0,B|262:290|262:290|246:330|246:330|239:288|239:288|252:274,1,123.499994346619,4|0,3:1|0:2,0:0:0:0:
417,271,25152,2,0,P|442:252|483:243,2,61.7499971733095,2|2|2,3:2|0:2|0:2,0:0:0:0:
412,95,25482,2,0,P|389:127|359:192,2,104.500003189087,0|2|2,3:2|0:2|3:2,0:0:0:0:
259,223,25978,2,0,B|85:198|85:198|77:203,1,185.249991519928,2|0,0:2|0:0,0:0:0:0:
30,277,26308,5,2,0:2:0:0:
0,157,26473,1,2,3:2:0:0:
170,177,26638,5,2,0:2:0:0:
148,267,26803,1,2,3:2:0:0:
276,292,26968,6,0,L|257:217,2,71.2500027179719,2|2|2,0:2|3:2|0:2,0:0:0:0:
371,245,27464,6,0,B|375:239|375:239|512:231,1,142.5,4|2,3:1|0:3,0:0:0:0:
324,147,28124,1,0,1:2:0:0:
324,147,28289,1,0,3:2:0:0:
438,75,28454,2,0,L|485:78,2,47.5,2|0|0,0:0|3:0|0:0,0:0:0:0:
324,147,28950,1,2,3:2:0:0:
324,147,29115,1,0,3:2:0:0:
447,314,29445,2,0,L|438:406,2,71.25,2|0|0,1:2|1:2|1:2,0:0:0:0:
512,156,30105,6,0,B|502:149|502:149|184:188|184:188|176:181,1,341.999989562989,2|2,3:2|0:3,0:0:0:0:
211,70,30766,2,0,L|197:-9,2,71.2500027179719,0|2|2,1:2|3:2|0:3,0:0:0:0:
97,95,31261,2,0,B|65:129|65:129|82:328|82:328|51:360,1,285.000010871888,2|2,3:2|0:3,0:0:0:0:
220,379,32087,2,0,L|228:295,1,71.2500027179719,2|2,3:2|0:3,0:0:0:0:
165,236,32417,2,0,L|157:152,1,71.2500027179719,2|0,1:2|1:0,0:0:0:0:
211,70,32747,5,4,0:1:0:0:
418,316,33242,2,0,L|530:322,2,95,0|2|2,0:0|0:3|0:2,0:0:0:0:
335,311,34068,2,0,L|287:308,2,47.5,2|2|8,0:2|0:3|0:3,0:0:0:0:
387,98,34728,1,2,0:2:0:0:
380,241,35059,1,2,0:2:0:0:
389,65,35389,6,0,L|391:17,2,47.5,0|2|2,0:2|0:3|0:3,0:0:0:0:
378,274,35884,2,0,L|373:373,2,95,2|2|2,0:3|0:2|0:3,0:0:0:0:
307,196,36710,2,0,L|259:193,2,47.5,8|2|2,0:3|0:3|0:3,0:0:0:0:
88,168,37370,5,2,0:3:0:0:
11,173,37535,1,8,0:3:0:0:
45,103,37700,1,2,0:3:0:0:
54,237,37865,1,2,0:3:0:0:
43,70,38031,6,0,L|40:11,2,56.9999982604981,2|0|8,0:3|0:2|0:3,0:0:0:0:
56,270,38526,2,0,L|60:387,2,113.999996520996,2|2|2,0:2|0:2|0:3,0:0:0:0:
127,192,39351,2,0,L|202:187,2,56.9999982604981,8|2|8,0:3|0:3|0:3,0:0:0:0:
300,116,40012,1,8,0:3:0:0:
504,129,40342,1,2,0:3:0:0:
267,114,40672,6,0,L|198:111,2,56.9999982604981,2|2|8,0:3|0:2|0:3,0:0:0:0:
398,189,41168,2,0,L|392:315,2,113.999996520996,2|2|2,0:2|0:2|0:2,0:0:0:0:
406,56,41993,2,0,L|408:-6,2,56.9999982604981,2|0|2,0:3|0:0|0:3,0:0:0:0:
392,302,42654,5,8,0:3:0:0:
391,321,42819,1,2,0:3:0:0:
288,368,42984,5,2,0:3:0:0:
288,328,43149,1,2,0:0:0:0:
208,263,43314,6,0,B|203:257|203:257|53:262,1,142.5,0|0,3:2|0:0,0:0:0:0:
55,261,43644,1,2,0:2:0:0:
32,108,43809,2,0,P|60:50|101:129,2,190,2|2|2,0:2|0:2|3:2,0:0:0:0:
197,164,44635,2,0,P|238:170|292:189,2,71.2500027179719,0|2|2,0:0|0:3|3:2,0:0:0:0:
182,165,45130,1,0,3:2:0:0:
243,8,45295,2,0,L|251:78,1,71.2500027179719,2|0,1:2|0:0,0:0:0:0:
354,114,45625,2,0,L|363:44,1,71.2500027179719,2|0,0:2|0:0,0:0:0:0:
472,0,45956,6,0,B|467:6|467:6|482:190,1,156.750004783631,2|0,3:2|0:0,0:0:0:0:
480,168,46286,1,2,0:2:0:0:
496,288,46451,2,0,B|517:318|469:382|469:382|429:311|455:284,2,209.000006378174,2|2|2,0:2|0:2|3:2,0:0:0:0:
384,212,47277,1,0,0:0:0:0:
284,324,47524,1,2,0:3:0:0:
284,324,47607,2,0,B|149:326|149:326|144:321,2,142.500005435944,0|0|2,3:2|1:2|0:2,0:0:0:0:
370,384,48432,1,2,0:2:0:0:
292,233,48597,6,0,B|298:225|298:225|271:47,1,170.999994781494,2|0,3:2|0:0,0:0:0:0:
272,55,48928,1,2,0:2:0:0:
103,143,49093,2,0,P|116:230|193:166,2,227.999993041992,2|2|2,0:2|0:2|3:2,0:0:0:0:
68,44,49918,2,0,P|23:60|-20:64,2,71.2500027179719,0|2|2,0:0|0:3|3:2,0:0:0:0:
78,37,50414,1,0,3:2:0:0:
176,0,50579,2,0,L|166:77,1,71.2500027179719,2|0,1:2|0:0,0:0:0:0:
281,125,50909,2,0,L|272:55,1,71.2500027179719,2|0,0:2|0:0,0:0:0:0:
406,0,51239,6,0,B|400:6|400:6|376:192,1,185.249991519928,2|0,3:2|0:0,0:0:0:0:
376,194,51569,1,2,0:2:0:0:
318,295,51734,2,0,B|381:308|396:381|396:381|391:304|452:277,2,246.999988693238,2|2|2,0:2|0:2|3:2,0:0:0:0:
484,174,52560,1,0,0:0:0:0:
264,199,52808,1,2,0:3:0:0:
264,199,52890,2,0,B|129:209|129:209|124:215,2,142.500005435944,2|0|2,3:3|1:2|0:2,0:0:0:0:
148,324,53716,1,2,0:2:0:0:
43,291,53881,6,0,P|21:223|-15:162,1,142.5,2|0,3:2|0:0,0:0:0:0:
81,121,54211,2,0,P|97:92|150:28,2,95,2|2|0,0:2|0:2|1:2,0:0:0:0:
77,134,54706,1,2,0:2:0:0:
264,199,55037,1,2,3:2:0:0:
264,199,55202,2,0,B|269:191|269:191|353:185,2,71.2500027179719,0|0|2,0:0|0:2|3:2,0:0:0:0:
401,129,55697,1,0,3:2:0:0:
401,129,55862,2,0,B|407:122|407:122|490:138,2,71.2500027179719,2|0|2,1:2|0:0|0:2,0:0:0:0:
372,369,56440,5,2,1:3:0:0:
372,369,56523,2,0,P|390:295|415:217,1,156.750004783631,2|0,3:2|0:0,0:0:0:0:
479,136,56853,1,2,0:2:0:0:
315,98,57018,2,0,B|114:122|114:122|110:127,2,209.000006378174,2|2|2,0:2|0:2|3:2,0:0:0:0:
172,293,57843,2,0,L|148:198,1,71.2500027179719,0|2,0:0|0:3,0:0:0:0:
110,127,58091,1,2,0:3:0:0:
110,127,58174,2,0,L|134:32,2,71.2500027179719,2|0|0,3:3|3:2|1:2,0:0:0:0:
338,3,58834,6,0,P|364:21|408:34,1,71.2500027179719,2|2,0:2|0:2,0:0:0:0:
504,10,59164,2,0,L|456:218,1,170.999994781494,2|0,3:2|0:0,0:0:0:0:
425,274,59494,2,0,L|452:389,2,113.999996520996,2|2|0,0:2|0:2|1:2,0:0:0:0:
422,261,59990,1,2,0:2:0:0:
241,178,60320,1,2,3:2:0:0:
241,178,60485,2,0,B|236:170|236:170|152:164,2,71.2500027179719,0|2|2,0:0|0:3|3:2,0:0:0:0:
104,108,60980,1,0,3:2:0:0:
104,108,61145,2,0,B|98:101|98:101|15:117,2,71.2500027179719,2|0|2,1:2|0:0|0:2,0:0:0:0:
63,382,61723,1,2,0:3:0:0:
63,382,61806,2,0,B|57:375|57:375|91:180,2,190,2|2|2,3:2|0:2|1:2,0:0:0:0:
189,76,62797,1,2,0:2:0:0:
249,319,63127,6,0,P|281:305|314:294,1,69.6666687927247,0|0,1:2|1:2,0:0:0:0:
397,232,63347,2,0,P|392:213|390:193,2,34.8333343963623,8|2|8,3:3|3:3|3:3,3:0:0:0:
500,273,63567,2,0,P|494:297|492:320,1,34.8333343963623,2|0,0:3|1:2,0:0:0:0:
469,384,63787,5,2,0:1:0:0:
411,332,63952,1,2,0:1:0:0:
500,273,64117,1,2,0:1:0:0:
391,198,64283,1,2,0:1:0:0:
509,128,64448,6,0,P|347:176|176:198,1,285.000010871888,14|2,3:1|1:2,0:0:0:0:
85,101,64943,2,0,P|124:103|163:141,1,95,2|0,0:2|3:2,0:0:0:0:
157,314,65273,2,0,P|139:278|152:225,1,95,2|0,0:2|1:2,0:0:0:0:
232,193,65603,1,2,0:2:0:0:
85,101,65769,6,0,B|43:108|43:108|13:147,1,85.4999973907472,2|2,3:2|0:2,0:0:0:0:
145,34,66099,2,0,B|110:9|110:9|61:15,1,85.4999973907472,2|0,1:1|0:0,0:0:0:0:
322,198,66429,6,0,B|356:173|356:173|405:179,1,85.4999973907472,2|2,3:1|0:2,0:0:0:0:
232,193,66759,2,0,B|238:151|238:151|278:121,1,85.4999973907472,2|2,1:1|0:2,0:0:0:0:
398,4,67089,6,0,P|372:106|345:305,1,285.000010871888,2|2,3:1|1:2,0:0:0:0:
489,372,67585,2,0,L|390:354,1,95,2|0,0:2|3:2,0:0:0:0:
213,372,67915,2,0,L|315:358,1,95,2|0,0:2|1:2,0:0:0:0:
346,283,68245,5,2,0:1:0:0:
346,283,68328,1,2,0:1:0:0:
346,283,68410,1,2,3:1:0:0:
489,372,68575,5,2,0:1:0:0:
489,372,68658,1,2,0:1:0:0:
489,372,68740,1,2,1:1:0:0:
213,372,68906,5,2,0:1:0:0:
213,372,68989,1,2,0:1:0:0:
213,372,69071,1,2,3:1:0:0:
120,75,69401,6,0,P|74:68|41:105,1,85.4999973907472,2|2,1:1|3:1,0:0:0:0:
18,178,69731,2,0,B|24:183|24:183|308:148,1,285.000010871888,6|2,3:2|1:2,0:0:0:0:
436,35,70226,2,0,P|390:41|363:96,1,95,2|0,0:2|3:2,0:0:0:0:
395,256,70556,2,0,P|412:213|378:163,1,95,2|0,0:2|1:2,0:0:0:0:
299,149,70887,1,2,0:2:0:0:
436,35,71052,2,0,B|469:52|469:52|511:178,2,170.999994781494,2|2|2,3:2|1:1|3:1,0:0:0:0:
272,270,72043,2,0,L|187:259,1,85.4999973907472,2|2,1:1|0:2,0:0:0:0:
49,372,72373,6,0,P|89:235|142:103,1,285.000010871888,2|2,3:1|1:2,0:0:0:0:
35,9,72868,2,0,P|80:22|127:17,1,95,2|0,0:2|3:0,0:0:0:0:
291,84,73198,2,0,P|246:72|208:45,1,95,2|0,0:2|1:2,0:0:0:0:
142,103,73529,5,2,0:1:0:0:
142,103,73611,1,2,0:1:0:0:
142,103,73694,1,2,3:1:0:0:
37,113,73859,1,2,0:1:0:0:
220,164,74024,1,2,1:1:0:0:
479,34,74354,5,2,3:1:0:0:
498,122,74519,1,2,0:1:0:0:
395,158,74684,5,2,1:1:0:0:
404,114,74849,1,2,3:1:0:0:
308,67,75015,6,0,B|303:72|303:72|336:350,1,285.000010871888,14|2,3:1|1:2,0:0:0:0:
451,291,75510,2,0,P|408:270|361:262,1,95,2|0,0:2|3:2,0:0:0:0:
198,248,75840,2,0,P|237:222|282:207,1,95,2|0,0:2|1:2,0:0:0:0:
335,347,76170,1,2,0:2:0:0:
451,291,76335,6,0,B|475:325|475:325|469:374,1,85.4999973907472,2|2,3:2|0:2,0:0:0:0:
455,201,76665,2,0,B|497:208|497:208|527:246,1,85.4999973907472,2|0,1:1|0:0,0:0:0:0:
214,192,76995,6,0,B|207:150|207:150|168:119,1,85.4999973907472,2|2,3:1|0:2,0:0:0:0:
282,252,77325,2,0,B|307:218|307:218|300:168,1,85.4999973907472,2|2,1:1|0:2,0:0:0:0:
209,33,77656,6,0,P|184:187|173:321,1,285.000010871888,10|2,3:1|1:0,0:0:0:0:
100,375,78152,2,0,P|69:325|90:284,1,95,2|0,0:1|3:0,0:0:0:0:
8,247,78482,2,0,P|47:205|92:214,1,95,2|2,0:1|1:2,0:0:0:0:
214,192,78812,1,2,0:1:0:0:
282,252,78977,2,0,B|444:227|444:227|452:232,2,170.999994781494,0|2|2,3:0|1:2|3:2,0:0:0:0:
141,138,79968,5,2,1:1:0:0:
141,138,80133,1,2,3:1:0:0:
0,92,80298,2,0,B|6:88|6:88|289:132,1,285.000010871888,6|2,3:2|1:2,0:0:0:0:
426,23,80793,2,0,L|366:97,1,95,2|0,0:2|3:2,0:0:0:0:
387,277,81124,2,0,L|352:188,1,95,2|2,0:1|1:2,0:0:0:0:
280,130,81454,1,2,0:1:0:0:
426,23,81619,2,0,P|470:33|526:32,4,85.4999973907472,0|2|2|2|2,3:0|0:2|1:2|0:2|3:2,0:0:0:0:
485,176,82444,6,0,L|495:150,2,28.4999991302491,2|2|2,0:2|0:2|0:2,0:0:0:0:
478,193,82610,1,2,1:1:0:0:
506,314,82775,1,2,3:1:0:0:
387,277,82940,6,0,P|267:256|81:241,1,285.000010871888,10|2,3:1|1:2,0:0:0:0:
168,364,83435,2,0,P|176:329|196:274,1,95,2|0,0:2|3:2,0:0:0:0:
263,141,83765,2,0,P|267:176|283:233,1,95,2|0,0:1|1:2,0:0:0:0:
104,241,84095,1,2,0:1:0:0:
168,364,84261,6,0,B|332:357|332:357|337:362,2,170.999994781494,0|2|2,3:0|1:2|3:2,0:0:0:0:
2,370,85251,1,2,1:2:0:0:
93,194,85581,6,0,L|104:241,2,47.5,2|0|8,0:2|0:0|0:2,0:0:0:0:
71,102,86077,2,0,L|46:-2,2,95,2|0|8,0:3|3:3|0:0,0:0:0:0:
255,107,87067,5,2,3:0:0:0:
162,129,87232,1,8,0:0:0:0:
321,177,87398,2,0,L|344:182,2,23.75,2|8|2,0:3|0:3|0:3,0:0:0:0:
228,199,87728,1,2,3:0:0:0:
228,199,87893,1,8,0:0:0:0:
457,384,88223,6,0,L|462:348,1,23.75,2|0,0:3|0:0,0:0:0:0:
403,296,88388,2,0,L|398:260,1,23.75,2|8,0:3|0:3,0:0:0:0:
428,197,88553,2,0,L|435:139,2,47.5,2|8|8,3:0|0:3|0:0,0:0:0:0:
507,48,89131,5,8,0:0:0:0:
507,48,89214,2,0,L|499:-9,2,47.5,2|2|0,3:0|3:0|0:0,0:0:0:0:
512,270,89874,1,8,0:0:0:0:
215,323,90204,6,0,L|173:316,1,23.75,2|0,3:0|0:0,0:0:0:0:
116,282,90370,2,0,L|50:292,1,47.5,0|2,3:0|0:0,0:0:0:0:
7,342,90617,1,0,3:0:0:0:
314,270,90865,6,0,L|306:232,3,38,0|0|8|2,3:0|3:0|0:0|0:3,0:0:0:0:
346,141,91525,1,2,0:3:0:0:
221,182,91690,1,0,3:0:0:0:
132,137,91856,1,2,0:3:0:0:
108,65,92021,2,0,L|97:-11,2,76,8|2|2,0:0|3:0|0:3,0:0:0:0:
231,25,92846,6,0,L|227:50,2,19,2|0|2,0:3|0:0|3:0,0:0:0:0:
348,27,93176,2,0,L|353:64,1,38,8|2,0:0|0:3,0:0:0:0:
426,137,93507,6,0,L|443:143,4,19,2|0|2|0|0,0:3|0:0|0:3|0:0|3:0,0:0:0:0:
512,198,94002,2,0,L|508:220,1,19,8|0,0:3|0:0,0:0:0:0:
465,282,94168,2,0,L|472:326,1,38,8|8,0:0|3:0,0:0:0:0:
512,384,94415,1,8,0:0:0:0:
351,291,94662,5,0,3:0:0:0:
256,192,94745,12,8,96148,3:1:0:0:
