osu file format v14

[General]
AudioFilename: audio.mp3
AudioLeadIn: 0
PreviewTime: 63705
Countdown: 0
SampleSet: Soft
StackLeniency: 0.3
Mode: 0
LetterboxInBreaks: 0
WidescreenStoryboard: 1

[Editor]
DistanceSpacing: 1
BeatDivisor: 4
GridSize: 32
TimelineZoom: 3.349999

[Metadata]
Title:W-P.NEURONS (Cut Ver.)
TitleUnicode:W-P.NEURONS (Cut Ver.)
Artist:Hayato Asano
ArtistUnicode:浅野隼人
Creator:Asaiga
Version:Ducky-'s Extra
Source:ブルー リフレクション 帝/タイ
Tags:LMT Hikan Ducky- GanyuMyMommy Nytrocide_ Blue Reflection Tie Second Light Gust Koei Tecmo Games battle theme 渡邉俊彦 Toshihiko Watanabe electronic instrumental
BeatmapID:3327843
BeatmapSetID:1622821

[Difficulty]
HPDrainRate:5.5
CircleSize:4
OverallDifficulty:8.5
ApproachRate:9
SliderMultiplier:1.8
SliderTickRate:1

[Events]
//Background and Video events
0,0,"bururifurii.jpg",0,0
//Break Periods
2,35588,42054
//Storyboard Layer 0 (Background)
//Storyboard Layer 1 (Fail)
//Storyboard Layer 2 (Pass)
//Storyboard Layer 3 (Foreground)
//Storyboard Layer 4 (Overlay)
//Storyboard Sound Samples

[TimingPoints]
1047,330.214639515685,4,2,1,50,1,0
1047,-83.3333333333333,4,2,1,50,0,0
2698,-83.3333333333333,4,2,3,50,0,0
3688,-83.3333333333333,4,2,1,50,0,0
6000,-83.3333333333333,4,2,3,50,0,0
6165,-83.3333333333333,4,2,1,50,0,0
10623,-83.3333333333333,4,2,3,50,0,0
11613,-83.3333333333333,4,2,1,50,0,0
13595,-83.3333333333333,4,2,3,50,0,0
14255,-83.3333333333333,4,2,1,50,0,0
18630,-83.3333333333333,4,2,3,50,0,0
18878,-83.3333333333333,4,2,1,50,0,0
21355,-83.3333333333333,4,2,3,50,0,0
22180,-83.3333333333333,4,2,1,50,0,0
24657,-83.3333333333333,4,2,1,55,0,0
24822,-100,4,2,1,60,0,0
27464,-100,4,2,2,70,0,0
29445,-66.6666666666667,4,2,2,70,0,0
30105,-83.3333333333333,4,2,2,70,0,0
32747,-1000,4,2,3,50,0,0
42984,-83.3333333333333,4,2,3,60,0,0
43314,-133.333333333333,4,2,3,50,0,0
63127,-133.333333333333,4,2,2,60,0,0
63787,-133.333333333333,4,2,1,40,0,0
63952,-133.333333333333,4,2,1,50,0,0
64117,-133.333333333333,4,2,1,60,0,0
64283,-133.333333333333,4,2,1,70,0,0
64448,-58.8235294117647,4,2,1,80,0,1
80298,-66.6666666666667,4,2,1,80,0,1
84921,-66.6666666666667,4,2,1,70,0,1
85251,-66.6666666666667,4,2,1,60,0,1
85581,-66.6666666666667,4,2,1,50,0,0
85912,-66.6666666666667,4,2,3,50,0,0
90865,-66.6666666666667,4,2,3,40,0,0
94662,-100,4,2,3,40,0,0
95405,-100,4,2,3,55,0,0
96148,-100,4,2,1,55,0,0

[Colours]
Combo1 : 89,189,232
Combo2 : 202,142,208
Combo3 : 213,203,136

[HitObjects]
99,186,1047,6,0,P|183:159|277:144,1,161.999995056153,6|0,3:1|0:0,0:0:0:0:
277,138,1377,2,0,P|292:123|239:65,1,107.999996704102,8|0,0:2|0:0,0:0:0:0:
225,59,1624,1,0,3:2:0:0:
225,59,1707,1,8,0:2:0:0:
376,82,1872,2,0,P|441:68|498:53,1,107.999996704102,2|10,3:2|0:2,0:0:0:0:
304,236,2202,5,2,3:2:0:0:
371,384,2367,2,0,P|401:241|417:158,1,215.999993408203,2|8,0:1|0:3,0:0:0:0:
16,49,3028,2,0,P|34:142|54:235,2,161.999995056152,8|2|8,0:3|0:3|0:3,0:0:0:0:
221,0,3688,5,2,3:1:0:0:
81,119,4018,2,0,P|138:130|208:155,1,107.999996704102,8|0,0:2|0:0,0:0:0:0:
223,132,4266,1,0,3:2:0:0:
223,132,4349,1,8,0:2:0:0:
115,273,4514,2,0,P|41:287|-5:297,1,107.999996704102,2|10,3:2|0:2,0:0:0:0:
242,384,4844,6,0,P|218:303|191:206,2,161.999995056152,2|0|10,3:2|0:0|0:2,0:0:0:0:
453,342,5504,5,0,0:0:0:0:
453,342,5587,1,8,0:2:0:0:
453,342,5670,2,0,P|400:334|359:288,1,107.999996704102,10|0,0:2|3:2,0:0:0:0:
279,228,5917,1,8,0:2:0:0:
290,236,6000,2,0,P|341:204|332:148,1,107.999996704102,8|8,0:3|0:2,0:0:0:0:
165,119,6330,6,0,L|277:101,1,107.999996704102,2|0,3:1|0:0,0:0:0:0:
405,0,6660,2,0,L|511:17,1,107.999996704102,8|0,0:2|0:0,0:0:0:0:
321,28,6990,5,10,0:2:0:0:
412,111,7155,2,0,L|436:231,1,107.999996704102,2|10,3:2|0:2,0:0:0:0:
328,38,7486,5,2,3:2:0:0:
270,117,7651,2,0,L|164:138,1,107.999996704102,2|0,0:1|0:0,0:0:0:0:
142,166,7898,1,0,0:0:0:0:
142,166,7981,2,0,L|36:187,1,107.999996704102,10|0,0:2|0:0,0:0:0:0:
135,17,8311,5,2,3:2:0:0:
201,311,8641,1,10,0:2:0:0:
201,311,8807,1,8,0:2:0:0:
264,249,8972,6,0,B|367:270|293:328|392:356,1,161.999995056153,2|0,3:1|3:2,0:0:0:0:
400,348,9302,2,0,P|420:290|445:234,1,107.999996704102,8|2,0:2|0:0,0:0:0:0:
468,233,9550,1,8,0:2:0:0:
468,233,9632,1,2,3:2:0:0:
398,149,9797,2,0,P|310:162|274:169,1,107.999996704102,2|10,3:2|0:2,0:0:0:0:
130,0,10127,6,0,P|152:131|162:220,1,215.999993408203,2|2,3:2|0:2,0:0:0:0:
70,281,10623,6,0,P|150:254|172:338,1,161.999995056153,8|2,0:3|0:3,0:0:0:0:
167,341,10953,2,0,P|95:359|55:375,1,107.999996704102,8|0,0:3|0:0,0:0:0:0:
29,359,11201,1,8,0:3:0:0:
29,359,11283,1,2,0:3:0:0:
61,260,11448,1,2,0:3:0:0:
0,160,11613,6,0,B|24:181|24:181|156:151,1,161.999995056153,6|0,3:1|3:2,0:0:0:0:
172,129,11944,2,0,L|289:155,1,107.999996704102,8|0,0:2|0:0,0:0:0:0:
312,138,12191,1,8,0:2:0:0:
312,138,12274,1,0,3:2:0:0:
466,62,12439,5,2,3:2:0:0:
389,192,12604,1,10,0:2:0:0:
246,29,12769,2,0,P|302:43|483:85,1,215.999993408203,2|0,3:2|0:0,0:0:0:0:
494,167,13264,6,0,P|481:215|450:340,1,161.999995056153,10|0,0:2|0:0,0:0:0:0:
447,348,13595,2,0,P|381:378|350:345,1,107.999996704102,8|0,0:3|0:0,0:0:0:0:
351,336,13842,1,8,0:3:0:0:
351,336,13925,1,2,0:3:0:0:
242,379,14090,1,2,0:3:0:0:
146,319,14255,6,0,P|136:238|120:159,1,161.999995056153,2|0,3:2|3:0,0:0:0:0:
98,137,14585,2,0,P|35:135|19:79,1,107.999996704102,8|0,0:2|0:0,0:0:0:0:
39,74,14833,1,8,0:2:0:0:
39,74,14916,1,0,3:2:0:0:
221,0,15081,6,0,P|210:55|201:113,1,107.999996704102,2|2,3:2|0:2,0:0:0:0:
341,171,15411,1,2,3:2:0:0:
44,251,15576,2,0,P|134:226|263:193,1,215.999993408203,2|8,0:1|0:2,0:0:0:0:
438,360,16154,1,8,0:2:0:0:
438,360,16236,6,0,P|456:261|470:234,1,107.999996704102,2|0,3:1|0:2,0:0:0:0:
485,243,16484,1,0,3:2:0:0:
485,243,16567,2,0,P|486:164|459:118,1,107.999996704102,2|8,0:1|0:2,0:0:0:0:
464,111,16814,1,0,0:0:0:0:
464,111,16897,6,0,P|392:93|281:65,1,161.999995056153,2|0,3:1|3:0,0:0:0:0:
277,64,17227,2,0,P|234:106|258:153,1,107.999996704102,8|0,0:2|0:0,0:0:0:0:
278,153,17475,1,8,0:2:0:0:
278,153,17557,1,0,3:2:0:0:
356,221,17722,5,2,3:2:0:0:
231,378,17887,1,2,0:2:0:0:
357,327,18053,6,0,B|322:337|322:337|230:223|230:223|159:234,1,215.999993408203,2|0,3:2|0:2,0:0:0:0:
11,187,18548,2,0,P|24:241|77:252,1,107.999996704102,10|2,0:2|0:3,0:0:0:0:
152,383,18878,6,0,P|175:301|206:200,2,161.999995056153,10|0|8,0:2|3:2|0:2,0:0:0:0:
231,132,19539,6,0,P|175:189|90:151,1,161.999995056153,2|0,3:2|0:0,0:0:0:0:
79,152,19869,2,0,P|73:88|66:40,1,107.999996704102,0|0,0:2|0:0,0:0:0:0:
40,19,20116,1,0,3:2:0:0:
40,19,20199,1,8,0:2:0:0:
177,54,20364,1,0,3:2:0:0:
329,0,20529,5,2,0:2:0:0:
329,0,20694,2,0,P|320:59|299:215,1,215.999993408203,2|0,3:2|3:2,0:0:0:0:
216,361,21190,2,0,L|325:343,1,107.999996704102,8|2,0:2|0:3,0:0:0:0:
356,356,21437,1,0,0:0:0:0:
356,356,21520,2,0,P|410:317|397:263,1,107.999996704102,8|2,0:3|0:3,0:0:0:0:
391,263,21767,1,8,0:3:0:0:
391,261,21850,2,0,P|394:216|413:140,1,107.999996704102,8|2,0:3|0:3,0:0:0:0:
497,40,22180,6,0,P|401:69|291:77,1,161.999995056153,2|0,3:2|3:0,0:0:0:0:
311,79,22510,2,0,P|293:19|337:3,1,107.999996704102,8|0,0:2|0:0,0:0:0:0:
362,0,22758,1,8,0:2:0:0:
362,0,22841,1,0,3:2:0:0:
201,50,23006,2,0,P|213:109|226:179,1,107.999996704102,0|2,3:2|0:2,0:0:0:0:
76,205,23336,6,0,B|172:200|134:255|236:252,1,161.999995056153,2|0,3:2|0:0,0:0:0:0:
255,233,23666,1,0,0:2:0:0:
499,337,23831,6,0,P|407:349|317:381,1,161.999995056153,10|0,0:2|0:0,0:0:0:0:
320,378,24162,2,0,P|300:332|356:284,1,107.999996704102,2|0,0:2|0:0,0:0:0:0:
369,281,24409,1,8,0:3:0:0:
369,281,24492,1,10,0:3:0:0:
398,268,24574,1,8,0:3:0:0:
415,227,24657,1,8,0:3:0:0:
424,179,24739,1,8,0:3:0:0:
403,145,24822,6,0,L|301:132,1,90,4|0,3:1|0:2,0:0:0:0:
385,65,25152,2,0,L|283:52,1,90,2|2,3:2|0:2,0:0:0:0:
0,148,25482,5,0,3:2:0:0:
0,148,25647,1,2,0:2:0:0:
101,122,25813,1,2,3:2:0:0:
72,209,25978,6,0,L|161:220,1,90,2|0,0:2|3:2,0:0:0:0:
269,227,26308,1,2,0:2:0:0:
189,323,26473,1,2,3:2:0:0:
234,142,26638,1,2,0:2:0:0:
350,280,26803,5,2,3:2:0:0:
368,288,26886,1,2,0:0:0:0:
381,265,26968,1,2,0:2:0:0:
416,277,27051,1,2,0:0:0:0:
436,250,27133,2,0,P|442:220|446:197,1,45,2|2,3:2|0:0,0:0:0:0:
416,45,27299,2,0,P|422:15|426:-8,1,45,2|2,0:2|0:0,0:0:0:0:
470,116,27464,6,0,P|397:128|351:140,1,90,4|0,3:1|0:0,0:0:0:0:
274,145,27794,1,0,3:2:0:0:
274,145,27959,1,2,0:3:0:0:
436,250,28124,6,0,L|422:195,1,45,0|0,1:2|0:2,0:0:0:0:
382,132,28289,1,0,3:2:0:0:
382,132,28454,1,2,0:0:0:0:
382,132,28619,1,0,3:0:0:0:
382,132,28785,1,0,0:0:0:0:
305,234,28950,6,0,L|250:248,1,45,2|0,3:2|0:2,0:0:0:0:
187,273,29115,2,0,L|339:311,1,135,0|0,3:2|0:2,0:0:0:0:
369,375,29445,6,0,P|356:306|407:280,1,135.000005149842,2|0,1:2|0:2,0:0:0:0:
477,183,29693,2,0,P|408:196|382:145,1,135.000005149842,0|0,1:2|0:2,0:0:0:0:
174,37,29940,6,0,P|188:84|193:112,1,67.5000025749208,0|0,1:2|0:2,0:0:0:0:
261,245,30105,6,0,P|276:166|305:58,1,161.999995056153,2|0,3:2|0:0,0:0:0:0:
325,56,30436,1,0,3:0:0:0:
249,165,30601,1,2,0:3:0:0:
4,114,30766,5,0,1:2:0:0:
100,19,30931,2,0,P|89:59|84:88,1,53.9999983520508,2|0,3:2|0:0,0:0:0:0:
251,251,31096,2,0,P|225:243|198:237,1,53.9999983520508,2|0,0:3|0:0,0:0:0:0:
73,150,31261,6,0,B|28:198|28:198|197:139,1,215.999993408203,2|0,3:2|3:0,0:0:0:0:
260,9,31674,1,0,0:2:0:0:
260,9,31756,2,0,P|208:44|227:91,1,107.999996704102,0|2,1:2|0:3,0:0:0:0:
316,171,32004,1,0,3:0:0:0:
316,171,32087,2,0,P|283:157|225:152,3,53.9999983520508,2|2|2|2,3:2|0:3|0:3|0:3,0:0:0:0:
416,204,32417,1,2,1:2:0:0:
416,204,32499,1,0,1:0:0:0:
416,204,32582,2,0,L|443:212,2,26.9999991760254,0|2|0,1:0|0:3|1:2,0:0:0:0:
339,265,32747,6,0,B|247:279|306:322|222:339,1,144
0,384,42654,5,8,0:3:0:0:
155,353,42819,1,2,0:3:0:0:
55,304,42984,1,2,0:3:0:0:
182,226,43149,1,2,0:0:0:0:
75,146,43314,6,0,L|93:230,1,67.5000025749208,0|0,3:2|0:0,0:0:0:0:
135,91,43644,1,2,0:2:0:0:
135,91,43809,1,2,0:2:0:0:
483,187,44140,5,2,0:2:0:0:
483,187,44305,1,2,0:3:0:0:
419,93,44470,2,0,P|403:166|394:241,1,135.000005149842,2|2,3:2|0:3,0:0:0:0:
478,384,44965,1,2,3:2:0:0:
478,384,45130,1,0,3:2:0:0:
426,310,45295,2,0,P|393:301|359:296,1,67.5000025749208,2|0,1:2|0:0,0:0:0:0:
269,384,45625,2,0,P|277:351|282:317,1,67.5000025749208,2|0,0:2|0:0,0:0:0:0:
111,190,45956,5,2,3:2:0:0:
46,368,46286,1,2,0:2:0:0:
83,282,46451,2,0,P|127:272|166:269,1,67.5000025749208,2|0,0:2|1:2,0:0:0:0:
106,183,46781,2,0,P|73:174|39:170,1,67.5000025749208,2|0,0:2|0:2,0:0:0:0:
114,90,47111,6,0,P|191:72|260:66,1,135.000005149842,2|0,3:2|0:2,0:0:0:0:
302,11,47607,1,0,3:2:0:0:
302,11,47772,1,0,3:2:0:0:
393,131,47937,1,0,1:2:0:0:
163,384,48267,5,2,0:2:0:0:
201,312,48432,1,2,0:2:0:0:
162,244,48597,2,0,P|116:236|68:229,1,67.5000025749208,2|0,3:2|0:0,0:0:0:0:
52,167,48928,1,2,0:2:0:0:
52,167,49093,1,2,0:2:0:0:
145,0,49423,6,0,P|154:55|163:118,1,101.250003862381,2|0,0:2|0:0,0:0:0:0:
167,133,49753,2,0,P|240:123|314:113,1,135.000005149842,2|2,3:2|0:3,0:0:0:0:
512,384,50248,6,0,P|453:376|394:368,1,101.250003862381,2|0,3:2|0:0,0:0:0:0:
391,374,50579,2,0,P|374:322|399:284,1,101.250003862381,2|0,1:2|0:0,0:0:0:0:
416,273,50909,2,0,P|408:216|391:167,1,101.250003862381,2|8,0:2|0:3,0:0:0:0:
376,151,51239,6,0,P|386:95|395:61,1,67.5000025749208,2|0,3:2|0:0,0:0:0:0:
388,2,51569,1,2,0:2:0:0:
313,39,51734,2,0,P|252:50|214:53,1,67.5000025749208,2|0,0:2|1:2,0:0:0:0:
138,0,52065,2,0,P|156:49|161:89,1,67.5000025749208,2|0,0:2|0:2,0:0:0:0:
172,259,52395,6,0,P|197:162|219:112,1,135.000005149842,2|2,3:2|0:3,0:0:0:0:
260,210,52890,1,2,3:3:0:0:
260,210,53055,1,0,3:2:0:0:
120,136,53220,2,0,P|76:147|33:156,1,67.5000025749208,0|0,1:2|0:0,0:0:0:0:
27,223,53551,1,2,0:2:0:0:
27,223,53716,1,2,0:2:0:0:
106,243,53881,6,0,P|147:256|178:258,1,67.5000025749208,2|0,3:2|0:0,0:0:0:0:
230,318,54211,1,2,0:2:0:0:
230,318,54376,1,2,0:2:0:0:
415,384,54706,6,0,P|406:336|405:305,1,67.5000025749208,2|0,0:2|0:2,0:0:0:0:
484,248,55037,2,0,P|416:240|348:206,1,135.000005149842,2|0,3:2|0:2,0:0:0:0:
259,88,55532,5,2,3:2:0:0:
259,88,55697,1,0,3:2:0:0:
330,134,55862,2,0,P|344:77|348:48,1,67.5000025749208,2|0,1:2|0:0,0:0:0:0:
238,177,56192,2,0,P|258:231|265:283,1,101.250003862381,2|2,0:2|1:3,0:0:0:0:
245,301,56523,6,0,P|206:306|170:325,1,67.5000025749208,2|0,3:2|0:0,0:0:0:0:
17,359,56853,1,2,0:2:0:0:
116,384,57018,2,0,P|100:340|93:310,1,67.5000025749208,2|0,0:2|1:2,0:0:0:0:
17,267,57348,2,0,P|33:223|40:193,1,67.5000025749208,2|0,0:2|0:2,0:0:0:0:
6,106,57678,6,0,P|83:133|148:147,1,135.000005149842,2|2,3:2|0:3,0:0:0:0:
213,207,58174,1,2,3:3:0:0:
213,207,58339,1,0,3:2:0:0:
274,140,58504,2,0,P|325:129|358:117,1,67.5000025749208,0|0,1:2|0:0,0:0:0:0:
420,181,58834,5,2,0:2:0:0:
369,247,58999,1,2,0:2:0:0:
385,333,59164,2,0,P|443:351|472:361,1,67.5000025749208,2|0,3:2|0:0,0:0:0:0:
501,293,59494,1,2,0:2:0:0:
501,293,59660,1,2,0:2:0:0:
267,380,59990,1,2,0:2:0:0:
183,152,60320,6,0,P|167:224|147:294,1,135.000005149842,2|2,3:2|0:3,0:0:0:0:
186,354,60815,1,2,3:2:0:0:
186,354,60980,1,0,3:2:0:0:
356,265,61146,6,0,P|297:307|270:294,1,101.250003862381,2|0,1:2|0:0,0:0:0:0:
250,282,61476,2,0,P|262:231|282:164,1,101.250003862381,2|2,0:2|0:3,0:0:0:0:
290,151,61806,6,0,P|334:169|369:170,1,67.5000025749208,2|0,3:2|0:0,0:0:0:0:
441,222,62136,2,0,P|459:177|460:142,1,67.5000025749208,2|2,0:2|0:3,0:0:0:0:
448,51,62466,2,0,P|481:56|512:71,1,67.5000025749208,2|0,1:2|0:2,0:0:0:0:
361,0,62797,2,0,P|346:30|341:63,1,67.5000025749208,2|0,0:2|0:2,0:0:0:0:
320,137,63127,5,0,1:2:0:0:
241,123,63237,5,0,1:2:0:0:
233,202,63347,6,0,P|240:214|250:232,2,22.5000008583069,8|0|0,0:3|0:0|0:0,0:0:0:0:
163,156,63567,5,2,0:3:0:0:
164,149,63622,1,2,0:3:0:0:
166,142,63677,1,0,1:2:0:0:
155,57,63787,5,2,0:1:0:0:
68,118,63952,5,2,0:1:0:0:
131,270,64117,5,2,0:1:0:0:
0,384,64283,5,2,0:1:0:0:
200,346,64448,6,0,P|298:326|468:305,1,229.500004377365,14|0,3:1|0:2,0:0:0:0:
493,352,64778,2,0,P|509:357|487:356,1,76.5000014591217,2|0,1:2|0:2,0:0:0:0:
318,383,64943,2,0,P|332:308|354:235,1,153.000002918243,2|0,0:2|3:2,0:0:0:0:
448,33,65273,5,2,0:2:0:0:
364,229,65438,1,0,1:2:0:0:
474,163,65603,2,0,B|341:127|432:84|207:47,1,229.500004377365,2|0,0:2|0:2,0:0:0:0:
270,62,65934,1,2,0:2:0:0:
122,73,66099,6,0,B|121:52|87:29|87:29|176:29|203:90|165:149,1,229.500004377365,2|0,1:1|0:2,0:0:0:0:
105,194,66429,2,0,P|81:199|27:213,1,76.5000014591217,2|0,3:1|0:0,0:0:0:0:
265,265,66594,1,2,0:2:0:0:
136,380,66759,2,0,P|168:268|193:201,1,153.000002918243,2|2,1:1|0:2,0:0:0:0:
371,146,67089,6,0,B|295:114|295:114|376:260,1,229.500004377365,2|0,3:1|0:2,0:0:0:0:
395,248,67420,1,2,1:2:0:0:
495,376,67585,2,0,P|358:338|301:325,1,153.000002918243,2|0,0:2|3:2,0:0:0:0:
111,384,67915,5,2,0:2:0:0:
272,254,68080,1,0,1:2:0:0:
224,363,68245,1,2,0:1:0:0:
60,310,68410,6,0,P|49:264|41:223,1,76.5000014591217,2|0,3:1|0:0,0:0:0:0:
137,157,68575,1,2,0:1:0:0:
142,164,68658,1,2,0:1:0:0:
142,174,68741,2,0,P|64:208|10:82,1,229.500004377365,2|2,1:1|0:1,0:0:0:0:
12,88,69071,6,0,P|53:77|109:63,1,76.5000014591217,2|0,3:1|0:0,0:0:0:0:
262,142,69236,2,0,P|303:131|359:117,1,76.5000014591217,2|0,0:2|0:2,0:0:0:0:
217,0,69401,6,0,P|194:30|193:76,1,76.5000014591217,2|0,1:1|0:2,0:0:0:0:
142,174,69566,6,0,P|156:208|195:232,1,76.5000014591217,2|0,3:1|0:2,0:0:0:0:
184,345,69731,6,0,P|348:302|441:285,1,229.500004377365,6|0,3:2|0:2,0:0:0:0:
476,247,70061,2,0,P|473:224|418:222,1,76.5000014591217,2|0,1:2|0:2,0:0:0:0:
327,384,70226,2,0,P|311:309|290:235,1,153.000002918243,2|0,0:2|3:2,0:0:0:0:
443,77,70557,5,2,0:2:0:0:
280,231,70722,1,0,1:2:0:0:
283,75,70887,2,0,B|332:83|332:83|380:207|380:207|431:213,1,229.500004377365,2|0,0:2|0:2,0:0:0:0:
431,207,71217,1,2,0:2:0:0:
143,135,71382,6,0,B|80:104|-4:88|-4:88|41:79|67:61,1,229.500004377365,2|0,1:1|0:2,0:0:0:0:
1,2,71712,6,0,P|37:92|64:244,1,229.500004377365,2|2,3:1|0:2,0:0:0:0:
31,337,72043,6,0,P|65:242|156:299,1,229.500004377365,2|0,1:1|0:0,0:0:0:0:
114,374,72373,5,2,3:1:0:0:
330,240,72538,1,2,0:2:0:0:
218,225,72703,1,2,1:2:0:0:
267,384,72868,2,0,P|251:313|224:229,1,153.000002918243,2|0,0:2|3:0,0:0:0:0:
421,92,73198,5,2,0:2:0:0:
330,240,73364,1,0,1:2:0:0:
455,204,73529,1,2,0:1:0:0:
295,123,73694,6,0,P|258:128|196:147,1,76.5000014591217,2|0,3:1|0:0,0:0:0:0:
6,76,73859,2,0,P|42:66|80:61,1,76.5000014591217,2|0,0:1|0:2,0:0:0:0:
182,0,74024,6,0,P|137:145|116:233,1,229.500004377365,2|0,1:1|0:2,0:0:0:0:
71,282,74354,6,0,P|36:304|-17:300,1,76.5000014591217,2|0,3:1|0:0,0:0:0:0:
193,319,74519,6,0,P|183:359|143:393,1,76.5000014591217,2|0,0:1|0:1,0:0:0:0:
290,297,74684,6,0,P|312:332|308:385,1,76.5000014591217,2|0,1:1|0:0,0:0:0:0:
344,235,74849,6,0,P|384:244|418:284,1,76.5000014591217,2|0,3:1|0:0,0:0:0:0:
510,103,75015,6,0,P|344:75|247:39,1,229.500004377365,14|0,3:1|0:2,0:0:0:0:
209,46,75345,2,0,B|195:12|195:12|232:0,1,76.5000014591217,2|0,1:2|0:2,0:0:0:0:
400,13,75510,2,0,P|373:84|355:159,1,153.000002918243,2|0,0:2|3:2,0:0:0:0:
127,274,75840,5,2,0:2:0:0:
362,169,76005,1,0,1:2:0:0:
290,297,76170,2,0,B|206:249|275:155|115:115,1,229.500004377365,2|0,0:2|0:2,0:0:0:0:
150,126,76501,1,2,0:2:0:0:
19,9,76666,6,0,B|122:-9|122:-9|31:157,1,229.500004377365,2|0,1:1|0:2,0:0:0:0:
0,166,76996,6,0,P|105:110|223:86,1,229.500004377365,2|2,3:1|0:2,0:0:0:0:
289,54,77326,6,0,B|276:26|293:-6|293:-6|236:20|227:111|282:141,1,229.500004377365,2|0,1:1|0:0,0:0:0:0:
360,158,77656,6,0,P|270:173|269:242,1,153.000002918243,10|0,3:1|0:0,0:0:0:0:
388,336,77987,1,2,1:0:0:0:
294,384,78152,2,0,P|319:287|343:228,1,153.000002918243,2|0,0:1|3:0,0:0:0:0:
505,202,78482,2,0,P|408:177|349:153,1,153.000002918243,2|2,0:1|1:2,0:0:0:0:
93,382,78812,1,2,0:1:0:0:
93,382,78977,6,0,P|267:338|407:310,2,306.000005836487,0|2|2,3:0|1:2|3:2,0:0:0:0:
93,382,79968,5,2,1:1:0:0:
9,249,80133,1,2,3:1:0:0:
117,285,80298,6,0,P|146:173|168:101,1,135.000005149842,6|0,3:2|0:0,0:0:0:0:
274,25,80628,1,2,1:2:0:0:
68,43,80793,2,0,P|142:61|215:82,1,135.000005149842,2|0,0:2|3:2,0:0:0:0:
434,230,81124,6,0,P|471:217|519:211,1,67.5000025749208,2|0,0:1|0:2,0:0:0:0:
304,141,81289,2,0,P|266:146|230:159,1,67.5000025749208,2|2,1:2|0:2,0:0:0:0:
314,338,81454,6,0,P|344:243|354:181,1,135.000005149842,2|0,0:1|3:0,0:0:0:0:
505,0,81784,5,2,0:2:0:0:
512,80,81949,1,2,1:2:0:0:
457,139,82114,1,2,0:2:0:0:
376,136,82279,6,0,P|308:98|153:75,1,202.500007724762,2|0,3:2|0:0,0:0:0:0:
173,69,82610,1,2,1:1:0:0:
136,69,82692,1,2,1:1:0:0:
103,98,82775,1,2,3:1:0:0:
93,161,82857,1,2,3:1:0:0:
133,224,82940,6,0,P|197:203|289:195,1,135.000005149842,10|0,3:1|0:0,0:0:0:0:
404,326,83270,1,2,1:2:0:0:
301,384,83435,2,0,P|309:317|330:253,1,135.000005149842,2|0,0:2|3:2,0:0:0:0:
512,49,83765,5,2,0:1:0:0:
414,225,83930,1,0,1:2:0:0:
321,88,84095,1,2,0:1:0:0:
512,170,84261,6,0,P|400:125|285:91,1,202.500007724762,0|0,3:0|0:0,0:0:0:0:
245,58,84591,6,0,B|239:19|239:19|366:-2|366:-2|375:48,1,202.500007724762,2|0,1:2|0:2,0:0:0:0:
321,100,84921,6,0,B|359:222|278:181|304:298,1,202.500007724762,2|0,3:2|0:2,0:0:0:0:
385,383,85251,6,0,B|371:347|371:347|175:299,1,202.500007724762,2|2,1:2|0:2,0:0:0:0:
211,308,85581,5,2,0:2:0:0:
211,308,85912,5,8,0:2:0:0:
134,333,86077,1,2,0:3:0:0:
66,309,86242,1,2,0:3:0:0:
66,309,86324,1,2,0:3:0:0:
66,309,86407,1,0,3:3:0:0:
30,236,86572,1,0,3:3:0:0:
28,155,86737,1,8,0:0:0:0:
73,88,86902,5,2,0:3:0:0:
73,88,86985,1,8,0:3:0:0:
73,88,87067,1,2,3:0:0:0:
144,127,87233,1,8,0:0:0:0:
222,107,87398,1,2,0:3:0:0:
222,107,87727,5,2,3:0:0:0:
300,87,87892,1,8,0:0:0:0:
371,126,88058,1,2,0:3:0:0:
457,114,88223,1,2,0:3:0:0:
457,114,88306,1,2,0:3:0:0:
457,114,88388,1,2,0:3:0:0:
489,39,88553,5,2,3:0:0:0:
411,16,88718,1,8,0:3:0:0:
341,59,88884,1,8,0:0:0:0:
268,22,89049,1,2,3:0:0:0:
268,22,89131,1,8,0:0:0:0:
155,68,89379,1,2,3:0:0:0:
155,68,89874,5,8,0:0:0:0:
91,118,90039,1,2,0:3:0:0:
58,192,90204,1,2,3:0:0:0:
117,247,90370,1,0,3:0:0:0:
97,325,90535,1,2,0:0:0:0:
97,325,90617,1,0,3:0:0:0:
211,366,90865,5,0,3:0:0:0:
283,330,91030,1,0,3:0:0:0:
361,311,91195,1,8,0:0:0:0:
441,308,91360,1,2,0:3:0:0:
441,308,91443,1,2,0:3:0:0:
441,308,91525,1,2,0:3:0:0:
501,254,91690,5,0,3:0:0:0:
495,172,91856,1,2,0:3:0:0:
438,114,92021,1,8,0:0:0:0:
438,114,92351,5,2,3:0:0:0:
364,148,92516,1,8,0:0:0:0:
344,226,92681,5,2,0:3:0:0:
266,203,92846,1,2,0:3:0:0:
190,232,93011,5,2,3:0:0:0:
125,281,93176,1,8,0:0:0:0:
19,171,93507,5,2,0:3:0:0:
19,171,93589,1,2,0:3:0:0:
19,171,93672,1,2,0:3:0:0:
96,193,93837,1,0,3:0:0:0:
161,145,94002,1,8,0:3:0:0:
231,184,94167,5,8,0:0:0:0:
307,158,94332,1,8,3:0:0:0:
307,158,94415,1,8,0:0:0:0:
493,193,94662,6,0,P|530:136|504:67,1,135,0|8,3:0|0:3,0:0:0:0:
493,70,94993,6,0,P|471:27|420:19,1,90,2|2,0:3|0:3,0:0:0:0:
425,2,95240,6,0,P|378:0|347:38,1,90,8|2,0:3|0:3,0:0:0:0:
348,39,95488,5,8,0:3:0:0:
362,79,95570,1,2,0:3:0:0:
331,107,95653,1,8,0:3:0:0:
359,144,95736,1,2,0:3:0:0:
341,182,95818,6,0,L|304:196,6,30,8|8|8|8|8|8|8,0:3|0:3|0:3|0:3|0:3|0:3|3:1,0:0:0:0:
