osu file format v14

[General]
AudioFilename: audio.mp3
AudioLeadIn: 0
PreviewTime: 133103
Countdown: 0
SampleSet: Normal
StackLeniency: 0.7
Mode: 1
LetterboxInBreaks: 0
WidescreenStoryboard: 0

[Editor]
DistanceSpacing: 1.2
BeatDivisor: 4
GridSize: 16
TimelineZoom: 3.799998

[Metadata]
Title:OVERDOSE
TitleUnicode:OVERDOSE
Artist:Hayato Asano
ArtistUnicode:浅野隼人
Creator:ibacot
Version:Oni
Source:BLUE REFLECTION 幻に舞う少女の剣
Tags:Sword of the Girl Who Dances in Illusions Takashi Saeki KOEI TECMO GAMES ost
BeatmapID:1645163
BeatmapSetID:783499

[Difficulty]
HPDrainRate:6
CircleSize:5
OverallDifficulty:6
ApproachRate:10
SliderMultiplier:1.4
SliderTickRate:1

[Events]
//Background and Video events
0,0,"bg blue reflection.jpg",0,125
//Break Periods
//Storyboard Layer 0 (Background)
//Storyboard Layer 1 (Fail)
//Storyboard Layer 2 (Pass)
//Storyboard Layer 3 (Foreground)
//Storyboard Sound Samples

[TimingPoints]
1513,272.727272727273,4,1,0,60,1,0
1513,-100,4,1,0,5,0,0
1785,-100,4,1,0,20,0,0
2058,-100,4,1,0,45,0,0
2331,-100,4,1,0,60,0,0
10513,-105.263157894737,4,1,0,60,0,0
11194,-111.111111111111,4,1,0,60,0,0
11603,-125,4,1,0,60,0,0
19376,-117.647058823529,4,1,0,60,0,0
20058,-111.111111111111,4,1,0,60,0,0
27285,-117.647058823529,4,1,0,60,0,0
28785,-125,4,1,0,60,0,0
36558,-117.647058823529,4,1,0,60,0,0
37513,-111.111111111111,4,1,0,60,0,0
46240,-100,4,1,0,60,0,1
80058,-100,4,1,0,60,0,0
81558,-142.857142857143,4,1,0,60,0,0
89058,-133.333333333333,4,1,0,60,0,0
89467,-125,4,1,0,60,0,0
89603,-111.111111111111,4,1,0,60,0,0
89876,-117.647058823529,4,1,0,60,0,0
98058,-125,4,1,0,60,0,0
106649,-117.647058823529,4,1,0,60,0,0
107331,-111.111111111111,4,1,0,60,0,0
114149,-114.942528735632,4,1,0,60,0,0
114558,-117.647058823529,4,1,0,60,0,0
116331,-120.481927710843,4,1,0,60,0,0
116603,-125,4,1,0,60,0,0
123831,-117.647058823529,4,1,0,60,0,0
124785,-111.111111111111,4,1,0,60,0,0
133513,-99.9999999999999,4,1,0,60,0,1
167331,-99.9999999999999,4,1,0,60,0,0
168831,-142.857142857143,4,1,0,50,0,0
176331,-133.333333333333,4,1,0,50,0,0
176740,-125,4,1,0,50,0,0
176876,-111.111111111111,4,1,0,50,0,0
177149,-117.647058823529,4,1,0,50,0,0
185331,-125,4,1,0,50,0,0
193922,-117.647058823529,4,1,0,40,0,0
194603,-111.111111111111,4,1,0,40,0,0
196785,-111.111111111111,4,1,0,35,0,0
198013,-111.111111111111,4,1,0,30,0,0
198967,-111.111111111111,4,1,0,25,0,0
199649,-111.111111111111,4,1,0,20,0,0
200603,-111.111111111111,4,1,0,15,0,0
201831,-111.111111111111,4,1,0,12,0,0
202376,-111.111111111111,4,1,0,8,0,0
202785,-111.111111111111,4,1,0,5,0,0

[HitObjects]
256,192,1513,12,0,2331,1:0:0:0:
256,192,2603,5,0,1:0:0:0:
256,192,2876,1,8,1:0:0:0:
256,192,3013,1,0,1:0:0:0:
256,192,3285,1,0,1:0:0:0:
256,192,3422,1,8,1:0:0:0:
256,192,3694,1,0,1:0:0:0:
256,192,3967,1,8,1:0:0:0:
256,192,4103,1,0,1:0:0:0:
256,192,4240,1,8,1:0:0:0:
256,192,4376,1,0,1:0:0:0:
256,192,4513,1,8,1:0:0:0:
256,192,4785,1,0,1:0:0:0:
256,192,5058,1,8,1:0:0:0:
256,192,5194,1,0,1:0:0:0:
256,192,5467,1,0,1:0:0:0:
256,192,5603,1,8,1:0:0:0:
256,192,5740,1,0,1:0:0:0:
256,192,5808,1,8,1:0:0:0:
256,192,5876,1,8,1:0:0:0:
256,192,6149,1,0,1:0:0:0:
256,192,6558,1,0,1:0:0:0:
256,192,6694,1,8,1:0:0:0:
256,192,6967,1,0,1:0:0:0:
256,192,7035,1,0,1:0:0:0:
256,192,7103,1,8,1:0:0:0:
256,192,7240,1,8,1:0:0:0:
256,192,7376,1,0,1:0:0:0:
256,192,7649,1,0,1:0:0:0:
256,192,7785,1,8,1:0:0:0:
256,192,7922,1,0,1:0:0:0:
256,192,8058,1,0,1:0:0:0:
256,192,8331,1,8,1:0:0:0:
256,192,8467,1,0,1:0:0:0:
256,192,8740,1,0,1:0:0:0:
256,192,8876,1,8,1:0:0:0:
256,192,9149,1,8,1:0:0:0:
256,192,9217,1,0,1:0:0:0:
256,192,9285,1,0,1:0:0:0:
256,192,9422,1,8,1:0:0:0:
256,192,9558,1,0,1:0:0:0:
256,192,9831,1,0,1:0:0:0:
256,192,9967,1,8,1:0:0:0:
256,192,10103,1,0,1:0:0:0:
256,192,10172,1,0,1:0:0:0:
256,192,10240,1,8,1:0:0:0:
256,192,10513,1,8,1:0:0:0:
256,192,10785,1,0,1:0:0:0:
256,192,10922,1,8,1:0:0:0:
256,192,11194,1,0,0:0:0:0:
256,192,11263,1,0,0:0:0:0:
256,192,11331,1,8,0:0:0:0:
256,192,11603,1,8,0:0:0:0:
256,192,11740,1,0,0:0:0:0:
256,192,12013,1,0,0:0:0:0:
256,192,12149,1,8,0:0:0:0:
256,192,12558,1,0,0:0:0:0:
256,192,12694,1,8,0:0:0:0:
256,192,13103,1,0,0:0:0:0:
256,192,13240,1,8,0:0:0:0:
256,192,13513,1,4,0:0:0:0:
256,192,13785,1,8,0:0:0:0:
256,192,13922,1,0,0:0:0:0:
256,192,14194,1,0,0:0:0:0:
256,192,14331,1,8,0:0:0:0:
256,192,14740,1,0,0:0:0:0:
256,192,14876,1,8,0:0:0:0:
256,192,15149,1,0,0:0:0:0:
256,192,15285,1,0,0:0:0:0:
256,192,15422,1,8,0:0:0:0:
256,192,15694,1,4,0:0:0:0:
256,192,15967,1,8,0:0:0:0:
256,192,16376,1,0,0:0:0:0:
256,192,16513,1,8,0:0:0:0:
256,192,16922,1,0,0:0:0:0:
256,192,17058,1,8,0:0:0:0:
256,192,17467,1,0,0:0:0:0:
256,192,17603,1,8,0:0:0:0:
256,192,17876,1,4,0:0:0:0:
256,192,18013,1,0,0:0:0:0:
256,192,18149,1,8,0:0:0:0:
256,192,18285,1,0,0:0:0:0:
256,192,18558,1,0,0:0:0:0:
256,192,18831,1,12,0:0:0:0:
256,192,19376,1,0,0:0:0:0:
256,192,19444,1,0,0:0:0:0:
256,192,19513,1,8,0:0:0:0:
256,192,19649,1,0,0:0:0:0:
256,192,19785,1,8,0:0:0:0:
256,192,20058,1,0,0:0:0:0:
256,192,20126,1,0,0:0:0:0:
256,192,20194,1,8,0:0:0:0:
256,192,20263,1,0,0:0:0:0:
256,192,20331,1,8,0:0:0:0:
256,192,20467,1,0,0:0:0:0:
256,192,20740,1,0,0:0:0:0:
256,192,20876,1,8,0:0:0:0:
256,192,21013,1,0,0:0:0:0:
256,192,21285,1,0,0:0:0:0:
256,192,21422,1,8,0:0:0:0:
256,192,21694,1,0,0:0:0:0:
256,192,21831,1,0,0:0:0:0:
256,192,21967,1,8,0:0:0:0:
256,192,22240,1,0,0:0:0:0:
256,192,22308,1,0,0:0:0:0:
256,192,22376,1,8,0:0:0:0:
256,192,22444,1,0,0:0:0:0:
256,192,22513,1,8,0:0:0:0:
256,192,22649,1,8,0:0:0:0:
256,192,22922,1,8,0:0:0:0:
256,192,23194,1,0,0:0:0:0:
256,192,23467,1,0,0:0:0:0:
256,192,23603,1,8,0:0:0:0:
256,192,23876,1,0,0:0:0:0:
256,192,24013,1,0,0:0:0:0:
256,192,24149,1,8,0:0:0:0:
256,192,24422,1,0,0:0:0:0:
256,192,24694,1,8,0:0:0:0:
256,192,24831,1,0,0:0:0:0:
256,192,25103,1,0,0:0:0:0:
256,192,25240,1,8,0:0:0:0:
256,192,25376,1,8,0:0:0:0:
256,192,25649,1,0,0:0:0:0:
256,192,25785,1,8,0:0:0:0:
256,192,26058,1,0,0:0:0:0:
256,192,26194,1,0,0:0:0:0:
256,192,26331,1,8,0:0:0:0:
256,192,26603,1,0,0:0:0:0:
256,192,26876,1,8,0:0:0:0:
256,192,27013,1,0,0:0:0:0:
256,192,27285,1,0,0:0:0:0:
256,192,27422,1,8,0:0:0:0:
256,192,27558,1,0,0:0:0:0:
256,192,27694,1,8,0:0:0:0:
256,192,27831,1,0,0:0:0:0:
256,192,27967,1,0,0:0:0:0:
256,192,28103,1,8,0:0:0:0:
256,192,28240,1,0,0:0:0:0:
256,192,28376,1,0,0:0:0:0:
256,192,28513,1,8,0:0:0:0:
256,192,28785,1,4,0:0:0:0:
256,192,29058,1,8,0:0:0:0:
256,192,29331,1,0,0:0:0:0:
256,192,29467,1,8,0:0:0:0:
256,192,29740,1,0,0:0:0:0:
256,192,30013,1,8,0:0:0:0:
256,192,30285,1,0,0:0:0:0:
256,192,30422,1,8,0:0:0:0:
256,192,30694,1,8,0:0:0:0:
256,192,30967,1,0,0:0:0:0:
256,192,31240,1,8,0:0:0:0:
256,192,31513,1,0,0:0:0:0:
256,192,31649,1,8,0:0:0:0:
256,192,31922,1,8,0:0:0:0:
256,192,32194,1,0,0:0:0:0:
256,192,32240,1,0,0:0:0:0:
256,192,32285,1,8,0:0:0:0:
256,192,32433,1,8,0:0:0:0:
256,192,32535,1,8,0:0:0:0:
256,192,32638,1,0,0:0:0:0:
256,192,32774,1,8,0:0:0:0:
256,192,32944,1,0,0:0:0:0:
256,192,33149,1,4,0:0:0:0:
256,192,33422,1,8,0:0:0:0:
256,192,33694,1,0,0:0:0:0:
256,192,33831,1,8,0:0:0:0:
256,192,34103,1,0,0:0:0:0:
256,192,34376,1,8,0:0:0:0:
256,192,34649,1,0,0:0:0:0:
256,192,34785,1,8,0:0:0:0:
256,192,35058,1,8,0:0:0:0:
256,192,35331,1,0,0:0:0:0:
256,192,35603,1,8,0:0:0:0:
256,192,35876,1,0,0:0:0:0:
256,192,36013,1,8,0:0:0:0:
256,192,36285,1,0,0:0:0:0:
256,192,36558,1,0,0:0:0:0:
256,192,36626,1,0,0:0:0:0:
256,192,36694,1,0,0:0:0:0:
256,192,36831,1,0,0:0:0:0:
256,192,36967,1,8,0:0:0:0:
256,192,37103,1,8,0:0:0:0:
256,192,37172,1,0,0:0:0:0:
256,192,37240,1,8,0:0:0:0:
256,192,37376,1,8,0:0:0:0:
256,192,37513,1,12,0:0:0:0:
256,192,37785,1,8,0:0:0:0:
256,192,37922,1,0,0:0:0:0:
256,192,37990,1,0,0:0:0:0:
256,192,38058,1,8,0:0:0:0:
256,192,38194,1,8,0:0:0:0:
256,192,38467,1,0,0:0:0:0:
256,192,38740,1,8,0:0:0:0:
256,192,38876,1,0,0:0:0:0:
256,192,39013,1,0,0:0:0:0:
256,192,39149,1,8,0:0:0:0:
256,192,39422,1,8,0:0:0:0:
256,192,39694,1,0,0:0:0:0:
256,192,39967,1,0,0:0:0:0:
256,192,40103,1,0,0:0:0:0:
256,192,40240,1,8,0:0:0:0:
256,192,40513,1,8,0:0:0:0:
256,192,40649,1,0,0:0:0:0:
256,192,40922,1,0,0:0:0:0:
256,192,41013,1,8,0:0:0:0:
256,192,41126,1,8,0:0:0:0:
256,192,41240,1,0,0:0:0:0:
256,192,41467,2,0,L|288:192,6,20.9999993591309
256,192,41876,1,4,0:0:0:0:
256,192,42149,1,0,0:0:0:0:
256,192,42285,1,0,0:0:0:0:
256,192,42422,1,8,0:0:0:0:
256,192,42558,1,0,0:0:0:0:
256,192,42831,1,0,0:0:0:0:
256,192,43103,1,8,0:0:0:0:
256,192,43172,1,8,0:0:0:0:
256,192,43240,1,0,0:0:0:0:
256,192,43376,1,0,0:0:0:0:
256,192,43513,1,8,0:0:0:0:
256,192,43922,1,4,0:0:0:0:
256,192,44194,1,0,0:0:0:0:
256,192,44331,1,8,0:0:0:0:
256,192,44467,1,4,0:0:0:0:
256,192,44740,1,8,0:0:0:0:
256,192,44876,1,0,0:0:0:0:
256,192,45013,1,12,0:0:0:0:
256,192,45285,1,8,0:0:0:0:
256,192,45422,1,8,0:0:0:0:
256,192,45558,1,4,0:0:0:0:
256,192,45831,1,0,0:0:0:0:
256,192,45967,1,8,0:0:0:0:
256,192,46240,1,4,0:0:0:0:
256,192,46513,1,8,0:0:0:0:
256,192,46649,1,0,0:0:0:0:
256,192,46785,1,8,0:0:0:0:
256,192,46922,1,0,0:0:0:0:
256,192,47058,1,8,0:0:0:0:
256,192,47194,1,0,0:0:0:0:
256,192,47467,1,0,0:0:0:0:
256,192,47603,1,8,0:0:0:0:
256,192,47876,1,0,0:0:0:0:
256,192,47944,1,0,0:0:0:0:
256,192,48013,1,0,0:0:0:0:
256,192,48149,1,8,0:0:0:0:
256,192,48285,1,0,0:0:0:0:
256,192,48422,1,0,0:0:0:0:
256,192,48558,1,0,0:0:0:0:
256,192,48694,1,8,0:0:0:0:
256,192,48831,1,0,0:0:0:0:
256,192,48967,1,8,0:0:0:0:
256,192,49035,1,0,0:0:0:0:
256,192,49103,1,0,0:0:0:0:
256,192,49240,1,8,0:0:0:0:
256,192,49376,1,0,0:0:0:0:
256,192,49649,1,0,0:0:0:0:
256,192,49785,1,8,0:0:0:0:
256,192,50058,1,0,0:0:0:0:
256,192,50194,1,0,0:0:0:0:
256,192,50331,1,8,0:0:0:0:
256,192,50399,1,8,0:0:0:0:
256,192,50467,1,0,0:0:0:0:
256,192,50603,1,0,0:0:0:0:
256,192,50740,1,0,0:0:0:0:
256,192,50876,1,8,0:0:0:0:
256,192,51013,1,0,0:0:0:0:
256,192,51149,1,0,0:0:0:0:
256,192,51285,1,0,0:0:0:0:
256,192,51353,1,0,0:0:0:0:
256,192,51422,1,8,0:0:0:0:
256,192,51558,1,0,0:0:0:0:
256,192,51831,1,0,0:0:0:0:
256,192,51967,1,8,0:0:0:0:
256,192,52240,1,0,0:0:0:0:
256,192,52376,1,0,0:0:0:0:
256,192,52444,1,0,0:0:0:0:
256,192,52513,1,8,0:0:0:0:
256,192,52649,1,0,0:0:0:0:
256,192,52922,1,0,0:0:0:0:
256,192,53058,1,8,0:0:0:0:
256,192,53194,1,0,0:0:0:0:
256,192,53263,1,0,0:0:0:0:
256,192,53331,1,8,0:0:0:0:
256,192,53467,1,8,0:0:0:0:
256,192,53603,1,0,0:0:0:0:
256,192,53740,1,0,0:0:0:0:
256,192,54013,1,8,0:0:0:0:
256,192,54081,1,0,0:0:0:0:
256,192,54149,1,8,0:0:0:0:
256,192,54285,1,0,0:0:0:0:
256,192,54353,1,0,0:0:0:0:
256,192,54422,1,8,0:0:0:0:
256,192,54558,1,8,0:0:0:0:
256,192,54967,1,4,0:0:0:0:
256,192,55376,1,0,0:0:0:0:
256,192,55513,1,8,0:0:0:0:
256,192,55785,1,8,0:0:0:0:
256,192,55922,1,0,0:0:0:0:
256,192,56194,1,8,0:0:0:0:
256,192,56331,1,0,0:0:0:0:
256,192,56467,1,0,0:0:0:0:
256,192,56603,1,8,0:0:0:0:
256,192,56876,1,0,0:0:0:0:
256,192,57149,1,0,0:0:0:0:
256,192,57422,1,0,0:0:0:0:
256,192,57558,1,0,0:0:0:0:
256,192,57694,1,8,0:0:0:0:
256,192,57967,1,8,0:0:0:0:
256,192,58103,1,0,0:0:0:0:
256,192,58376,1,0,0:0:0:0:
256,192,58649,1,0,0:0:0:0:
256,192,58785,1,8,0:0:0:0:
256,192,59058,1,8,0:0:0:0:
256,192,59331,1,4,0:0:0:0:
256,192,59603,1,8,0:0:0:0:
256,192,59740,1,0,0:0:0:0:
256,192,59876,1,8,0:0:0:0:
256,192,60013,1,8,0:0:0:0:
256,192,60149,1,0,0:0:0:0:
256,192,60285,1,8,0:0:0:0:
256,192,60558,1,8,0:0:0:0:
256,192,60694,1,0,0:0:0:0:
256,192,60831,1,0,0:0:0:0:
256,192,60967,1,8,0:0:0:0:
256,192,61103,1,0,0:0:0:0:
256,192,61172,1,0,0:0:0:0:
256,192,61240,1,8,0:0:0:0:
256,192,61376,1,8,0:0:0:0:
256,192,61513,1,0,0:0:0:0:
256,192,61785,1,0,0:0:0:0:
256,192,61922,1,8,0:0:0:0:
256,192,62194,1,8,0:0:0:0:
256,192,62467,1,0,0:0:0:0:
256,192,62740,1,0,0:0:0:0:
256,192,62808,1,0,0:0:0:0:
256,192,62876,1,0,0:0:0:0:
256,192,63013,1,8,0:0:0:0:
256,192,63149,1,0,0:0:0:0:
256,192,63285,1,0,0:0:0:0:
256,192,63353,1,0,0:0:0:0:
256,192,63422,1,8,0:0:0:0:
256,192,63831,1,8,0:0:0:0:
256,192,63899,1,8,0:0:0:0:
256,192,63967,1,8,0:0:0:0:
256,192,64103,1,0,0:0:0:0:
256,192,64240,1,4,0:0:0:0:
256,192,64376,1,8,0:0:0:0:
256,192,64513,1,8,0:0:0:0:
256,192,64649,1,0,0:0:0:0:
256,192,64922,1,0,0:0:0:0:
256,192,65058,1,8,0:0:0:0:
256,192,65331,1,0,0:0:0:0:
256,192,65399,1,0,0:0:0:0:
256,192,65467,1,0,0:0:0:0:
256,192,65603,1,8,0:0:0:0:
256,192,65740,1,0,0:0:0:0:
256,192,65876,1,0,0:0:0:0:
256,192,66013,1,0,0:0:0:0:
256,192,66149,1,8,0:0:0:0:
256,192,66285,1,0,0:0:0:0:
256,192,66422,1,8,0:0:0:0:
256,192,66490,1,0,0:0:0:0:
256,192,66558,1,0,0:0:0:0:
256,192,66694,1,8,0:0:0:0:
256,192,66831,1,0,0:0:0:0:
256,192,67103,1,0,0:0:0:0:
256,192,67240,1,8,0:0:0:0:
256,192,67513,1,0,0:0:0:0:
256,192,67649,1,0,0:0:0:0:
256,192,67785,1,8,0:0:0:0:
256,192,67922,1,8,0:0:0:0:
256,192,67990,1,8,0:0:0:0:
256,192,68058,1,0,0:0:0:0:
256,192,68194,1,0,0:0:0:0:
256,192,68331,1,8,0:0:0:0:
256,192,68467,1,0,0:0:0:0:
256,192,68603,1,0,0:0:0:0:
256,192,68672,1,0,0:0:0:0:
256,192,68740,1,0,0:0:0:0:
256,192,68876,1,8,0:0:0:0:
256,192,69013,1,0,0:0:0:0:
256,192,69285,1,0,0:0:0:0:
256,192,69422,1,8,0:0:0:0:
256,192,69694,1,0,0:0:0:0:
256,192,69831,1,0,0:0:0:0:
256,192,69899,1,0,0:0:0:0:
256,192,69967,1,8,0:0:0:0:
256,192,70103,1,0,0:0:0:0:
256,192,70376,1,0,0:0:0:0:
256,192,70513,1,8,0:0:0:0:
256,192,70785,1,0,0:0:0:0:
256,192,70922,1,8,0:0:0:0:
256,192,70990,1,8,0:0:0:0:
256,192,71058,1,0,0:0:0:0:
256,192,71194,1,0,0:0:0:0:
256,192,71467,1,8,0:0:0:0:
256,192,71603,1,0,0:0:0:0:
256,192,71740,1,8,0:0:0:0:
256,192,71808,1,0,0:0:0:0:
256,192,71876,1,8,0:0:0:0:
256,192,72013,1,8,0:0:0:0:
256,192,72422,1,4,0:0:0:0:
256,192,72831,1,0,0:0:0:0:
256,192,72967,1,8,0:0:0:0:
256,192,73103,1,0,0:0:0:0:
256,192,73240,1,8,0:0:0:0:
256,192,73376,1,8,0:0:0:0:
256,192,73513,1,0,0:0:0:0:
256,192,73649,1,8,0:0:0:0:
256,192,73785,1,0,0:0:0:0:
256,192,73853,1,0,0:0:0:0:
256,192,73922,1,0,0:0:0:0:
256,192,74058,1,8,0:0:0:0:
256,192,74126,1,8,0:0:0:0:
256,192,74194,1,0,0:0:0:0:
256,192,74331,1,8,0:0:0:0:
256,192,74467,1,0,0:0:0:0:
256,192,74603,1,8,0:0:0:0:
256,192,74876,1,0,0:0:0:0:
256,192,75013,1,0,0:0:0:0:
256,192,75149,1,8,0:0:0:0:
256,192,75422,1,8,0:0:0:0:
256,192,75558,1,0,0:0:0:0:
256,192,75831,1,0,0:0:0:0:
256,192,76103,1,0,0:0:0:0:
256,192,76240,1,8,0:0:0:0:
256,192,76513,1,8,0:0:0:0:
256,192,76785,1,12,0:0:0:0:
256,192,77058,1,8,0:0:0:0:
256,192,77126,1,0,0:0:0:0:
256,192,77194,1,0,0:0:0:0:
256,192,77331,1,8,0:0:0:0:
256,192,77603,1,8,0:0:0:0:
256,192,77740,1,0,0:0:0:0:
256,192,78013,1,0,0:0:0:0:
256,192,78149,1,8,0:0:0:0:
256,192,78217,1,0,0:0:0:0:
256,192,78285,1,0,0:0:0:0:
256,192,78422,1,8,0:0:0:0:
256,192,78558,1,0,0:0:0:0:
256,192,78694,1,8,0:0:0:0:
256,192,78967,1,4,0:0:0:0:
256,192,79240,1,8,0:0:0:0:
256,192,79376,1,4,0:0:0:0:
256,192,79649,1,8,0:0:0:0:
256,192,79785,1,4,0:0:0:0:
256,192,80058,12,4,81149,0:0:0:0:
256,192,81558,5,8,0:0:0:0:
256,192,81967,1,8,0:0:0:0:
256,192,82240,1,0,0:0:0:0:
256,192,82513,1,0,0:0:0:0:
256,192,82785,1,8,0:0:0:0:
256,192,83058,1,8,0:0:0:0:
256,192,83331,1,0,0:0:0:0:
256,192,83740,1,8,0:0:0:0:
256,192,84149,1,0,0:0:0:0:
256,192,84422,1,8,0:0:0:0:
256,192,84694,1,4,0:0:0:0:
256,192,85103,1,4,0:0:0:0:
256,192,85513,1,8,0:0:0:0:
256,192,85922,1,8,0:0:0:0:
256,192,86331,1,0,0:0:0:0:
256,192,86603,1,8,0:0:0:0:
256,192,86876,1,8,0:0:0:0:
256,192,87149,1,0,0:0:0:0:
256,192,87422,1,0,0:0:0:0:
256,192,87694,1,8,0:0:0:0:
256,192,88103,1,8,0:0:0:0:
256,192,88513,1,8,0:0:0:0:
256,192,88785,1,8,0:0:0:0:
256,192,89058,1,4,0:0:0:0:
256,192,89467,1,0,0:0:0:0:
256,192,89603,1,12,0:0:0:0:
256,192,89876,1,0,0:0:0:0:
256,192,90149,1,8,0:0:0:0:
256,192,90285,1,0,0:0:0:0:
256,192,90558,1,0,0:0:0:0:
256,192,90694,1,8,0:0:0:0:
256,192,90967,1,0,1:0:0:0:
256,192,91240,1,8,1:0:0:0:
256,192,91376,1,0,1:0:0:0:
256,192,91513,1,8,1:0:0:0:
256,192,91649,1,0,1:0:0:0:
256,192,91786,1,8,1:0:0:0:
256,192,92058,1,0,1:0:0:0:
256,192,92331,1,8,1:0:0:0:
256,192,92467,1,0,1:0:0:0:
256,192,92740,1,0,1:0:0:0:
256,192,92876,1,8,1:0:0:0:
256,192,93013,1,0,0:0:0:0:
256,192,93081,1,8,0:0:0:0:
256,192,93149,1,8,0:0:0:0:
256,192,93422,1,0,0:0:0:0:
256,192,93831,1,0,0:0:0:0:
256,192,93967,1,8,0:0:0:0:
256,192,94103,1,0,0:0:0:0:
256,192,94172,1,0,0:0:0:0:
256,192,94240,1,0,0:0:0:0:
256,192,94376,1,8,0:0:0:0:
256,192,94513,1,0,0:0:0:0:
256,192,94649,1,0,0:0:0:0:
256,192,94922,1,8,0:0:0:0:
256,192,95058,1,0,0:0:0:0:
256,192,95194,1,8,0:0:0:0:
256,192,95467,1,0,0:0:0:0:
256,192,95603,1,8,0:0:0:0:
256,192,95740,1,0,0:0:0:0:
256,192,96013,1,0,0:0:0:0:
256,192,96149,1,8,0:0:0:0:
256,192,96285,1,8,0:0:0:0:
256,192,96353,1,0,0:0:0:0:
256,192,96422,1,0,0:0:0:0:
256,192,96558,1,0,0:0:0:0:
256,192,96694,1,8,0:0:0:0:
256,192,96831,1,0,0:0:0:0:
256,192,97103,1,0,0:0:0:0:
256,192,97240,1,8,0:0:0:0:
256,192,97376,1,0,0:0:0:0:
256,192,97444,1,8,0:0:0:0:
256,192,97513,1,8,0:0:0:0:
256,192,97785,1,0,0:0:0:0:
256,192,98058,1,0,0:0:0:0:
256,192,98194,1,8,0:0:0:0:
256,192,98467,1,0,0:0:0:0:
256,192,98535,1,0,0:0:0:0:
256,192,98603,1,8,0:0:0:0:
256,192,98740,1,0,0:0:0:0:
256,192,98876,1,8,0:0:0:0:
256,192,99013,1,0,0:0:0:0:
256,192,99285,1,0,0:0:0:0:
256,192,99422,1,8,0:0:0:0:
256,192,99558,1,8,0:0:0:0:
256,192,99694,1,0,0:0:0:0:
256,192,99831,1,0,0:0:0:0:
256,192,99967,1,8,0:0:0:0:
256,192,100240,1,0,0:0:0:0:
256,192,100376,1,0,0:0:0:0:
256,192,100513,1,8,0:0:0:0:
256,192,100785,1,4,0:0:0:0:
256,192,100922,1,8,0:0:0:0:
256,192,101058,1,0,0:0:0:0:
256,192,101194,1,8,0:0:0:0:
256,192,101467,1,0,0:0:0:0:
256,192,101603,1,8,0:0:0:0:
256,192,101740,1,8,0:0:0:0:
256,192,101876,1,0,0:0:0:0:
256,192,102013,1,0,0:0:0:0:
256,192,102149,1,8,0:0:0:0:
256,192,102422,1,0,0:0:0:0:
256,192,102558,1,0,0:0:0:0:
256,192,102694,1,8,0:0:0:0:
256,192,102967,1,4,0:0:0:0:
256,192,103103,1,8,0:0:0:0:
256,192,103240,1,0,0:0:0:0:
256,192,103376,1,0,0:0:0:0:
256,192,103649,1,0,0:0:0:0:
256,192,103785,1,8,0:0:0:0:
256,192,103922,1,0,0:0:0:0:
256,192,104058,1,0,0:0:0:0:
256,192,104194,1,0,0:0:0:0:
256,192,104331,1,8,0:0:0:0:
256,192,104740,1,0,0:0:0:0:
256,192,104876,1,8,0:0:0:0:
256,192,105149,1,4,0:0:0:0:
256,192,105285,1,0,0:0:0:0:
256,192,105422,1,8,0:0:0:0:
256,192,105558,1,0,0:0:0:0:
256,192,105831,1,0,0:0:0:0:
256,192,106103,1,12,0:0:0:0:
256,192,106649,1,0,0:0:0:0:
256,192,106717,1,0,0:0:0:0:
256,192,106785,1,8,0:0:0:0:
256,192,106922,1,0,0:0:0:0:
256,192,107058,1,8,0:0:0:0:
256,192,107331,1,0,0:0:0:0:
256,192,107399,1,0,0:0:0:0:
256,192,107467,1,8,0:0:0:0:
256,192,107535,1,0,0:0:0:0:
256,192,107603,1,8,0:0:0:0:
256,192,107740,1,0,0:0:0:0:
256,192,107876,1,0,0:0:0:0:
256,192,108013,1,8,0:0:0:0:
256,192,108149,1,0,0:0:0:0:
256,192,108217,1,0,0:0:0:0:
256,192,108285,1,8,0:0:0:0:
256,192,108558,1,0,0:0:0:0:
256,192,108695,1,8,0:0:0:0:
256,192,108967,1,8,0:0:0:0:
256,192,109035,1,0,0:0:0:0:
256,192,109104,1,0,0:0:0:0:
256,192,109240,1,8,0:0:0:0:
256,192,109513,1,0,0:0:0:0:
256,192,109581,1,0,0:0:0:0:
256,192,109649,1,8,0:0:0:0:
256,192,109717,1,0,0:0:0:0:
256,192,109786,1,8,0:0:0:0:
256,192,109922,1,8,0:0:0:0:
256,192,110058,1,0,0:0:0:0:
256,192,110194,1,8,0:0:0:0:
256,192,110263,1,8,0:0:0:0:
256,192,110331,1,0,0:0:0:0:
256,192,110467,1,0,0:0:0:0:
256,192,110740,1,0,0:0:0:0:
256,192,110876,1,8,0:0:0:0:
256,192,111149,1,0,0:0:0:0:
256,192,111217,1,0,0:0:0:0:
256,192,111285,1,0,0:0:0:0:
256,192,111422,1,8,0:0:0:0:
256,192,111694,1,0,0:0:0:0:
256,192,111967,1,8,0:0:0:0:
256,192,112103,1,0,0:0:0:0:
256,192,112376,1,0,0:0:0:0:
256,192,112513,1,8,0:0:0:0:
256,192,112649,1,0,0:0:0:0:
256,192,112717,1,0,0:0:0:0:
256,192,112785,1,0,0:0:0:0:
256,192,112922,1,0,0:0:0:0:
256,192,113058,1,8,0:0:0:0:
256,192,113331,1,0,0:0:0:0:
256,192,113467,1,0,0:0:0:0:
256,192,113603,1,8,0:0:0:0:
256,192,113876,1,0,0:0:0:0:
256,192,114149,1,8,0:0:0:0:
256,192,114285,1,0,0:0:0:0:
256,192,114557,1,0,0:0:0:0:
256,192,114694,1,8,0:0:0:0:
256,192,114830,1,0,0:0:0:0:
256,192,114966,1,8,0:0:0:0:
256,192,115103,1,0,0:0:0:0:
256,192,115240,1,0,0:0:0:0:
256,192,115376,1,8,0:0:0:0:
256,192,115513,1,0,0:0:0:0:
256,192,115649,1,0,0:0:0:0:
256,192,115785,1,8,0:0:0:0:
256,192,115922,1,8,0:0:0:0:
256,192,116058,1,4,0:0:0:0:
256,192,116331,1,8,0:0:0:0:
256,192,116604,1,0,0:0:0:0:
256,192,116740,1,8,0:0:0:0:
256,192,116876,1,8,0:0:0:0:
256,192,117013,1,0,0:0:0:0:
256,192,117286,1,8,0:0:0:0:
256,192,117558,1,0,0:0:0:0:
256,192,117695,1,8,0:0:0:0:
256,192,117967,1,8,0:0:0:0:
256,192,118240,1,0,0:0:0:0:
256,192,118513,1,8,0:0:0:0:
256,192,118786,1,0,0:0:0:0:
256,192,118922,1,8,0:0:0:0:
256,192,119058,1,8,0:0:0:0:
256,192,119194,1,8,0:0:0:0:
256,192,119467,1,0,0:0:0:0:
256,192,119513,1,0,0:0:0:0:
256,192,119558,1,8,0:0:0:0:
256,192,119706,1,8,0:0:0:0:
256,192,119808,1,8,0:0:0:0:
256,192,119911,1,0,0:0:0:0:
256,192,120047,1,8,0:0:0:0:
256,192,120217,1,0,0:0:0:0:
256,192,120422,1,4,0:0:0:0:
256,192,120694,1,8,0:0:0:0:
256,192,120831,1,8,0:0:0:0:
256,192,120967,1,0,0:0:0:0:
256,192,121103,1,8,0:0:0:0:
256,192,121375,1,0,0:0:0:0:
256,192,121648,1,8,0:0:0:0:
256,192,121785,1,0,0:0:0:0:
256,192,121921,1,0,0:0:0:0:
256,192,122057,1,8,0:0:0:0:
256,192,122330,1,8,0:0:0:0:
256,192,122603,1,0,0:0:0:0:
256,192,122875,1,8,0:0:0:0:
256,192,123013,1,8,0:0:0:0:
256,192,123148,1,0,0:0:0:0:
256,192,123285,1,8,0:0:0:0:
256,192,123557,1,0,0:0:0:0:
256,192,123831,1,0,0:0:0:0:
256,192,123899,1,0,0:0:0:0:
256,192,123967,1,0,0:0:0:0:
256,192,124103,1,0,0:0:0:0:
256,192,124172,1,0,0:0:0:0:
256,192,124240,1,8,0:0:0:0:
256,192,124376,1,8,0:0:0:0:
256,192,124444,1,0,0:0:0:0:
256,192,124513,1,8,0:0:0:0:
256,192,124649,1,8,0:0:0:0:
256,192,124785,1,12,0:0:0:0:
256,192,125058,1,8,0:0:0:0:
256,192,125195,1,0,0:0:0:0:
256,192,125263,1,0,0:0:0:0:
256,192,125331,1,8,0:0:0:0:
256,192,125467,1,8,0:0:0:0:
256,192,125740,1,0,0:0:0:0:
256,192,126013,1,8,0:0:0:0:
256,192,126149,1,0,0:0:0:0:
256,192,126286,1,0,0:0:0:0:
256,192,126353,1,0,0:0:0:0:
256,192,126422,1,8,0:0:0:0:
256,192,126694,1,8,0:0:0:0:
256,192,126831,1,0,0:0:0:0:
256,192,126899,1,0,0:0:0:0:
256,192,126967,1,0,0:0:0:0:
256,192,127240,1,8,0:0:0:0:
256,192,127376,1,0,0:0:0:0:
256,192,127444,1,0,0:0:0:0:
256,192,127513,1,8,0:0:0:0:
256,192,127649,1,8,0:0:0:0:
256,192,127785,1,8,0:0:0:0:
256,192,127922,1,0,0:0:0:0:
256,192,128195,1,0,0:0:0:0:
256,192,128285,1,8,0:0:0:0:
256,192,128399,1,8,0:0:0:0:
256,192,128513,1,8,0:0:0:0:
256,192,128740,2,0,L|288:192,6,20.9999993591309
256,192,129149,1,4,0:0:0:0:
256,192,129422,1,0,0:0:0:0:
256,192,129558,1,0,0:0:0:0:
256,192,129695,1,8,0:0:0:0:
256,192,129831,1,0,0:0:0:0:
256,192,130104,1,0,0:0:0:0:
256,192,130376,1,8,0:0:0:0:
256,192,130445,1,8,0:0:0:0:
256,192,130513,1,0,0:0:0:0:
256,192,130649,1,0,0:0:0:0:
256,192,130786,1,8,0:0:0:0:
256,192,130922,1,0,0:0:0:0:
256,192,130990,1,0,0:0:0:0:
256,192,131058,1,0,0:0:0:0:
256,192,131195,1,4,0:0:0:0:
256,192,131467,1,0,0:0:0:0:
256,192,131535,1,0,0:0:0:0:
256,192,131604,1,8,0:0:0:0:
256,192,131740,1,4,0:0:0:0:
256,192,132013,1,8,0:0:0:0:
256,192,132081,1,0,0:0:0:0:
256,192,132149,1,0,0:0:0:0:
256,192,132286,1,12,0:0:0:0:
256,192,132558,1,8,0:0:0:0:
256,192,132626,1,8,0:0:0:0:
256,192,132695,1,8,0:0:0:0:
256,192,132831,1,4,0:0:0:0:
256,192,133104,1,0,0:0:0:0:
256,192,133240,1,8,0:0:0:0:
256,192,133376,1,8,0:0:0:0:
256,192,133513,1,4,0:0:0:0:
256,192,133649,1,0,0:0:0:0:
256,192,133717,1,0,0:0:0:0:
256,192,133785,1,8,0:0:0:0:
256,192,133921,1,0,0:0:0:0:
256,192,134057,1,8,0:0:0:0:
256,192,134126,1,8,0:0:0:0:
256,192,134194,1,0,0:0:0:0:
256,192,134263,1,0,0:0:0:0:
256,192,134331,1,8,0:0:0:0:
256,192,134467,1,0,0:0:0:0:
256,192,134740,1,0,0:0:0:0:
256,192,134876,1,8,0:0:0:0:
256,192,135149,1,0,0:0:0:0:
256,192,135217,1,0,0:0:0:0:
256,192,135285,1,0,0:0:0:0:
256,192,135422,1,8,0:0:0:0:
256,192,135558,1,8,0:0:0:0:
256,192,135626,1,8,0:0:0:0:
256,192,135695,1,0,0:0:0:0:
256,192,135763,1,0,0:0:0:0:
256,192,135831,1,0,0:0:0:0:
256,192,135967,1,8,0:0:0:0:
256,192,136104,1,0,0:0:0:0:
256,192,136240,1,8,0:0:0:0:
256,192,136308,1,0,0:0:0:0:
256,192,136376,1,0,0:0:0:0:
256,192,136513,1,8,0:0:0:0:
256,192,136649,1,0,0:0:0:0:
256,192,136922,1,0,0:0:0:0:
256,192,137058,1,8,0:0:0:0:
256,192,137331,1,0,0:0:0:0:
256,192,137467,1,0,0:0:0:0:
256,192,137604,1,8,0:0:0:0:
256,192,137672,1,8,0:0:0:0:
256,192,137740,1,0,0:0:0:0:
256,192,137876,1,0,0:0:0:0:
256,192,138013,1,0,0:0:0:0:
256,192,138149,1,8,0:0:0:0:
256,192,138217,1,0,0:0:0:0:
256,192,138285,1,0,0:0:0:0:
256,192,138353,1,0,0:0:0:0:
256,192,138422,1,8,0:0:0:0:
256,192,138558,1,0,0:0:0:0:
256,192,138626,1,0,0:0:0:0:
256,192,138694,1,8,0:0:0:0:
256,192,138831,1,0,0:0:0:0:
256,192,139103,1,0,0:0:0:0:
256,192,139240,1,8,0:0:0:0:
256,192,139513,1,0,0:0:0:0:
256,192,139649,1,0,0:0:0:0:
256,192,139717,1,0,0:0:0:0:
256,192,139786,1,8,0:0:0:0:
256,192,139922,1,0,0:0:0:0:
256,192,140195,1,0,0:0:0:0:
256,192,140331,1,8,0:0:0:0:
256,192,140467,1,0,0:0:0:0:
256,192,140536,1,0,0:0:0:0:
256,192,140604,1,8,0:0:0:0:
256,192,140740,1,8,0:0:0:0:
256,192,140876,1,0,0:0:0:0:
256,192,141013,1,0,0:0:0:0:
256,192,141149,1,0,0:0:0:0:
256,192,141217,1,0,0:0:0:0:
256,192,141285,1,8,0:0:0:0:
256,192,141353,1,0,0:0:0:0:
256,192,141422,1,8,0:0:0:0:
256,192,141558,1,0,0:0:0:0:
256,192,141626,1,0,0:0:0:0:
256,192,141695,1,8,0:0:0:0:
256,192,141831,1,8,0:0:0:0:
256,192,142240,1,4,0:0:0:0:
256,192,142649,1,0,0:0:0:0:
256,192,142786,1,8,0:0:0:0:
256,192,142922,1,0,0:0:0:0:
256,192,142990,1,0,0:0:0:0:
256,192,143058,1,8,0:0:0:0:
256,192,143195,1,0,0:0:0:0:
256,192,143263,1,0,0:0:0:0:
256,192,143331,1,8,0:0:0:0:
256,192,143399,1,8,0:0:0:0:
256,192,143467,1,8,0:0:0:0:
256,192,143604,1,8,0:0:0:0:
256,192,143672,1,8,0:0:0:0:
256,192,143740,1,0,0:0:0:0:
256,192,143876,1,8,0:0:0:0:
256,192,143944,1,0,0:0:0:0:
256,192,144013,1,0,0:0:0:0:
256,192,144081,1,0,0:0:0:0:
256,192,144149,1,8,0:0:0:0:
256,192,144422,1,0,0:0:0:0:
256,192,144695,1,0,0:0:0:0:
256,192,144831,1,0,0:0:0:0:
256,192,144967,1,8,0:0:0:0:
256,192,145103,1,0,0:0:0:0:
256,192,145172,1,0,0:0:0:0:
256,192,145240,1,8,0:0:0:0:
256,192,145376,1,0,0:0:0:0:
256,192,145444,1,0,0:0:0:0:
256,192,145513,1,8,0:0:0:0:
256,192,145581,1,8,0:0:0:0:
256,192,145649,1,0,0:0:0:0:
256,192,145785,1,8,0:0:0:0:
256,192,145853,1,8,0:0:0:0:
256,192,145922,1,0,0:0:0:0:
256,192,145990,1,0,0:0:0:0:
256,192,146058,1,8,0:0:0:0:
256,192,146331,1,8,0:0:0:0:
256,192,146603,1,4,0:0:0:0:
256,192,146876,1,8,0:0:0:0:
256,192,147013,1,0,0:0:0:0:
256,192,147149,1,8,0:0:0:0:
256,192,147286,1,8,0:0:0:0:
256,192,147353,1,0,0:0:0:0:
256,192,147422,1,0,0:0:0:0:
256,192,147558,1,8,0:0:0:0:
256,192,147831,1,8,0:0:0:0:
256,192,147967,1,0,0:0:0:0:
256,192,148104,1,0,0:0:0:0:
256,192,148240,1,8,0:0:0:0:
256,192,148376,1,0,0:0:0:0:
256,192,148445,1,0,0:0:0:0:
256,192,148513,1,8,0:0:0:0:
256,192,148649,1,8,0:0:0:0:
256,192,148786,1,0,0:0:0:0:
256,192,149058,1,0,0:0:0:0:
256,192,149195,1,8,0:0:0:0:
256,192,149467,1,8,0:0:0:0:
256,192,149740,1,0,0:0:0:0:
256,192,150013,1,0,0:0:0:0:
256,192,150081,1,0,0:0:0:0:
256,192,150149,1,0,0:0:0:0:
256,192,150286,1,8,0:0:0:0:
256,192,150422,1,0,0:0:0:0:
256,192,150558,1,0,0:0:0:0:
256,192,150626,1,0,0:0:0:0:
256,192,150695,1,8,0:0:0:0:
256,192,151104,1,8,0:0:0:0:
256,192,151172,1,8,0:0:0:0:
256,192,151240,1,8,0:0:0:0:
256,192,151376,1,0,0:0:0:0:
256,192,151513,1,4,0:0:0:0:
256,192,151649,1,8,0:0:0:0:
256,192,151717,1,0,0:0:0:0:
256,192,151786,1,8,0:0:0:0:
256,192,151922,1,0,0:0:0:0:
256,192,152194,1,0,0:0:0:0:
256,192,152330,1,8,0:0:0:0:
256,192,152603,1,0,0:0:0:0:
256,192,152671,1,0,0:0:0:0:
256,192,152739,1,0,0:0:0:0:
256,192,152875,1,8,0:0:0:0:
256,192,153013,1,8,0:0:0:0:
256,192,153081,1,8,0:0:0:0:
256,192,153148,1,0,0:0:0:0:
256,192,153217,1,0,0:0:0:0:
256,192,153285,1,0,0:0:0:0:
256,192,153421,1,8,0:0:0:0:
256,192,153557,1,0,0:0:0:0:
256,192,153694,1,8,0:0:0:0:
256,192,153762,1,0,0:0:0:0:
256,192,153830,1,0,0:0:0:0:
256,192,153966,1,8,0:0:0:0:
256,192,154103,1,0,0:0:0:0:
256,192,154375,1,0,0:0:0:0:
256,192,154512,1,8,0:0:0:0:
256,192,154785,1,0,0:0:0:0:
256,192,154921,1,0,0:0:0:0:
256,192,155057,1,8,0:0:0:0:
256,192,155126,1,0,0:0:0:0:
256,192,155194,1,8,0:0:0:0:
256,192,155262,1,8,0:0:0:0:
256,192,155330,1,0,0:0:0:0:
256,192,155466,1,0,0:0:0:0:
256,192,155603,1,8,0:0:0:0:
256,192,155739,1,0,0:0:0:0:
256,192,155876,1,8,0:0:0:0:
256,192,155944,1,0,0:0:0:0:
256,192,156013,1,8,0:0:0:0:
256,192,156081,1,0,0:0:0:0:
256,192,156149,1,0,0:0:0:0:
256,192,156285,1,0,0:0:0:0:
256,192,156557,1,0,0:0:0:0:
256,192,156694,1,8,0:0:0:0:
256,192,156966,1,0,0:0:0:0:
256,192,157103,1,0,0:0:0:0:
256,192,157171,1,0,0:0:0:0:
256,192,157239,1,8,0:0:0:0:
256,192,157375,1,0,0:0:0:0:
256,192,157648,1,0,0:0:0:0:
256,192,157785,1,8,0:0:0:0:
256,192,158057,1,0,0:0:0:0:
256,192,158194,1,8,0:0:0:0:
256,192,158262,1,8,0:0:0:0:
256,192,158330,1,0,0:0:0:0:
256,192,158467,1,0,0:0:0:0:
256,192,158739,1,8,0:0:0:0:
256,192,158808,1,0,0:0:0:0:
256,192,158875,1,0,0:0:0:0:
256,192,159013,1,8,0:0:0:0:
256,192,159081,1,0,0:0:0:0:
256,192,159148,1,8,0:0:0:0:
256,192,159285,1,8,0:0:0:0:
256,192,159694,1,4,0:0:0:0:
256,192,160103,1,0,0:0:0:0:
256,192,160239,1,8,0:0:0:0:
256,192,160375,1,0,0:0:0:0:
256,192,160444,1,0,0:0:0:0:
256,192,160512,1,8,0:0:0:0:
256,192,160648,1,8,0:0:0:0:
256,192,160717,1,0,0:0:0:0:
256,192,160785,1,0,0:0:0:0:
256,192,160853,1,0,0:0:0:0:
256,192,160921,1,8,0:0:0:0:
256,192,160990,1,8,0:0:0:0:
256,192,161058,1,8,0:0:0:0:
256,192,161194,1,0,0:0:0:0:
256,192,161330,1,8,0:0:0:0:
256,192,161398,1,8,0:0:0:0:
256,192,161466,1,0,0:0:0:0:
256,192,161535,1,0,0:0:0:0:
256,192,161603,1,8,0:0:0:0:
256,192,161739,1,0,0:0:0:0:
256,192,161875,1,8,0:0:0:0:
256,192,162149,1,8,0:0:0:0:
256,192,162285,1,0,0:0:0:0:
256,192,162422,1,8,0:0:0:0:
256,192,162558,1,0,0:0:0:0:
256,192,162626,1,0,0:0:0:0:
256,192,162695,1,8,0:0:0:0:
256,192,162831,1,0,0:0:0:0:
256,192,163103,1,8,0:0:0:0:
256,192,163240,1,0,0:0:0:0:
256,192,163376,1,0,0:0:0:0:
256,192,163444,1,0,0:0:0:0:
256,192,163513,1,8,0:0:0:0:
256,192,163649,1,0,0:0:0:0:
256,192,163786,1,8,0:0:0:0:
256,192,164058,1,12,0:0:0:0:
256,192,164331,1,8,0:0:0:0:
256,192,164399,1,0,0:0:0:0:
256,192,164467,1,0,0:0:0:0:
256,192,164604,1,8,0:0:0:0:
256,192,164876,1,8,0:0:0:0:
256,192,165013,1,0,0:0:0:0:
256,192,165286,1,0,0:0:0:0:
256,192,165422,1,8,0:0:0:0:
256,192,165490,1,0,0:0:0:0:
256,192,165558,1,0,0:0:0:0:
256,192,165695,1,8,0:0:0:0:
256,192,165831,1,0,0:0:0:0:
256,192,165967,1,8,0:0:0:0:
256,192,166240,1,4,0:0:0:0:
256,192,166513,1,8,0:0:0:0:
256,192,166649,1,4,0:0:0:0:
256,192,166922,1,8,0:0:0:0:
256,192,167058,1,4,0:0:0:0:
256,192,167331,12,4,168422,0:0:0:0:
256,192,168831,5,8,0:0:0:0:
256,192,169240,1,8,0:0:0:0:
256,192,169513,1,0,0:0:0:0:
256,192,169786,1,0,0:0:0:0:
256,192,170058,1,8,0:0:0:0:
256,192,170331,1,8,0:0:0:0:
256,192,170604,1,0,0:0:0:0:
256,192,171013,1,8,0:0:0:0:
256,192,171422,1,0,0:0:0:0:
256,192,171695,1,8,0:0:0:0:
256,192,171967,1,4,0:0:0:0:
256,192,172376,1,4,0:0:0:0:
256,192,172786,1,8,0:0:0:0:
256,192,173195,1,8,0:0:0:0:
256,192,173604,1,0,0:0:0:0:
256,192,173876,1,8,0:0:0:0:
256,192,174149,1,8,0:0:0:0:
256,192,174422,1,0,0:0:0:0:
256,192,174695,1,0,0:0:0:0:
256,192,174967,1,8,0:0:0:0:
256,192,175376,1,8,0:0:0:0:
256,192,175786,1,8,0:0:0:0:
256,192,176058,1,8,0:0:0:0:
256,192,176331,1,4,0:0:0:0:
256,192,176740,1,0,0:0:0:0:
256,192,176876,1,12,0:0:0:0:
256,192,177149,1,0,0:0:0:0:
256,192,177422,1,8,0:0:0:0:
256,192,177558,1,0,0:0:0:0:
256,192,177831,1,0,0:0:0:0:
256,192,177967,1,8,0:0:0:0:
256,192,178240,1,0,1:0:0:0:
256,192,178513,1,8,1:0:0:0:
256,192,178649,1,0,1:0:0:0:
256,192,178786,1,8,1:0:0:0:
256,192,178922,1,0,1:0:0:0:
256,192,179059,1,8,1:0:0:0:
256,192,179331,1,0,1:0:0:0:
256,192,179604,1,8,1:0:0:0:
256,192,179740,1,0,1:0:0:0:
256,192,180013,1,0,1:0:0:0:
256,192,180149,1,8,1:0:0:0:
256,192,180286,1,0,0:0:0:0:
256,192,180354,1,8,0:0:0:0:
256,192,180422,1,8,0:0:0:0:
256,192,180695,1,0,0:0:0:0:
256,192,181104,1,0,0:0:0:0:
256,192,181240,1,8,0:0:0:0:
256,192,181376,1,0,0:0:0:0:
256,192,181445,1,0,0:0:0:0:
256,192,181513,1,0,0:0:0:0:
256,192,181649,1,8,0:0:0:0:
256,192,181786,1,0,0:0:0:0:
256,192,181922,1,0,0:0:0:0:
256,192,182195,1,8,0:0:0:0:
256,192,182331,1,0,0:0:0:0:
256,192,182467,1,8,0:0:0:0:
256,192,182740,1,0,0:0:0:0:
256,192,182876,1,8,0:0:0:0:
256,192,183013,1,0,0:0:0:0:
256,192,183286,1,0,0:0:0:0:
256,192,183422,1,8,0:0:0:0:
256,192,183558,1,8,0:0:0:0:
256,192,183626,1,0,0:0:0:0:
256,192,183695,1,0,0:0:0:0:
256,192,183831,1,0,0:0:0:0:
256,192,183967,1,8,0:0:0:0:
256,192,184104,1,0,0:0:0:0:
256,192,184376,1,0,0:0:0:0:
256,192,184513,1,8,0:0:0:0:
256,192,184649,1,0,0:0:0:0:
256,192,184717,1,8,0:0:0:0:
256,192,184786,1,8,0:0:0:0:
256,192,185058,1,0,0:0:0:0:
256,192,185331,1,0,0:0:0:0:
256,192,185467,1,8,0:0:0:0:
256,192,185740,1,0,0:0:0:0:
256,192,185808,1,0,0:0:0:0:
256,192,185876,1,8,0:0:0:0:
256,192,186013,1,0,0:0:0:0:
256,192,186149,1,8,0:0:0:0:
256,192,186286,1,0,0:0:0:0:
256,192,186558,1,0,0:0:0:0:
256,192,186695,1,8,0:0:0:0:
256,192,186831,1,8,0:0:0:0:
256,192,186967,1,0,0:0:0:0:
256,192,187104,1,0,0:0:0:0:
256,192,187240,1,8,0:0:0:0:
256,192,187513,1,0,0:0:0:0:
256,192,187649,1,0,0:0:0:0:
256,192,187786,1,8,0:0:0:0:
256,192,188058,1,4,0:0:0:0:
256,192,188195,1,8,0:0:0:0:
256,192,188331,1,0,0:0:0:0:
256,192,188467,1,8,0:0:0:0:
256,192,188740,1,0,0:0:0:0:
256,192,188876,1,8,0:0:0:0:
256,192,189013,1,8,0:0:0:0:
256,192,189149,1,0,0:0:0:0:
256,192,189286,1,0,0:0:0:0:
256,192,189422,1,8,0:0:0:0:
256,192,189694,1,0,0:0:0:0:
256,192,189830,1,0,0:0:0:0:
256,192,189966,1,8,0:0:0:0:
256,192,190239,1,4,0:0:0:0:
256,192,190375,1,8,0:0:0:0:
256,192,190512,1,0,0:0:0:0:
256,192,190648,1,0,0:0:0:0:
256,192,190921,1,0,0:0:0:0:
256,192,191057,1,8,0:0:0:0:
256,192,191194,1,0,0:0:0:0:
256,192,191330,1,0,0:0:0:0:
256,192,191466,1,0,0:0:0:0:
256,192,191603,1,8,0:0:0:0:
256,192,192012,1,0,0:0:0:0:
256,192,192148,1,8,0:0:0:0:
256,192,192421,1,4,0:0:0:0:
256,192,192557,1,0,0:0:0:0:
256,192,192694,1,8,0:0:0:0:
256,192,192830,1,0,0:0:0:0:
256,192,193103,1,0,0:0:0:0:
256,192,193375,1,12,0:0:0:0:
256,192,193922,1,0,0:0:0:0:
256,192,193990,1,0,0:0:0:0:
256,192,194058,1,8,0:0:0:0:
256,192,194195,1,0,0:0:0:0:
256,192,194331,1,8,0:0:0:0:
256,192,194604,1,0,0:0:0:0:
256,192,194672,1,0,0:0:0:0:
256,192,194740,1,8,0:0:0:0:
256,192,194808,1,0,0:0:0:0:
256,192,194876,1,8,0:0:0:0:
256,192,195013,1,0,0:0:0:0:
256,192,195286,1,8,0:0:0:0:
256,192,195422,1,0,0:0:0:0:
256,192,195490,1,0,0:0:0:0:
256,192,195558,1,8,0:0:0:0:
256,192,195831,1,0,0:0:0:0:
256,192,195968,1,8,0:0:0:0:
256,192,196240,1,8,0:0:0:0:
256,192,196308,1,0,0:0:0:0:
256,192,196377,1,0,0:0:0:0:
256,192,196513,1,8,0:0:0:0:
256,192,196786,1,0,0:0:0:0:
256,192,196854,1,0,0:0:0:0:
256,192,196922,1,8,0:0:0:0:
256,192,196990,1,0,0:0:0:0:
256,192,197059,1,8,0:0:0:0:
256,192,197195,1,8,0:0:0:0:
256,192,197467,1,8,0:0:0:0:
256,192,197536,1,8,0:0:0:0:
256,192,197604,1,0,0:0:0:0:
256,192,197740,1,0,0:0:0:0:
256,192,198013,1,0,0:0:0:0:
256,192,198149,1,8,0:0:0:0:
256,192,198422,1,0,0:0:0:0:
256,192,198490,1,0,0:0:0:0:
256,192,198558,1,0,0:0:0:0:
256,192,198695,1,8,0:0:0:0:
256,192,198967,1,0,0:0:0:0:
256,192,199240,1,8,0:0:0:0:
256,192,199376,1,0,0:0:0:0:
256,192,199649,1,0,0:0:0:0:
256,192,199786,1,8,0:0:0:0:
256,192,199922,1,0,0:0:0:0:
256,192,199990,1,0,0:0:0:0:
256,192,200058,1,0,0:0:0:0:
256,192,200195,1,0,0:0:0:0:
256,192,200331,1,8,0:0:0:0:
256,192,200604,1,0,0:0:0:0:
256,192,200740,1,0,0:0:0:0:
256,192,200876,1,8,0:0:0:0:
256,192,201149,1,0,0:0:0:0:
256,192,201422,1,8,0:0:0:0:
256,192,201558,1,0,0:0:0:0:
256,192,201830,1,0,0:0:0:0:
256,192,201967,1,8,0:0:0:0:
256,192,202103,1,0,0:0:0:0:
256,192,202239,1,8,0:0:0:0:
256,192,202376,1,0,0:0:0:0:
256,192,202513,1,0,0:0:0:0:
256,192,202649,1,8,0:0:0:0:
256,192,202786,1,0,0:0:0:0:
256,192,202922,1,0,0:0:0:0:
256,192,203058,1,8,0:0:0:0:
256,192,203331,12,0,205513,0:0:0:0:
