osu file format v14

[General]
AudioFilename: audio.mp3
AudioLeadIn: 0
PreviewTime: 3715
Countdown: 0
SampleSet: Soft
StackLeniency: 0.7
Mode: 0
LetterboxInBreaks: 0
WidescreenStoryboard: 0

[Editor]
Bookmarks: 47894,52670
DistanceSpacing: 1.3
BeatDivisor: 4
GridSize: 4
TimelineZoom: 2

[Metadata]
Title:Yeah Yeah Yeah
TitleUnicode:Yeah Yeah Yeah
Artist:Hayashibe Tomonori
ArtistUnicode:ハヤシベトモノリ
Creator:Cosmolade
Version:Insane
Source:ユーリ!!! on ICE
Tags:Hakusa Town Association はせつ町民会 yuri katsuki yuuri GPF ending Gotta Supercharge It!! Pre-Grand Prix Final Special! Dance Party Drunk banquet viktor victor nikiforov HappyRocket88 Marianna YuTra ユートラ ♨/ サウンド・トラックCOLLECTION dance off 製作委員会
BeatmapID:1158782
BeatmapSetID:547100

[Difficulty]
HPDrainRate:5
CircleSize:4
OverallDifficulty:7
ApproachRate:9
SliderMultiplier:0.9
SliderTickRate:1

[Events]
//Background and Video events
0,0,"BG.jpg",0,0
Video,0,"GPF party.avi"
//Break Periods
//Storyboard Layer 0 (Background)
//Storyboard Layer 1 (Fail)
//Storyboard Layer 2 (Pass)
//Storyboard Layer 3 (Foreground)
//Storyboard Sound Samples

[TimingPoints]
125,298.507462686567,4,2,0,50,1,0
4901,-76.9230769230769,4,2,0,70,0,1
14453,-76.9230769230769,4,2,0,50,0,0
24005,-76.9230769230769,4,2,0,70,0,1
33557,-76.9230769230769,4,2,0,50,0,0
63408,-76.9230769230769,4,2,0,70,0,1
72861,-76.9230769230769,4,2,0,50,0,0
72960,-76.9230769230769,4,2,0,70,0,1
82513,-76.9230769230769,4,2,0,50,0,0
86990,-76.9230769230769,4,2,0,10,0,0

[Colours]
Combo1 : 0,128,255
Combo2 : 128,64,64
Combo3 : 255,255,128
Combo4 : 128,0,0
Combo5 : 255,128,64
Combo6 : 128,128,192

[HitObjects]
76,256,125,5,2,0:0:0:0:
152,280,423,1,2,0:0:0:0:
216,232,722,2,0,P|232:272|216:328,1,90,2|2,0:0|0:0,0:0:0:0:
248,348,1169,2,0,L|336:320,1,90,2|2,0:0|0:0,0:0:0:0:
476,264,1766,1,2,0:0:0:0:
436,260,1916,1,2,0:0:0:0:
412,228,2065,1,0,0:0:0:0:
408,188,2214,1,2,0:0:0:0:
436,152,2363,1,2,0:0:0:0:
476,140,2513,6,0,L|380:120,1,90,2|2,0:0|0:0,0:0:0:0:
256,32,3110,1,8,3:0:0:0:
256,112,3259,1,2,3:0:0:0:
192,160,3408,1,2,3:0:0:0:
112,156,3557,1,2,0:0:0:0:
131,281,3707,6,0,P|160:304|188:308,1,60,4|0,0:0|0:0,0:0:0:0:
212,304,4005,5,8,3:0:0:0:
232,300,4105,1,8,3:0:0:0:
252,296,4204,1,8,3:0:0:0:
288,260,4304,1,8,3:0:0:0:
308,256,4403,1,8,3:0:0:0:
328,252,4503,1,8,3:0:0:0:
364,220,4602,1,8,3:0:0:0:
384,216,4702,1,8,3:0:0:0:
404,212,4801,1,8,3:0:0:0:
444,204,4901,6,0,P|430:162|446:114,1,87.749995983124,4|0,0:0|0:0,0:0:0:0:
439,88,5199,2,0,L|367:108,1,58.4999973220826,8|0,3:0|0:0,0:0:0:0:
264,104,5498,2,0,P|308:80|256:64,1,116.999994644165,2|8,0:0|3:0,0:0:0:0:
184,112,5945,2,0,P|188:136|220:168,1,58.4999973220826,2|0,0:0|0:0,0:0:0:0:
289,154,6244,2,0,P|285:130|253:98,1,58.4999973220826,2|8,0:0|3:0,0:0:0:0:
209,162,6542,1,2,0:0:0:0:
304,228,6692,2,0,P|332:220|356:184,1,58.4999973220826,2|0,0:0|0:0,0:0:0:0:
388,128,6990,2,0,L|356:56,1,58.4999973220826,8|0,3:0|0:0,0:0:0:0:
444,180,7289,6,0,P|444:220|420:268,1,87.749995983124,2|0,0:0|0:0,0:0:0:0:
408,280,7587,2,0,B|344:308,1,58.4999973220826,8|0,3:0|0:0,0:0:0:0:
228,328,7886,2,0,P|268:300|268:224,1,116.999994644165,2|8,0:0|3:0,0:0:0:0:
232,172,8333,2,0,P|204:204|200:224,1,58.4999973220826,2|0,0:0|0:0,0:0:0:0:
312,164,8632,2,0,P|300:128|264:100,1,58.4999973220826,2|8,0:0|3:0,0:0:0:0:
232,172,8930,1,2,0:0:0:0:
204,92,9080,2,0,L|332:60,1,116.999994644165,2|8,0:0|3:0,0:0:0:0:
392,44,9527,1,2,0:0:0:0:
391,210,9677,6,0,P|420:174|425:132,1,87.749995983124,2|0,0:0|0:0,0:0:0:0:
454,118,9975,2,0,L|509:96,1,58.4999973220826,8|0,3:0|0:0,0:0:0:0:
392,43,10274,2,0,P|347:80|331:136,1,116.999994644165,2|8,0:0|3:0,0:0:0:0:
344,216,10722,2,0,P|304:212|276:188,1,58.4999973220826,2|0,0:0|0:0,0:0:0:0:
200,144,11020,2,0,P|225:130|254:130,1,58.4999973220826,2|8,0:0|3:0,0:0:0:0:
289,202,11319,1,2,0:0:0:0:
188,228,11468,2,0,P|136:196|120:124,1,116.999994644165,2|8,0:0|3:0,0:0:0:0:
152,76,11916,1,2,0:0:0:0:
280,88,12065,6,0,L|358:62,1,58.4999973220826,2|0,0:0|0:0,0:0:0:0:
378,134,12363,2,0,L|446:114,1,58.4999973220826,8|0,3:0|0:0,0:0:0:0:
477,185,12662,2,0,P|429:213|417:276,1,116.999994644165,2|8,0:0|3:0,0:0:0:0:
432,348,13110,2,0,P|480:320|491:256,1,116.999994644165,2|2,0:0|0:0,0:0:0:0:
416,270,13557,5,8,3:0:0:0:
392,282,13657,1,8,3:0:0:0:
368,294,13756,1,8,3:0:0:0:
320,288,13856,1,8,3:0:0:0:
296,300,13955,1,8,3:0:0:0:
272,312,14055,1,8,3:0:0:0:
232,296,14154,1,8,3:0:0:0:
208,304,14254,1,8,3:0:0:0:
184,312,14353,1,8,3:0:0:0:
136,328,14453,6,0,P|148:296|152:252,1,58.4999973220826,2|2,0:0|0:0,0:0:0:0:
140,248,14677,1,0,0:0:0:0:
124,228,14751,2,0,L|60:192,1,58.4999973220826,8|0,3:0|0:0,0:0:0:0:
52,104,15050,2,0,L|172:168,1,116.999994644165,2|8,0:0|3:0,0:0:0:0:
176,84,15498,1,2,0:0:0:0:
244,52,15647,2,0,P|292:24|336:28,1,87.749995983124,2|0,0:0|0:0,0:0:0:0:
348,32,15945,2,0,L|332:96,1,58.4999973220826,8|0,3:0|0:0,0:0:0:0:
396,136,16244,2,0,P|347:166|291:155,1,116.999994644165,2|8,0:0|3:0,0:0:0:0:
333,88,16692,1,2,0:0:0:0:
464,172,16841,6,0,L|412:268,1,87.749995983124,4|0,0:0|0:0,0:0:0:0:
408,276,17139,2,0,P|428:308|464:324,1,58.4999973220826,8|0,3:0|0:0,0:0:0:0:
368,352,17438,2,0,P|312:340|248:356,1,116.999994644165,2|8,0:0|3:0,0:0:0:0:
172,328,17886,2,0,P|200:296|208:268,1,58.4999973220826,2|0,0:0|0:0,0:0:0:0:
164,216,18184,2,0,P|136:248|128:276,1,58.4999973220826,2|8,0:0|3:0,0:0:0:0:
205,281,18483,1,2,0:0:0:0:
236,152,18632,2,0,L|104:120,1,116.999994644165,2|8,0:0|3:0,0:0:0:0:
116,44,19080,1,2,0:0:0:0:
288,92,19229,6,0,P|308:116|312:156,1,58.4999973220826,2|0,0:0|0:0,0:0:0:0:
388,120,19527,2,0,P|388:163|376:188,1,58.4999973220826,8|0,3:0|0:0,0:0:0:0:
456,204,19826,6,2,P|420:244|381:252,1,77.9999964294435,2|0,0:0|0:0,0:0:0:0:
359,268,20124,2,0,L|301:236,1,58.4999973220826,8|0,3:0|0:0,0:0:0:0:
290,164,20423,2,0,L|347:123,1,58.4999973220826,2|0,0:0|0:0,0:0:0:0:
369,56,20722,2,0,P|337:49|303:59,1,58.4999973220826,8|0,3:0|0:0,0:0:0:0:
240,87,21020,2,0,P|226:107|216:120,2,38.9999982147218,2|0|0,0:0|0:0|0:0,0:0:0:0:
229,44,21319,1,8,3:0:0:0:
224,207,21468,1,2,0:0:0:0:
111,91,21617,6,0,P|68:108|44:160,1,87.749995983124,2|0,0:0|0:0,0:0:0:0:
36,172,21916,2,0,L|64:236,1,58.4999973220826,8|0,3:0|0:0,0:0:0:0:
128,184,22214,2,0,L|156:248,1,58.4999973220826,2|2,0:0|0:0,0:0:0:0:
160,264,22438,1,0,0:0:0:0:
172,288,22513,2,0,P|200:296|244:284,1,58.4999973220826,8|2,3:0|0:0,0:0:0:0:
288,240,22811,6,0,P|270:224|248:216,1,38.9999982147218,2|0,0:0|0:0,0:0:0:0:
269,198,23010,1,2,0:0:0:0:
285,180,23110,1,8,3:0:0:0:
299,161,23209,1,8,3:0:0:0:
314,143,23309,1,8,3:0:0:0:
329,125,23408,1,8,3:0:0:0:
348,100,23508,5,8,3:0:0:0:
380,116,23607,1,8,3:0:0:0:
416,120,23707,1,8,3:0:0:0:
452,116,23806,1,8,3:0:0:0:
480,96,23906,1,8,3:0:0:0:
504,60,24005,6,0,L|420:12,1,87.749995983124,4|0,0:0|0:0,0:0:0:0:
400,12,24304,2,0,P|380:32|344:40,1,58.4999973220826,8|0,3:0|0:0,0:0:0:0:
276,40,24602,2,0,P|248:32|227:11,1,58.4999973220826,2|0,0:0|0:0,0:0:0:0:
148,12,24901,2,0,L|180:112,1,87.749995983124,8|0,3:0|0:0,0:0:0:0:
184,120,25199,2,0,P|144:116|104:136,1,58.4999973220826,8|0,3:0|0:0,0:0:0:0:
100,192,25498,2,0,P|140:196|180:176,1,58.4999973220826,2|0,0:0|0:0,0:0:0:0:
126,121,25796,2,0,L|76:256,1,116.999994644165,2|8,0:0|3:0,0:0:0:0:
132,292,26244,1,2,0:0:0:0:
224,208,26393,6,0,P|272:200|320:204,1,87.749995983124,2|0,0:0|0:0,0:0:0:0:
336,208,26692,2,0,L|308:280,1,58.4999973220826,8|0,3:0|0:0,0:0:0:0:
400,248,26990,2,0,L|422:194,2,58.4999973220826,2|2|8,0:0|0:0|3:0,0:0:0:0:
364,316,27438,2,0,B|342:334|342:334|294:338,1,58.4999973220826,2|0,0:0|0:0,0:0:0:0:
262,283,27736,2,0,B|284:265|284:265|332:261,1,58.4999973220826,2|8,0:0|3:0,0:0:0:0:
312,336,28035,1,2,0:0:0:0:
310,178,28184,2,0,P|364:199|422:193,1,116.999994644165,2|8,0:0|3:0,0:0:0:0:
476,136,28632,1,2,0:0:0:0:
372,80,28781,6,0,P|348:56|328:8,1,58.4999973220826,4|0,0:0|0:0,0:0:0:0:
260,32,29080,2,0,P|244:56|223:77,1,58.4999973220826,8|0,3:0|0:0,0:0:0:0:
148,92,29378,2,0,B|88:80|88:80|8:104,1,116.999994644165,2|8,0:0|3:0,0:0:0:0:
0,167,29826,2,0,P|31:177|77:162,1,58.4999973220826,2|0,0:0|0:0,0:0:0:0:
92,244,30124,2,0,P|120:220|132:176,1,58.4999973220826,2|8,0:0|3:0,0:0:0:0:
56,173,30423,1,2,0:0:0:0:
20,280,30572,2,0,P|48:312|133:315,1,116.999994644165,2|8,0:0|3:0,0:0:0:0:
184,276,31020,1,2,0:0:0:0:
256,162,31169,6,0,B|276:142|280:106|280:106|301:131,1,87.749995983124,2|0,0:0|0:0,0:0:0:0:
314,152,31468,2,0,L|351:215,1,58.4999973220826,8|0,3:0|0:0,0:0:0:0:
464,224,31766,2,0,P|420:192|416:124,1,116.999994644165,2|8,0:0|3:0,0:0:0:0:
476,88,32214,2,0,P|492:116|492:144,1,58.4999973220826,2|0,0:0|0:0,0:0:0:0:
404,58,32513,2,0,P|388:30|388:2,1,58.4999973220826,2|8,0:0|3:0,0:0:0:0:
356,14,32761,5,2,0:0:0:0:
324,26,32861,1,2,0:0:0:0:
292,38,32960,1,8,3:0:0:0:
260,50,33060,1,8,3:0:0:0:
228,62,33159,1,8,3:0:0:0:
196,74,33259,2,0,P|212:98|216:134,1,58.4999973220826,8|2,3:0|0:0,0:0:0:0:
32,132,33557,6,0,B|88:108|88:108|152:132,1,116.999994644165,4|8,0:0|0:0,0:0:0:0:
184,196,34005,1,2,0:0:0:0:
256,228,34154,2,0,P|288:232|320:224,1,58.4999973220826,2|0,0:0|0:0,0:0:0:0:
400,156,34453,1,8,0:0:0:0:
400,156,34602,2,0,L|432:224,1,58.4999973220826,2|0,0:0|0:0,0:0:0:0:
464,276,34901,1,2,0:0:0:0:
440,352,35050,2,0,P|408:336|392:300,1,58.4999973220826,8|0,0:0|0:0,0:0:0:0:
364,240,35348,2,0,L|300:308,1,87.749995983124,2|0,0:0|0:0,0:0:0:0:
276,308,35647,2,0,B|244:304|244:304|192:312,1,58.4999973220826,8|0,0:0|0:0,0:0:0:0:
112,328,35945,6,0,B|140:292|140:292|148:236,1,87.749995983124,2|0,0:0|0:0,0:0:0:0:
140,224,36244,2,0,L|84:180,1,58.4999973220826,8|0,0:0|0:0,0:0:0:0:
80,96,36542,2,0,P|116:112|148:112,1,58.4999973220826,2|2,0:0|0:0,0:0:0:0:
160,108,36766,1,0,0:0:0:0:
184,96,36841,2,0,L|256:128,1,58.4999973220826,8|2,0:0|0:0,0:0:0:0:
236,196,37139,2,0,L|308:232,1,58.4999973220826,2|0,0:0|0:0,0:0:0:0:
356,256,37438,1,8,0:0:0:0:
328,144,37587,1,2,0:0:0:0:
288,300,37736,6,2,L|244:312,2,29.2499986610413,2|2|0,0:0|0:0|0:0,0:0:0:0:
356,256,38035,2,0,L|436:192,1,87.749995983124,8|0,0:0|0:0,0:0:0:0:
444,176,38333,1,2,0:0:0:0:
402,118,38483,1,2,0:0:0:0:
443,62,38632,1,10,0:0:0:0:
511,83,38781,1,0,0:0:0:0:
510,153,38930,1,2,0:0:0:0:
444,176,39080,1,2,0:0:0:0:
368,92,39229,1,8,0:0:0:0:
328,200,39378,6,2,P|359:207|384:244,1,58.4999973220826
320,276,39677,1,2,0:0:0:0:
320,276,39826,2,0,L|224:256,1,87.749995983124,8|0,0:0|0:0,0:0:0:0:
208,252,40124,2,0,P|220:292|208:332,1,58.4999973220826,2|0,0:0|0:0,0:0:0:0:
128,248,40423,2,0,L|160:184,1,58.4999973220826,8|0,0:0|0:0,0:0:0:0:
208,96,40722,6,0,B|252:112|252:112|308:96,1,87.749995983124,2|0,1:0|0:0,0:0:0:0:
316,88,41020,2,0,P|336:112|384:120,2,58.4999973220826,8|2|0,0:0|0:0|0:0,0:0:0:0:
380,44,41468,1,2,0:0:0:0:
436,124,41617,2,0,P|420:172|396:188,1,58.4999973220826,8|0,0:0|0:0,0:0:0:0:
336,192,41916,2,0,L|380:264,1,58.4999973220826,2|0,0:0|0:0,0:0:0:0:
268,232,42214,2,0,L|312:304,1,58.4999973220826,8|0,0:0|0:0,0:0:0:0:
200,272,42513,2,0,L|228:316,2,29.2499986610413,2|0|0,0:0|0:0|0:0,0:0:0:0:
148,216,42811,2,0,P|116:220|84:204,1,58.4999973220826,8|0,0:0|0:0,0:0:0:0:
76,40,43110,5,4,0:0:0:0:
128,136,43259,1,2,0:0:0:0:
180,40,43408,2,0,B|220:52|220:52|272:40,1,87.749995983124,2|0,0:0|0:0,0:0:0:0:
292,52,43707,2,0,P|316:76|356:88,1,58.4999973220826,8|0,3:0|0:0,0:0:0:0:
460,120,44005,1,2,0:0:0:0:
360,8,44154,1,2,0:0:0:0:
332,164,44304,2,0,P|360:164|400:136,1,58.4999973220826,2|0,0:0|0:0,0:0:0:0:
338,85,44602,2,0,P|310:85|270:113,1,58.4999973220826,8|0,0:0|0:0,0:0:0:0:
320,236,44901,6,0,P|396:228|440:200,1,116.999994644165,2|8,0:0|0:0,0:0:0:0:
480,148,45348,1,2,0:0:0:0:
416,304,45498,2,0,P|396:324|364:344,1,58.4999973220826,2|0,0:0|0:0,0:0:0:0:
292,356,45796,1,8,1:0:0:0:
216,332,45945,1,2,0:0:0:0:
216,332,46095,2,0,B|176:344|176:344|120:332,1,87.749995983124,2|0,0:0|0:0,0:0:0:0:
104,328,46393,6,0,P|116:304|120:280,1,38.9999982147218,8|0,3:0|0:0,0:0:0:0:
108,260,46592,1,8,3:0:0:0:
100,224,46692,2,0,L|160:168,1,58.4999973220826,2|0,1:0|0:0,0:0:0:0:
96,124,46990,2,0,L|160:100,1,58.4999973220826,8|0,3:0|0:0,0:0:0:0:
174,32,47289,2,0,P|141:28|108:4,2,58.4999973220826,2|2|8,0:0|0:0|3:0,0:0:0:0:
296,76,47786,1,0,0:0:0:0:
296,76,47886,6,0,P|328:72|376:88,1,58.4999973220826,2|0,0:0|0:0,0:0:0:0:
472,124,48184,2,0,P|440:128|392:112,1,58.4999973220826,8|0,3:0|0:0,0:0:0:0:
296,176,48483,2,0,P|328:172|376:188,1,58.4999973220826,2|0,0:0|0:0,0:0:0:0:
372,288,48781,2,0,P|344:276|327:250,1,58.4999973220826,2|0,0:0|0:0,0:0:0:0:
230,124,49080,2,0,P|270:140|296:176,1,87.749995983124,2|0,0:0|0:0,0:0:0:0:
276,196,49378,2,0,L|216:244,1,58.4999973220826,10|0,3:0|0:0,0:0:0:0:
108,312,49677,2,0,B|120:292|96:268|96:268|120:236,1,87.749995983124,2|0,0:0|0:0,0:0:0:0:
132,216,49975,2,0,P|124:168|104:140,1,58.4999973220826,8|0,3:0|0:0,0:0:0:0:
108,80,50274,6,0,P|80:90|58:109,1,58.4999973220826,2|0,0:0|0:0,0:0:0:0:
184,116,50572,2,0,L|264:104,1,58.4999973220826,8|0,3:0|0:0,0:0:0:0:
316,132,50871,2,0,B|360:148|360:148|412:124,1,87.749995983124,2|0,0:0|0:0,0:0:0:0:
424,116,51169,6,0,L|460:160,1,38.9999982147218,8|0,3:0|0:0,0:0:0:0:
472,176,51368,1,8,3:0:0:0:
492,208,51468,2,0,L|444:280,1,77.9999964294435,2|2,0:0|0:0,0:0:0:0:
412,268,51766,2,0,L|356:308,1,58.4999973220826,8|0,3:0|0:0,0:0:0:0:
276,336,52065,2,0,L|304:368,2,29.2499986610413,2|0|0,0:0|0:0|0:0,0:0:0:0:
176,212,52363,1,8,1:0:0:0:
176,212,52662,6,0,P|212:180|232:128,1,87.749995983124,2|0,0:0|0:0,0:0:0:0:
232,120,52960,2,0,L|296:148,1,58.4999973220826,8|0,3:0|0:0,0:0:0:0:
353,87,53259,2,0,L|300:64,1,58.4999973220826,2|0,0:0|0:0,0:0:0:0:
228,32,53557,5,8,3:0:0:0:
196,48,53657,1,2,0:0:0:0:
164,64,53756,1,2,0:0:0:0:
132,80,53856,2,0,L|88:104,1,38.9999982147218,2|0,0:0|0:0,0:0:0:0:
68,116,54055,1,2,0:0:0:0:
40,136,54154,6,0,P|8:184|36:240,1,116.999994644165,2|8,0:0|3:0,0:0:0:0:
104,256,54602,1,2,0:0:0:0:
196,196,54751,2,0,P|224:184|256:180,1,58.4999973220826,8|0,3:0|0:0,0:0:0:0:
348,160,55050,2,0,P|304:120|300:80,1,87.749995983124,2|0,0:0|0:0,0:0:0:0:
324,84,55348,2,0,L|404:72,1,58.4999973220826,8|0,3:0|0:0,0:0:0:0:
405,150,55647,2,0,L|347:159,2,58.4999973220826,2|0|8,0:0|0:0|3:0,0:0:0:0:
463,224,56144,5,0,0:0:0:0:
463,224,56244,2,0,L|383:274,1,87.749995983124,2|0,0:0|0:0,0:0:0:0:
357,279,56542,2,0,P|337:255|309:243,1,58.4999973220826,8|0,3:0|0:0,0:0:0:0:
232,320,56841,2,0,P|256:328|300:312,1,58.4999973220826,2|0,0:0|0:0,0:0:0:0:
204,245,57139,2,0,P|160:282|153:339,1,116.999994644165,8|0,3:0|0:0,0:0:0:0:
232,320,57587,1,2,0:0:0:0:
251,178,57736,2,0,P|212:160|170:168,1,87.749995983124,8|0,3:0|0:0,0:0:0:0:
137,174,58035,6,0,P|100:184|60:168,1,77.9999964294435,2|2,0:0|0:0,0:0:0:0:
48,136,58333,1,8,3:0:0:0:
92,68,58483,1,2,0:0:0:0:
162,139,58632,2,0,B|205:139|205:139|237:119|237:119|273:119,1,116.999994644165,2|8,0:0|3:0,0:0:0:0:
345,82,59080,1,2,0:0:0:0:
277,39,59229,2,0,B|233:39|233:39|201:19|201:19|165:19,1,116.999994644165,2|8,0:0|3:0,0:0:0:0:
109,76,59677,1,2,0:0:0:0:
134,210,59826,2,0,P|166:203|190:179,1,58.4999973220826,2|0,0:0|0:0,0:0:0:0:
256,224,60124,2,2,L|220:296,1,58.4999973220826,8|2,3:0|0:0,0:0:0:0:
220,300,60348,1,0,0:0:0:0:
212,324,60423,6,0,P|272:344|332:324,1,116.999994644165,2|8,0:0|3:0,0:0:0:0:
400,316,60871,1,2,0:0:0:0:
424,244,61020,2,0,P|396:208|400:172,1,58.4999973220826,2|0,0:0|0:0,0:0:0:0:
469,179,61319,2,0,P|461:151|440:132,1,58.4999973220826,8|0,3:0|0:0,0:0:0:0:
420,116,61542,1,0,0:0:0:0:
396,108,61617,2,0,L|328:128,1,58.4999973220826,2|0,0:0|0:0,0:0:0:0:
276,80,61916,2,0,L|180:96,1,87.749995983124,8|0,3:0|0:0,0:0:0:0:
164,100,62214,6,0,P|178:142|154:173,1,77.9999964294435,4|0,0:0|0:0,0:0:0:0:
144,192,62513,1,8,3:0:0:0:
116,212,62612,1,8,3:0:0:0:
88,232,62712,1,8,3:0:0:0:
60,252,62811,5,8,3:0:0:0:
76,284,62911,1,8,3:0:0:0:
104,304,63010,1,8,3:0:0:0:
140,308,63110,1,8,3:0:0:0:
176,304,63209,1,8,3:0:0:0:
208,288,63309,1,8,3:0:0:0:
232,260,63408,6,0,P|260:264|312:304,1,87.749995983124,6|0,0:0|0:0,0:0:0:0:
328,316,63707,2,0,L|400:288,1,58.4999973220826,8|0,3:0|3:0,3:0:0:0:
452,332,64005,2,0,L|480:264,1,58.4999973220826,2|0,0:0|0:0,0:0:0:0:
472,184,64304,2,0,P|424:208|380:192,1,87.749995983124,8|0,3:0|0:0,0:0:0:0:
376,180,64602,2,0,L|380:120,1,58.4999973220826,8|0,3:0|0:0,0:0:0:0:
300,124,64901,2,0,L|272:64,1,58.4999973220826,2|0,0:0|0:0,0:0:0:0:
208,116,65199,2,0,P|152:96|92:128,1,116.999994644165,2|8,0:0|3:0,0:0:0:0:
156,176,65647,1,2,0:0:0:0:
275,70,65796,6,0,L|372:48,1,87.749995983124,2|0,0:0|0:0,0:0:0:0:
388,48,66095,2,0,P|412:92|440:100,1,58.4999973220826,8|0,3:0|0:0,0:0:0:0:
464,160,66393,2,0,B|440:180|403:173|403:173|360:232,1,116.999994644165,2|8,0:0|3:0,0:0:0:0:
296,220,66841,2,0,P|298:191|311:165,1,58.4999973220826,2|0,0:0|0:0,0:0:0:0:
336,284,67139,2,0,P|300:296|268:288,1,58.4999973220826,2|8,0:0|3:0,0:0:0:0:
222,240,67438,1,2,0:0:0:0:
373,214,67587,2,0,P|405:247|401:327,1,116.999994644165,2|8,0:0|3:0,0:0:0:0:
349,366,68035,1,2,0:0:0:0:
236,322,68184,6,0,P|175:308|135:319,1,87.749995983124,4|0,0:0|0:0,0:0:0:0:
124,316,68483,2,0,L|157:254,1,58.4999973220826,8|0,3:0|0:0,0:0:0:0:
156,187,68781,2,0,L|128:135,1,58.4999973220826,2|0,0:0|0:0,0:0:0:0:
93,65,69080,1,8,3:0:0:0:
219,132,69229,2,0,P|284:126|327:77,1,116.999994644165,2|2,0:0|0:0,0:0:0:0:
367,33,69677,1,8,3:0:0:0:
244,52,69826,1,2,0:0:0:0:
341,175,69975,2,0,P|367:151|387:107,1,58.4999973220826,2|0,0:0|0:0,0:0:0:0:
416,64,70274,2,0,L|367:33,1,58.4999973220826,8|0,3:0|0:0,0:0:0:0:
267,198,70572,6,0,P|287:235|318:255,1,58.4999973220826,2|2,0:0|0:0,0:0:0:0:
322,257,70796,1,0,0:0:0:0:
347,262,70871,2,0,L|418:266,1,58.4999973220826,8|0,3:0|0:0,0:0:0:0:
475,299,71169,2,0,B|459:332|416:342|416:342|361:338,1,116.999994644165,2|8,0:0|3:0,0:0:0:0:
296,346,71617,1,2,0:0:0:0:
234,294,71766,2,0,P|186:288|135:309,1,87.749995983124,2|0,0:0|0:0,0:0:0:0:
123,308,72065,6,0,P|108:294|81:282,1,38.9999982147218,8|0,3:0|0:0,0:0:0:0:
63,264,72264,1,2,0:0:0:0:
92,244,72363,1,8,3:0:0:0:
110,213,72463,1,8,3:0:0:0:
110,178,72562,1,8,3:0:0:0:
95,145,72662,1,8,3:0:0:0:
127,132,72761,1,8,3:0:0:0:
153,108,72861,1,8,3:0:0:0:
168,76,72960,6,0,P|186:146|216:164,1,87.749995983124,4|0,0:0|0:0,0:0:0:0:
222,154,73259,2,0,L|290:128,1,58.4999973220826,8|0,3:0|0:0,0:0:0:0:
347,163,73557,2,0,P|324:194|297:205,1,58.4999973220826,2|0,0:0|0:0,0:0:0:0:
334,86,73856,2,0,P|357:55|384:44,1,58.4999973220826,8|0,3:0|0:0,0:0:0:0:
347,163,74154,2,0,L|252:259,1,116.999994644165,2|8,0:0|3:0,0:0:0:0:
190,225,74602,1,2,0:0:0:0:
213,302,74751,2,0,P|240:319|279:321,1,58.4999973220826,2|0,0:0|0:0,0:0:0:0:
318,265,75050,2,0,P|289:248|256:247,1,58.4999973220826,8|0,3:0|0:0,0:0:0:0:
131,313,75348,6,0,P|75:297|46:265,1,87.749995983124,2|0,0:0|0:0,0:0:0:0:
37,253,75647,2,0,L|88:202,1,58.4999973220826,8|0,3:0|0:0,0:0:0:0:
22,157,75945,2,0,L|73:106,1,58.4999973220826,2|0,0:0|0:0,0:0:0:0:
7,63,76244,2,0,B|51:24|51:24|83:39|132:25,1,116.999994644165,8|8,3:0|3:0,0:0:0:0:
185,16,76692,1,2,0:0:0:0:
255,53,76841,2,0,P|284:58|320:49,1,58.4999973220826,8|0,3:0|0:0,0:0:0:0:
376,100,77139,2,0,P|390:74|396:46,1,58.4999973220826,4|0,1:0|0:0,0:0:0:0:
490,34,77438,2,0,P|475:59|469:87,1,58.4999973220826,2|0,0:0|0:0,0:0:0:0:
392,207,77736,6,0,P|404:151|377:101,1,116.999994644165,4|8,0:0|3:0,0:0:0:0:
325,162,78184,1,2,0:0:0:0:
418,282,78333,2,0,P|446:266|465:237,1,58.4999973220826,2|0,0:0|0:0,0:0:0:0:
392,207,78632,1,8,3:0:0:0:
342,312,78781,2,0,L|381:355,1,58.4999973220826,2|0,0:0|0:0,0:0:0:0:
266,293,79080,2,0,P|275:265|297:246,1,58.4999973220826,2|8,0:0|3:0,0:0:0:0:
342,312,79378,1,2,0:0:0:0:
270,369,79527,2,0,P|240:365|204:338,1,58.4999973220826,2|0,0:0|0:0,0:0:0:0:
212,275,79826,2,0,P|242:279|278:306,1,58.4999973220826,8|0,3:0|0:0,0:0:0:0:
94,290,80124,6,0,P|107:259|162:220,1,87.749995983124,2|0,0:0|0:0,0:0:0:0:
174,211,80423,2,0,L|125:164,1,58.4999973220826,8|0,3:0|0:0,0:0:0:0:
238,166,80722,2,0,L|138:70,1,116.999994644165,2|8,0:0|3:0,0:0:0:0:
209,36,81169,2,0,P|240:44|276:37,1,58.4999973220826,2|0,0:0|0:0,0:0:0:0:
153,84,81468,2,0,P|122:76|86:83,1,58.4999973220826,2|8,0:0|3:0,0:0:0:0:
68,101,81717,5,8,3:0:0:0:
40,122,81816,1,8,3:0:0:0:
16,147,81916,2,0,L|57:195,1,58.4999973220826,2|0,0:0|0:0,0:0:0:0:
169,218,82214,2,0,P|141:233|125:237,2,38.9999982147218,8|8|8,3:0|3:0|3:0,0:0:0:0:
210,149,82513,5,2,0:0:0:0:
131,149,82662,1,2,0:0:0:0:
169,218,82811,1,10,0:0:0:0:
341,346,83110,1,2,0:0:0:0:
384,119,83408,1,10,0:0:0:0:
428,184,83557,1,2,0:0:0:0:
465,114,83707,6,0,P|456:75|427:52,1,58.4999973220826,2|0,0:0|0:0,0:0:0:0:
428,184,84005,2,0,P|460:198|498:190,1,58.4999973220826,10|0,0:0|0:0,0:0:0:0:
384,119,84304,2,0,P|359:145|354:212,1,87.749995983124,2|0,0:0|0:0,0:0:0:0:
357,225,84602,2,0,L|276:269,1,77.9999964294435,8|0,3:0|0:0,0:0:0:0:
256,192,84901,12,0,86990,0:0:0:0:
