osu file format v14

[General]
AudioFilename: audio.mp3
AudioLeadIn: 0
PreviewTime: 34416
Countdown: 1
SampleSet: None
StackLeniency: 0.7
Mode: 3
LetterboxInBreaks: 0
SpecialStyle: 0
WidescreenStoryboard: 1

[Editor]
DistanceSpacing: 1.4
BeatDivisor: 6
GridSize: 4
TimelineZoom: 1.7

[Metadata]
Title:Rampaging Evil
TitleUnicode:Rampaging Evil
Artist:Hayashi Yuki
ArtistUnicode:林 ゆうき
Creator:juankristal
Version:Stage 1: Distortion
Source:僕のヒーローアカデミア
Tags:SV
BeatmapID:1494545
BeatmapSetID:706895

[Difficulty]
HPDrainRate:9
CircleSize:4
OverallDifficulty:9
ApproachRate:5
SliderMultiplier:1.4
SliderTickRate:1

[Events]
//Background and Video events
0,0,"Mustard.(Boku.No.Hero.Academia).full.1990460.jpg",0,0
//Break Periods
//Storyboard Layer 0 (Background)
//Storyboard Layer 1 (Fail)
//Storyboard Layer 2 (Pass)
//Storyboard Layer 3 (Foreground)
//Storyboard Sound Samples

[TimingPoints]
614,422.535211267606,4,1,0,40,1,0
1177,-10000,4,1,0,40,0,0
1318,-100,4,1,0,40,0,0
2022,-10000,4,1,0,40,0,0
2163,-100,4,1,0,40,0,0
2867,-10000,4,1,0,40,0,0
3008,-100,4,1,0,40,0,0
3712,-10000,4,1,0,40,0,0
3853,-100,4,1,0,40,0,0
4557,-10000,4,1,0,40,0,0
4698,-100,4,1,0,40,0,0
5402,-10000,4,1,0,40,0,0
5543,-100,4,1,0,40,0,0
6247,-10000,4,1,0,40,0,0
6388,-100,4,1,0,40,0,0
7092,-10000,4,1,0,40,0,0
7233,-100,4,1,0,40,0,0
7937,-10000,4,1,0,40,0,0
8078,-100,4,1,0,40,0,0
8783,-1000,4,1,0,40,0,0
8923,-100,4,1,0,40,0,0
9628,-10000,4,1,0,40,0,0
9768,-100,4,1,0,40,0,0
10473,-10000,4,1,0,40,0,0
10614,-100,4,1,0,40,0,0
11318,-10000,4,1,0,40,0,0
11459,-100,4,1,0,40,0,0
12163,-10000,4,1,0,40,0,0
12304,-100,4,1,0,40,0,0
13149,-50,4,1,0,40,0,0
13184,-66.6666666666667,4,1,0,40,0,0
13219,-100,4,1,0,40,0,0
13254,-200,4,1,0,40,0,0
13290,-100,4,1,0,40,0,0
13712,-1000,4,1,0,40,0,0
14115,-10,4,1,0,40,0,0
14135,-100,4,1,0,40,0,0
14698,-1000,4,1,0,40,0,0
14839,-100,4,1,0,40,0,0
15543,-1000,4,1,0,40,0,0
15684,-100,4,1,0,40,0,0
16388,-1000,4,1,0,40,0,0
16529,-100,4,1,0,40,0,0
17233,-1000,4,1,0,40,0,0
17374,-100,4,1,0,40,0,0
18078,-1000,4,1,0,40,0,0
18219,-100,4,1,0,40,0,0
18923,-1000,4,1,0,40,0,0
19064,-100,4,1,0,40,0,0
20754,-1000,4,1,0,40,0,0
20884,-10,4,1,0,40,0,0
20905,-142.857142857143,4,1,0,40,0,0
21318,-100,4,1,0,40,0,0
21740,-10,4,1,0,40,0,0
21745,-142.857142857143,4,1,0,40,0,0
22163,-100,4,1,0,40,0,0
22585,-10,4,1,0,40,0,0
22590,-142.857142857143,4,1,0,40,0,0
23008,-100,4,1,0,40,0,0
23430,-10,4,1,0,40,0,0
23435,-142.857142857143,4,1,0,40,0,0
23853,-100,4,1,0,40,0,0
24275,-10,4,1,0,40,0,0
24280,-142.857142857143,4,1,0,40,0,0
24698,-100,4,1,0,40,0,0
25121,-10,4,1,0,40,0,0
25126,-142.857142857143,4,1,0,40,0,0
25543,-100,4,1,0,40,0,0
25966,-10,4,1,0,40,0,0
25971,-142.857142857143,4,1,0,40,0,0
26388,-100,4,1,0,40,0,0
26811,-10,4,1,0,40,0,0
26816,-142.857142857143,4,1,0,40,0,0
27233,-100,4,1,0,40,0,0
27656,-50,4,1,0,40,0,0
27709,-66.6666666666667,4,1,0,40,0,0
27761,-100,4,1,0,40,0,0
27814,-200,4,1,0,40,0,0
27867,-142.857142857143,4,1,0,40,0,0
28078,-50,4,1,0,40,0,0
28131,-66.6666666666667,4,1,0,40,0,0
28184,-100,4,1,0,40,0,0
28237,-200,4,1,0,40,0,0
28290,-133.333333333333,4,1,0,40,0,0
28501,-50,4,1,0,40,0,0
28554,-66.6666666666667,4,1,0,40,0,0
28606,-100,4,1,0,40,0,0
28659,-200,4,1,0,40,0,0
28712,-133.333333333333,4,1,0,40,0,0
28923,-50,4,1,0,40,0,0
28976,-66.6666666666667,4,1,0,40,0,0
29029,-100,4,1,0,40,0,0
29082,-200,4,1,0,40,0,0
29135,-125,4,1,0,40,0,0
29346,-50,4,1,0,40,0,0
29399,-66.6666666666667,4,1,0,40,0,0
29452,-100,4,1,0,40,0,0
29504,-200,4,1,0,40,0,0
29557,-125,4,1,0,40,0,0
29768,-50,4,1,0,40,0,0
29821,-66.6666666666667,4,1,0,40,0,0
29874,-100,4,1,0,40,0,0
29927,-200,4,1,0,40,0,0
29980,-117.647058823529,4,1,0,40,0,0
30191,-50,4,1,0,40,0,0
30244,-66.6666666666667,4,1,0,40,0,0
30297,-100,4,1,0,40,0,0
30349,-200,4,1,0,40,0,0
30402,-117.647058823529,4,1,0,40,0,0
30614,-50,4,1,0,40,0,0
30666,-66.6666666666667,4,1,0,40,0,0
30719,-100,4,1,0,40,0,0
30772,-200,4,1,0,40,0,0
30825,-111.111111111111,4,1,0,40,0,0
31036,-50,4,1,0,40,0,0
31089,-66.6666666666667,4,1,0,40,0,0
31142,-100,4,1,0,40,0,0
31194,-200,4,1,0,40,0,0
31247,-111.111111111111,4,1,0,40,0,0
31459,-50,4,1,0,40,0,0
31511,-66.6666666666667,4,1,0,40,0,0
31564,-100,4,1,0,40,0,0
31617,-200,4,1,0,40,0,0
31670,-105.263157894737,4,1,0,40,0,0
31881,-50,4,1,0,40,0,0
31934,-66.6666666666667,4,1,0,40,0,0
31987,-100,4,1,0,40,0,0
32040,-200,4,1,0,40,0,0
32092,-105.263157894737,4,1,0,40,0,0
32304,-50,4,1,0,40,0,0
32356,-66.6666666666667,4,1,0,40,0,0
32409,-100,4,1,0,40,0,0
32462,-200,4,1,0,40,0,0
32515,-100,4,1,0,40,0,0
33571,-333.333333333333,4,1,0,40,0,0
33994,-100,4,1,0,40,0,0
34311,-1000,4,1,0,40,0,0
34401,-10,4,1,0,40,0,0
34416,-100,4,1,0,40,0,0
34839,-58.8235294117647,4,1,0,40,0,0
35050,-10000,4,1,0,40,0,0
35156,-166.666666666667,4,1,0,40,0,0
35261,-111.111111111111,4,1,0,40,0,0
36106,-200,4,1,0,40,0,0
36247,-100,4,1,0,40,0,0
36388,-86.9565217391304,4,1,0,40,0,0
36529,-285.714285714286,4,1,0,40,0,0
36670,-133.333333333333,4,1,0,40,0,0
36952,-151.515151515152,4,1,0,40,0,0
37268,-151.515151515152,4,1,0,40,0,0
37585,-100,4,1,0,40,0,0
38360,-333.333333333333,4,1,0,40,0,0
38501,-20,4,1,0,40,0,0
38506,-333.333333333333,4,1,0,40,0,0
38642,-100,4,1,0,40,0,0
39487,-100,4,1,0,40,0,0
39628,-200,4,1,0,40,0,0
39768,-111.111111111111,4,1,0,40,0,0
39909,-166.666666666667,4,1,0,40,0,0
40050,-66.6666666666667,4,1,0,40,0,0
40191,-1000,4,1,0,40,0,0
40332,-100,4,1,0,40,0,0
40895,-133.333333333333,4,1,0,40,0,0
41177,-100,4,1,0,40,0,0
41801,-20,4,1,0,40,0,0
41811,-100,4,1,0,40,0,0
42867,-83.3333333333333,4,1,0,40,0,0
43008,-333.333333333333,4,1,0,40,0,0
43149,-151.515151515152,4,1,0,40,0,0
43290,-119.047619047619,4,1,0,40,0,0
43430,-100,4,1,0,40,0,0
43571,-200,4,1,0,40,0,0
43712,-100,4,1,0,40,0,0
44452,-50,4,1,0,40,0,0
44557,-100,4,1,0,40,0,0
46247,-125,4,1,0,40,0,0
46529,-100,4,1,0,40,0,0
47092,-33.3333333333333,4,1,0,40,0,0
47145,-38.0228136882129,4,1,0,40,0,0
47198,-66.6666666666667,4,1,0,40,0,0
47251,-88.4955752212389,4,1,0,40,0,0
47304,-133.333333333333,4,1,0,40,0,0
47409,-76.9230769230769,4,1,0,40,0,0
47515,-100,4,1,0,40,0,0
48149,-50,4,1,0,40,0,0
48202,-66.6666666666667,4,1,0,40,0,0
48254,-100,4,1,0,40,0,0
48307,-200,4,1,0,40,0,0
48360,-1000,4,1,0,40,0,0
48677,-20,4,1,0,40,0,0
48687,-1000,4,1,0,40,0,0
48783,-100,4,1,0,40,0,0
49628,-133.333333333333,4,1,0,40,0,0
49909,-83.3333333333333,4,1,0,40,0,0
50156,-1000,4,1,0,40,0,0
50191,-66.6666666666667,4,1,0,40,0,0
50332,-200,4,1,0,40,0,0
50473,-166.666666666667,4,1,0,40,0,0
50790,-125,4,1,0,40,0,0
51106,-200,4,1,0,40,0,0
51318,-100,4,1,0,40,0,0
51740,-50,4,1,0,40,0,0
51775,-66.6666666666667,4,1,0,40,0,0
51811,-100,4,1,0,40,0,0
51846,-200,4,1,0,40,0,0
51881,-333.333333333333,4,1,0,40,0,0
52128,-33.3333333333333,4,1,0,40,0,0
52163,-100,4,1,0,40,0,0
53008,-71.4285714285714,4,1,0,40,0,0
53149,-1000,4,1,0,40,0,0
53290,-133.333333333333,4,1,0,40,0,0
53571,-100,4,1,0,40,0,0
53712,-200,4,1,0,40,0,0
53853,-90.9090909090909,4,1,0,40,0,0
54487,-50,4,1,0,40,0,0
54592,-333.333333333333,4,1,0,40,0,0
54698,-125,4,1,0,40,0,0
55332,-100,4,1,0,40,0,0
55543,-111.111111111111,4,1,0,40,0,0
56388,-133.333333333333,4,1,0,40,0,0
56670,-111.111111111111,4,1,0,40,0,0
56952,-166.666666666667,4,1,0,40,0,0
57233,-151.515151515152,4,1,0,40,0,0
57867,-100,4,1,0,40,0,0
58078,-125,4,1,0,40,0,0
58290,-83.3333333333333,4,1,0,40,0,0
58501,-128.205128205128,4,1,0,40,0,0
58642,-100,4,1,0,40,0,0
58923,-125,4,1,0,40,0,0
59029,-166.666666666667,4,1,0,40,0,0
59135,-111.111111111111,4,1,0,40,0,0
59240,-117.647058823529,4,1,0,40,0,0
59346,-100,4,1,0,40,0,0
59768,-142.857142857143,4,1,0,40,0,0
60050,-100,4,1,0,40,0,0
62022,-1000,4,1,0,40,0,0
62163,-100,4,1,0,40,0,0
62867,-1000,4,1,0,40,0,0
63008,-100,4,1,0,40,0,0
64416,-1000,4,1,0,40,0,0
64698,-100,4,1,0,40,0,0
65402,-1000,4,1,0,40,0,0
65543,-100,4,1,0,40,0,0
66247,-1000,4,1,0,40,0,0
66388,-100,4,1,0,40,0,0
68853,-66.6666666666667,4,1,0,40,0,0
68923,-133.333333333333,4,1,0,40,0,0
69064,-100,4,1,0,40,0,0
69628,-66.6666666666667,4,1,0,40,0,0
69698,-200,4,1,0,40,0,0
69768,-100,4,1,0,40,0,0
69909,-20,4,1,0,40,0,0
69914,-100,4,1,0,40,0,0
70050,-200,4,1,0,40,0,0
70121,-66.6666666666667,4,1,0,40,0,0
70191,-100,4,1,0,40,0,0
70754,-20,4,1,0,40,0,0
70759,-100,4,1,0,40,0,0
71036,-83.3333333333333,4,1,0,40,0,0
71106,-125,4,1,0,40,0,0
71177,-100,4,1,0,40,0,0
71599,-20,4,1,0,40,0,0
71604,-100,4,1,0,40,0,0
71740,-166.666666666667,4,1,0,40,0,0
71811,-71.4285714285714,4,1,0,40,0,0
71881,-100,4,1,0,40,0,0
72304,-75.187969924812,4,1,0,40,0,0
72374,-151.515151515152,4,1,0,40,0,0
72444,-100,4,1,0,40,0,0
72726,-333.333333333333,4,1,0,40,0,0
72797,-58.8235294117647,4,1,0,40,0,0
72867,-100,4,1,0,40,0,0
73290,-20,4,1,0,40,0,0
73295,-100,4,1,0,40,0,0
73430,-20,4,1,0,40,0,0
73435,-100,4,1,0,40,0,0
73571,-20,4,1,0,40,0,0
73576,-100,4,1,0,40,0,0
73712,-10,4,1,0,40,0,0
73717,-100,4,1,0,40,0,0
73853,-20,4,1,0,40,0,0
73858,-100,4,1,0,40,0,0
73994,-20,4,1,0,40,0,0
73999,-100,4,1,0,40,0,0
74135,-10,4,1,0,40,0,0
74140,-100,4,1,0,40,0,0
74275,-10,4,1,0,40,0,0
74280,-100,4,1,0,40,0,0
74416,-10,4,1,0,40,0,0
74421,-100,4,1,0,40,0,0
74557,-10,4,1,0,40,0,0
74562,-100,4,1,0,40,0,0
74698,-10,4,1,0,40,0,0
74703,-100,4,1,0,40,0,0
74839,-10,4,1,0,40,0,0
74844,-100,4,1,0,40,0,0
74980,-10,4,1,0,40,0,0
74985,-100,4,1,0,40,0,0
75402,-50,4,1,0,40,0,0
75455,-60.2409638554217,4,1,0,40,0,0
75508,-75.187969924812,4,1,0,40,0,0
75561,-100,4,1,0,40,0,0
75614,-151.515151515152,4,1,0,40,0,0
75666,-303.030303030303,4,1,0,40,0,0
75719,-1000,4,1,0,40,0,0
75825,-100,4,1,0,40,0,0
76670,-200,4,1,0,40,0,0
76811,-100,4,1,0,40,0,0
77515,-125,4,1,0,40,0,0
77726,-166.666666666667,4,1,0,40,0,0
77832,-83.3333333333333,4,1,0,40,0,0
77937,-111.111111111111,4,1,0,40,0,0
78043,-125,4,1,0,40,0,0
78149,-100,4,1,0,40,0,0
78642,-50,4,1,0,40,0,0
78712,-66.6666666666667,4,1,0,40,0,0
78783,-100,4,1,0,40,0,0
78853,-200,4,1,0,40,0,0
78923,-1000,4,1,0,40,0,0
79064,-10,4,1,0,40,0,0
79074,-1000,4,1,0,40,0,0
79205,-125,4,1,0,40,0,0
80050,-100,4,1,0,40,0,0
80121,-125,4,1,0,40,0,0
80191,-100,4,1,0,40,0,0
80332,-90.9090909090909,4,1,0,40,0,0
80473,-142.857142857143,4,1,0,40,0,0
80614,-111.111111111111,4,1,0,40,0,0
80684,-100,4,1,0,40,0,0
81106,-50,4,1,0,40,0,0
81159,-66.6666666666667,4,1,0,40,0,0
81212,-100,4,1,0,40,0,0
81265,-200,4,1,0,40,0,0
81318,-1000,4,1,0,40,0,0
81524,-10,4,1,0,40,0,0
81529,-100,4,1,0,40,0,0
81740,-125,4,1,0,40,0,0
82374,-83.3333333333333,4,1,0,40,0,0
82427,-200,4,1,0,40,0,0
82480,-125,4,1,0,40,0,0
82797,-111.111111111111,4,1,0,40,0,0
83008,-166.666666666667,4,1,0,40,0,0
83272,-100,4,1,0,40,0,0
83712,-133.333333333333,4,1,0,40,0,0
83853,-66.6666666666667,4,1,0,40,0,0
83923,-1000,4,1,0,40,0,0
83994,-100,4,1,0,40,0,0
84064,-200,4,1,0,40,0,0
84135,-111.111111111111,4,1,0,40,0,0
84205,-166.666666666667,4,1,0,40,0,0
84275,-100,4,1,0,40,0,0
85121,-50,4,1,0,40,0,0
85173,-66.6666666666667,4,1,0,40,0,0
85226,-100,4,1,0,40,0,0
85279,-200,4,1,0,40,0,0
85332,-100,4,1,0,40,0,0
85649,-1000,4,1,0,40,0,0
85749,-10,4,1,0,40,0,0
85754,-200,4,1,0,40,0,0
85913,-100,4,1,0,40,0,0
86177,-125,4,1,0,40,0,0
86599,-100,4,1,0,40,0,0
88923,-50,4,1,0,40,0,0
88976,-66.6666666666667,4,1,0,40,0,0
89029,-100,4,1,0,40,0,0
89082,-200,4,1,0,40,0,0
89135,-1000,4,1,0,40,0,0
89338,-10,4,1,0,40,0,0
89346,-100,4,1,0,40,0,0
90473,-111.111111111111,4,1,0,40,0,0
90614,-125,4,1,0,40,0,0
90754,-142.857142857143,4,1,0,40,0,0
90895,-166.666666666667,4,1,0,40,0,0
91036,-100,4,1,0,40,0,0
91353,-111.111111111111,4,1,0,40,0,0
91670,-125,4,1,0,40,0,0
91881,-117.647058823529,4,1,0,40,0,0
92304,-1000,4,1,0,40,0,0
92444,-100,4,1,0,40,0,0
92585,-200,4,1,0,40,0,0
92726,-100,4,1,0,40,0,0
93853,-125,4,1,0,40,0,0
93994,-142.857142857143,4,1,0,40,0,0
94135,-166.666666666667,4,1,0,40,0,0
94275,-200,4,1,0,40,0,0
94416,-142.857142857143,4,1,0,40,0,0
94980,-117.647058823529,4,1,0,40,0,0
95121,-111.111111111111,4,1,0,40,0,0
95261,-142.857142857143,4,1,0,40,0,0
95543,-50,4,1,0,40,0,0
95614,-66.6666666666667,4,1,0,40,0,0
95684,-100,4,1,0,40,0,0
95754,-200,4,1,0,40,0,0
95825,-100,4,1,0,40,0,0
97233,-133.333333333333,4,1,0,40,0,0
97374,-66.6666666666667,4,1,0,40,0,0
97444,-200,4,1,0,40,0,0
97515,-83.3333333333333,4,1,0,40,0,0
97585,-333.333333333333,4,1,0,40,0,0
97656,-66.6666666666667,4,1,0,40,0,0
97726,-1000,4,1,0,40,0,0
97797,-100,4,1,0,40,0,0
98219,-151.515151515152,4,1,0,40,0,0
98360,-75.187969924812,4,1,0,40,0,0
98501,-125,4,1,0,40,0,0
98642,-166.666666666667,4,1,0,40,0,0
99487,-10,4,1,0,40,0,0
99490,-166.666666666667,4,1,0,40,0,0
100332,-50,4,1,0,40,0,0
100402,-66.6666666666667,4,1,0,40,0,0
100473,-100,4,1,0,40,0,0
100543,-200,4,1,0,40,0,0
100614,-100,4,1,0,40,0,0
101459,-66.6666666666667,4,1,0,40,0,0
101599,-100,4,1,0,40,0,0
101811,-1000,4,1,0,40,0,0
102012,-10,4,1,0,40,0,0
102022,-100,4,1,0,40,0,0

[HitObjects]
192,192,614,5,0,0:0:0:0:
192,192,754,1,0,0:0:0:0:
192,192,895,1,0,0:0:0:0:
192,192,1036,1,0,0:0:0:0:
448,192,1177,1,0,0:0:0:0:
320,192,1459,1,0,0:0:0:0:
320,192,1599,1,0,0:0:0:0:
320,192,1740,1,0,0:0:0:0:
320,192,1881,1,0,0:0:0:0:
64,192,2022,1,0,0:0:0:0:
192,192,2304,1,0,0:0:0:0:
192,192,2444,1,0,0:0:0:0:
192,192,2585,1,0,0:0:0:0:
192,192,2726,1,0,0:0:0:0:
448,192,2867,1,0,0:0:0:0:
320,192,3149,1,0,0:0:0:0:
320,192,3290,1,0,0:0:0:0:
320,192,3430,1,0,0:0:0:0:
320,192,3571,1,0,0:0:0:0:
64,192,3712,1,0,0:0:0:0:
192,192,3994,1,0,0:0:0:0:
192,192,4135,1,0,0:0:0:0:
192,192,4275,1,0,0:0:0:0:
192,192,4416,1,0,0:0:0:0:
448,192,4557,1,0,0:0:0:0:
320,192,4839,1,0,0:0:0:0:
320,192,4980,1,0,0:0:0:0:
320,192,5121,1,0,0:0:0:0:
320,192,5261,1,0,0:0:0:0:
192,192,5402,1,0,0:0:0:0:
64,192,5684,1,0,0:0:0:0:
64,192,5825,1,0,0:0:0:0:
64,192,5966,1,0,0:0:0:0:
64,192,6106,1,0,0:0:0:0:
320,192,6247,1,0,0:0:0:0:
448,192,6529,1,0,0:0:0:0:
448,192,6670,1,0,0:0:0:0:
448,192,6811,1,0,0:0:0:0:
448,192,6952,1,0,0:0:0:0:
64,192,7092,1,0,0:0:0:0:
192,192,7374,1,0,0:0:0:0:
192,192,7515,1,0,0:0:0:0:
192,192,7656,1,0,0:0:0:0:
192,192,7797,1,0,0:0:0:0:
448,192,7937,1,0,0:0:0:0:
320,192,8219,1,0,0:0:0:0:
320,192,8360,1,0,0:0:0:0:
320,192,8501,1,0,0:0:0:0:
320,192,8642,1,0,0:0:0:0:
64,192,8783,1,0,0:0:0:0:
192,192,9064,1,0,0:0:0:0:
192,192,9205,1,0,0:0:0:0:
192,192,9346,1,0,0:0:0:0:
192,192,9487,1,0,0:0:0:0:
448,192,9628,1,0,0:0:0:0:
320,192,9909,1,0,0:0:0:0:
320,192,10050,1,0,0:0:0:0:
320,192,10191,1,0,0:0:0:0:
320,192,10332,1,0,0:0:0:0:
64,192,10473,1,0,0:0:0:0:
192,192,10754,1,0,0:0:0:0:
192,192,10895,1,0,0:0:0:0:
192,192,11036,1,0,0:0:0:0:
192,192,11177,1,0,0:0:0:0:
448,192,11318,1,0,0:0:0:0:
320,192,11599,1,0,0:0:0:0:
320,192,11740,1,0,0:0:0:0:
320,192,11881,1,0,0:0:0:0:
320,192,12022,1,0,0:0:0:0:
64,192,12163,1,0,0:0:0:0:
192,192,12444,1,0,0:0:0:0:
192,192,12585,1,0,0:0:0:0:
192,192,12726,1,0,0:0:0:0:
192,192,12867,1,0,0:0:0:0:
320,192,13008,1,0,0:0:0:0:
448,192,13149,1,0,0:0:0:0:
64,192,13290,1,0,0:0:0:0:
64,192,13430,1,0,0:0:0:0:
64,192,13571,1,0,0:0:0:0:
64,192,13712,1,0,0:0:0:0:
320,192,13712,1,0,0:0:0:0:
192,192,14135,1,0,0:0:0:0:
320,192,14135,1,0,0:0:0:0:
448,192,14135,1,0,0:0:0:0:
64,192,14135,1,0,0:0:0:0:
192,192,14275,1,0,0:0:0:0:
192,192,14416,1,0,0:0:0:0:
192,192,14557,1,0,0:0:0:0:
448,192,14698,1,0,0:0:0:0:
320,192,14980,1,0,0:0:0:0:
320,192,15121,1,0,0:0:0:0:
320,192,15261,1,0,0:0:0:0:
320,192,15402,1,0,0:0:0:0:
64,192,15543,1,0,0:0:0:0:
192,192,15825,1,0,0:0:0:0:
192,192,15966,1,0,0:0:0:0:
192,192,16106,1,0,0:0:0:0:
192,192,16247,1,0,0:0:0:0:
448,192,16388,1,0,0:0:0:0:
320,192,16670,1,0,0:0:0:0:
320,192,16811,1,0,0:0:0:0:
320,192,16952,1,0,0:0:0:0:
320,192,17092,1,0,0:0:0:0:
64,192,17233,1,0,0:0:0:0:
192,192,17515,1,0,0:0:0:0:
192,192,17656,1,0,0:0:0:0:
192,192,17797,1,0,0:0:0:0:
192,192,17937,1,0,0:0:0:0:
448,192,18078,1,0,0:0:0:0:
320,192,18360,1,0,0:0:0:0:
320,192,18501,1,0,0:0:0:0:
320,192,18642,1,0,0:0:0:0:
320,192,18783,1,0,0:0:0:0:
64,192,18923,1,0,0:0:0:0:
192,192,19205,1,0,0:0:0:0:
192,192,19346,1,0,0:0:0:0:
192,192,19487,1,0,0:0:0:0:
192,192,19628,1,0,0:0:0:0:
320,192,19768,1,0,0:0:0:0:
448,192,19909,1,0,0:0:0:0:
64,192,20050,1,0,0:0:0:0:
64,192,20191,1,0,0:0:0:0:
320,192,20332,1,0,0:0:0:0:
192,192,20473,1,0,0:0:0:0:
64,192,20614,1,0,0:0:0:0:
64,192,20754,1,0,0:0:0:0:
320,192,20895,1,0,0:0:0:0:
448,192,20895,1,0,0:0:0:0:
192,192,20895,1,0,0:0:0:0:
64,192,20895,1,0,0:0:0:0:
448,192,21177,1,0,0:0:0:0:
320,192,21318,1,0,0:0:0:0:
192,192,21740,1,0,0:0:0:0:
320,192,21740,1,0,0:0:0:0:
64,192,22022,1,0,0:0:0:0:
192,192,22163,1,0,0:0:0:0:
320,192,22585,1,0,0:0:0:0:
64,192,22585,1,0,0:0:0:0:
320,192,22867,1,0,0:0:0:0:
192,192,23008,1,0,0:0:0:0:
64,192,23430,1,0,0:0:0:0:
320,192,23430,1,0,0:0:0:0:
64,192,23712,1,0,0:0:0:0:
448,192,23853,1,0,0:0:0:0:
320,192,24275,1,0,0:0:0:0:
192,192,24275,1,0,0:0:0:0:
448,192,24698,1,0,0:0:0:0:
192,192,25121,1,0,0:0:0:0:
64,192,25121,1,0,0:0:0:0:
320,192,25543,1,0,0:0:0:0:
192,192,25966,1,0,0:0:0:0:
320,192,25966,1,0,0:0:0:0:
192,192,26388,1,0,0:0:0:0:
320,192,26811,1,0,0:0:0:0:
448,192,26811,1,0,0:0:0:0:
64,192,27233,1,0,0:0:0:0:
64,192,27656,1,0,0:0:0:0:
192,192,27656,1,0,0:0:0:0:
448,192,27656,1,0,0:0:0:0:
320,192,27656,1,0,0:0:0:0:
320,192,27867,1,0,0:0:0:0:
192,192,27973,1,0,0:0:0:0:
64,192,28078,1,0,0:0:0:0:
448,192,28290,1,0,0:0:0:0:
320,192,28395,1,0,0:0:0:0:
192,192,28501,1,0,0:0:0:0:
64,192,28712,1,0,0:0:0:0:
192,192,28818,1,0,0:0:0:0:
320,192,28923,1,0,0:0:0:0:
448,192,29135,1,0,0:0:0:0:
320,192,29240,1,0,0:0:0:0:
64,192,29346,1,0,0:0:0:0:
192,192,29557,1,0,0:0:0:0:
320,192,29663,1,0,0:0:0:0:
448,192,29768,1,0,0:0:0:0:
64,192,29980,1,0,0:0:0:0:
192,192,30085,1,0,0:0:0:0:
320,192,30191,1,0,0:0:0:0:
64,192,30402,1,0,0:0:0:0:
320,192,30508,1,0,0:0:0:0:
448,192,30614,1,0,0:0:0:0:
192,192,30825,1,0,0:0:0:0:
320,192,30930,1,0,0:0:0:0:
448,192,31036,1,0,0:0:0:0:
320,192,31247,1,0,0:0:0:0:
192,192,31353,1,0,0:0:0:0:
64,192,31459,1,0,0:0:0:0:
448,192,31670,1,0,0:0:0:0:
320,192,31775,1,0,0:0:0:0:
64,192,31881,1,0,0:0:0:0:
192,192,32092,1,0,0:0:0:0:
448,192,32198,1,0,0:0:0:0:
320,192,32304,1,0,0:0:0:0:
64,192,32515,1,0,0:0:0:0:
448,192,32621,1,0,0:0:0:0:
192,192,32726,1,0,0:0:0:0:
320,192,32832,1,0,0:0:0:0:
64,192,32937,1,0,0:0:0:0:
448,192,33043,1,0,0:0:0:0:
192,192,33149,1,0,0:0:0:0:
320,192,33254,1,0,0:0:0:0:
64,192,33360,1,0,0:0:0:0:
448,192,33466,1,0,0:0:0:0:
192,192,33571,1,0,0:0:0:0:
320,192,33994,128,0,34311:0:0:0:0:
64,192,34416,1,0,0:0:0:0:
192,192,34416,1,0,0:0:0:0:
448,192,34416,1,0,0:0:0:0:
320,192,34416,128,0,36952:0:0:0:0:
192,192,35261,1,0,0:0:0:0:
64,192,35261,1,0,0:0:0:0:
64,192,36106,1,0,0:0:0:0:
192,192,36106,1,0,0:0:0:0:
64,192,36388,1,0,0:0:0:0:
192,192,36388,1,0,0:0:0:0:
448,192,36740,1,0,0:0:0:0:
64,192,36740,1,0,0:0:0:0:
192,192,36952,128,0,37268:0:0:0:0:
64,192,36952,1,0,0:0:0:0:
448,192,36952,1,0,0:0:0:0:
320,192,37268,128,0,37585:0:0:0:0:
192,192,37585,128,0,37797:0:0:0:0:
64,192,37797,128,0,40332:0:0:0:0:
448,192,37797,1,0,0:0:0:0:
192,192,38430,1,0,0:0:0:0:
320,192,38642,1,0,0:0:0:0:
448,192,38642,1,0,0:0:0:0:
320,192,39487,1,0,0:0:0:0:
192,192,39487,1,0,0:0:0:0:
320,192,39768,1,0,0:0:0:0:
192,192,39768,1,0,0:0:0:0:
448,192,40121,1,0,0:0:0:0:
320,192,40121,1,0,0:0:0:0:
448,192,40332,128,0,41177:0:0:0:0:
320,192,40332,1,0,0:0:0:0:
192,192,40332,1,0,0:0:0:0:
64,192,40966,1,0,0:0:0:0:
192,192,41177,128,0,41811:0:0:0:0:
64,192,41177,1,0,0:0:0:0:
448,192,41811,1,0,0:0:0:0:
320,192,41916,1,0,0:0:0:0:
64,192,42022,128,0,43712:0:0:0:0:
192,192,42022,1,0,0:0:0:0:
320,192,42867,1,0,0:0:0:0:
448,192,42867,1,0,0:0:0:0:
320,192,43149,1,0,0:0:0:0:
448,192,43149,1,0,0:0:0:0:
448,192,43501,1,0,0:0:0:0:
192,192,43501,1,0,0:0:0:0:
320,192,43712,128,0,44029:0:0:0:0:
192,192,43712,1,0,0:0:0:0:
448,192,43712,1,0,0:0:0:0:
192,192,44029,128,0,44346:0:0:0:0:
64,192,44346,128,0,44557:0:0:0:0:
320,192,44557,128,0,46247:0:0:0:0:
448,192,44557,1,0,0:0:0:0:
192,192,44768,1,0,0:0:0:0:
448,192,45191,1,0,0:0:0:0:
192,192,45402,1,0,0:0:0:0:
64,192,45402,1,0,0:0:0:0:
448,192,45825,1,0,0:0:0:0:
64,192,46247,1,0,0:0:0:0:
192,192,46247,1,0,0:0:0:0:
64,192,46529,1,0,0:0:0:0:
192,192,46529,1,0,0:0:0:0:
448,192,46811,1,0,0:0:0:0:
320,192,46881,1,0,0:0:0:0:
64,192,46952,1,0,0:0:0:0:
192,192,47022,1,0,0:0:0:0:
320,192,47092,1,0,0:0:0:0:
448,192,47092,1,0,0:0:0:0:
192,192,47409,1,0,0:0:0:0:
64,192,47409,1,0,0:0:0:0:
320,192,47515,1,0,0:0:0:0:
448,192,47515,1,0,0:0:0:0:
192,192,47726,1,0,0:0:0:0:
64,192,47937,1,0,0:0:0:0:
320,192,47937,1,0,0:0:0:0:
448,192,47937,128,0,50473:0:0:0:0:
192,192,48783,1,0,0:0:0:0:
320,192,48783,1,0,0:0:0:0:
192,192,49628,1,0,0:0:0:0:
64,192,49628,1,0,0:0:0:0:
64,192,49909,1,0,0:0:0:0:
192,192,49909,1,0,0:0:0:0:
320,192,50261,1,0,0:0:0:0:
192,192,50261,1,0,0:0:0:0:
320,192,50473,128,0,50790:0:0:0:0:
64,192,50473,1,0,0:0:0:0:
192,192,50473,1,0,0:0:0:0:
448,192,50790,128,0,51106:0:0:0:0:
192,192,51106,128,0,51318:0:0:0:0:
64,192,51318,128,0,53853:0:0:0:0:
320,192,51318,1,0,0:0:0:0:
448,192,51952,1,0,0:0:0:0:
320,192,52163,1,0,0:0:0:0:
192,192,52163,1,0,0:0:0:0:
320,192,53008,1,0,0:0:0:0:
448,192,53008,1,0,0:0:0:0:
320,192,53290,1,0,0:0:0:0:
448,192,53290,1,0,0:0:0:0:
192,192,53642,1,0,0:0:0:0:
320,192,53642,1,0,0:0:0:0:
448,192,53853,128,0,54698:0:0:0:0:
320,192,53853,1,0,0:0:0:0:
192,192,53853,1,0,0:0:0:0:
192,192,54698,128,0,55332:0:0:0:0:
64,192,54698,1,0,0:0:0:0:
448,192,55332,1,0,0:0:0:0:
320,192,55437,1,0,0:0:0:0:
64,192,55543,128,0,57233:0:0:0:0:
192,192,55543,1,0,0:0:0:0:
320,192,56388,1,0,0:0:0:0:
448,192,56388,1,0,0:0:0:0:
448,192,56670,1,0,0:0:0:0:
320,192,56670,1,0,0:0:0:0:
192,192,57022,1,0,0:0:0:0:
320,192,57022,1,0,0:0:0:0:
448,192,57233,128,0,57550:0:0:0:0:
192,192,57233,1,0,0:0:0:0:
320,192,57233,1,0,0:0:0:0:
320,192,57550,128,0,57867:0:0:0:0:
192,192,57867,128,0,58078:0:0:0:0:
448,192,58078,128,0,59768:0:0:0:0:
64,192,58078,1,0,0:0:0:0:
192,192,58290,1,0,0:0:0:0:
320,192,58712,1,0,0:0:0:0:
192,192,58923,1,0,0:0:0:0:
64,192,58923,1,0,0:0:0:0:
192,192,59135,1,0,0:0:0:0:
320,192,59346,1,0,0:0:0:0:
64,192,59768,1,0,0:0:0:0:
192,192,59768,1,0,0:0:0:0:
64,192,60050,1,0,0:0:0:0:
192,192,60050,1,0,0:0:0:0:
448,192,60332,5,0,0:0:0:0:
320,192,60402,1,0,0:0:0:0:
192,192,60473,1,0,0:0:0:0:
64,192,60543,1,0,0:0:0:0:
320,192,60614,1,0,0:0:0:0:
448,192,60614,1,0,0:0:0:0:
192,192,60895,1,0,0:0:0:0:
320,192,60895,1,0,0:0:0:0:
448,192,61177,1,0,0:0:0:0:
192,192,61177,1,0,0:0:0:0:
64,192,61459,5,0,0:0:0:0:
64,192,61599,1,0,0:0:0:0:
64,192,61740,1,0,0:0:0:0:
448,192,61881,1,0,0:0:0:0:
64,192,62022,1,0,0:0:0:0:
320,192,62304,1,0,0:0:0:0:
320,192,62444,1,0,0:0:0:0:
320,192,62585,1,0,0:0:0:0:
192,192,62726,1,0,0:0:0:0:
320,192,62867,1,0,0:0:0:0:
192,192,63149,1,0,0:0:0:0:
192,192,63290,1,0,0:0:0:0:
192,192,63430,1,0,0:0:0:0:
448,192,63571,1,0,0:0:0:0:
448,192,63712,1,0,0:0:0:0:
448,192,63853,1,0,0:0:0:0:
64,192,63994,1,0,0:0:0:0:
64,192,64135,1,0,0:0:0:0:
64,192,64275,1,0,0:0:0:0:
320,192,64416,1,0,0:0:0:0:
448,192,64416,1,0,0:0:0:0:
192,192,64839,1,0,0:0:0:0:
192,192,64980,1,0,0:0:0:0:
192,192,65121,1,0,0:0:0:0:
320,192,65261,1,0,0:0:0:0:
192,192,65402,1,0,0:0:0:0:
448,192,65684,1,0,0:0:0:0:
448,192,65825,1,0,0:0:0:0:
448,192,65966,1,0,0:0:0:0:
64,192,66106,1,0,0:0:0:0:
448,192,66247,1,0,0:0:0:0:
64,192,66529,1,0,0:0:0:0:
64,192,66670,1,0,0:0:0:0:
64,192,66811,1,0,0:0:0:0:
320,192,66952,1,0,0:0:0:0:
320,192,67092,1,0,0:0:0:0:
320,192,67233,1,0,0:0:0:0:
192,192,67374,1,0,0:0:0:0:
192,192,67515,1,0,0:0:0:0:
192,192,67656,1,0,0:0:0:0:
448,192,67797,1,0,0:0:0:0:
448,192,67937,1,0,0:0:0:0:
448,192,68078,1,0,0:0:0:0:
192,192,68219,1,0,0:0:0:0:
64,192,68219,1,0,0:0:0:0:
320,192,68219,1,0,0:0:0:0:
64,192,68360,1,0,0:0:0:0:
64,192,68501,1,0,0:0:0:0:
448,192,68642,1,0,0:0:0:0:
320,192,68642,1,0,0:0:0:0:
320,192,68853,1,0,0:0:0:0:
192,192,68853,1,0,0:0:0:0:
64,192,68923,1,0,0:0:0:0:
448,192,69064,1,0,0:0:0:0:
320,192,69064,1,0,0:0:0:0:
192,192,69064,1,0,0:0:0:0:
448,192,69205,1,0,0:0:0:0:
448,192,69346,1,0,0:0:0:0:
64,192,69487,1,0,0:0:0:0:
64,192,69628,1,0,0:0:0:0:
320,192,69698,1,0,0:0:0:0:
64,192,69768,1,0,0:0:0:0:
192,192,69909,1,0,0:0:0:0:
448,192,69909,1,0,0:0:0:0:
448,192,70050,1,0,0:0:0:0:
64,192,70121,1,0,0:0:0:0:
448,192,70191,1,0,0:0:0:0:
192,192,70332,1,0,0:0:0:0:
320,192,70332,1,0,0:0:0:0:
192,192,70473,1,0,0:0:0:0:
192,192,70614,1,0,0:0:0:0:
64,192,70754,1,0,0:0:0:0:
320,192,70754,1,0,0:0:0:0:
448,192,70754,1,0,0:0:0:0:
320,192,70895,1,0,0:0:0:0:
320,192,71036,1,0,0:0:0:0:
192,192,71106,1,0,0:0:0:0:
64,192,71177,1,0,0:0:0:0:
448,192,71177,1,0,0:0:0:0:
64,192,71318,1,0,0:0:0:0:
64,192,71459,1,0,0:0:0:0:
192,192,71599,1,0,0:0:0:0:
320,192,71599,1,0,0:0:0:0:
448,192,71599,1,0,0:0:0:0:
64,192,71740,1,0,0:0:0:0:
192,192,71811,1,0,0:0:0:0:
320,192,71881,1,0,0:0:0:0:
448,192,72022,1,0,0:0:0:0:
64,192,72022,1,0,0:0:0:0:
192,192,72163,1,0,0:0:0:0:
192,192,72304,1,0,0:0:0:0:
64,192,72374,1,0,0:0:0:0:
320,192,72444,1,0,0:0:0:0:
448,192,72444,1,0,0:0:0:0:
448,192,72585,1,0,0:0:0:0:
448,192,72726,1,0,0:0:0:0:
320,192,72797,1,0,0:0:0:0:
192,192,72867,1,0,0:0:0:0:
64,192,72867,1,0,0:0:0:0:
64,192,73008,1,0,0:0:0:0:
64,192,73149,1,0,0:0:0:0:
192,192,73290,1,0,0:0:0:0:
320,192,73290,1,0,0:0:0:0:
448,192,73290,1,0,0:0:0:0:
320,192,73430,1,0,0:0:0:0:
320,192,73571,1,0,0:0:0:0:
192,192,73712,1,0,0:0:0:0:
64,192,73712,1,0,0:0:0:0:
320,192,73853,1,0,0:0:0:0:
320,192,73994,1,0,0:0:0:0:
192,192,74135,1,0,0:0:0:0:
64,192,74135,1,0,0:0:0:0:
320,192,74275,1,0,0:0:0:0:
192,192,74275,1,0,0:0:0:0:
64,192,74416,1,0,0:0:0:0:
448,192,74416,1,0,0:0:0:0:
192,192,74557,1,0,0:0:0:0:
64,192,74557,1,0,0:0:0:0:
320,192,74698,1,0,0:0:0:0:
192,192,74698,1,0,0:0:0:0:
448,192,74839,1,0,0:0:0:0:
64,192,74839,1,0,0:0:0:0:
192,192,74980,128,0,75825:0:0:0:0:
320,192,74980,128,0,76670:0:0:0:0:
64,192,74980,128,0,75402:0:0:0:0:
64,192,75825,1,0,0:0:0:0:
448,192,75825,1,0,0:0:0:0:
64,192,76670,1,0,0:0:0:0:
448,192,76670,1,0,0:0:0:0:
192,192,76670,128,0,76811:0:0:0:0:
448,192,76952,1,0,0:0:0:0:
448,192,77092,1,0,0:0:0:0:
192,192,77163,1,0,0:0:0:0:
64,192,77304,1,0,0:0:0:0:
64,192,77515,1,0,0:0:0:0:
192,192,77515,1,0,0:0:0:0:
320,192,77515,1,0,0:0:0:0:
448,192,77515,128,0,77832:0:0:0:0:
64,192,77832,128,0,78360:0:0:0:0:
192,192,78149,128,0,78360:0:0:0:0:
448,192,78360,128,0,80050:0:0:0:0:
320,192,78360,128,0,79205:0:0:0:0:
64,192,78994,1,0,0:0:0:0:
64,192,79205,1,0,0:0:0:0:
192,192,79205,1,0,0:0:0:0:
64,192,80050,1,0,0:0:0:0:
192,192,80050,1,0,0:0:0:0:
320,192,80050,128,0,80191:0:0:0:0:
448,192,80332,1,0,0:0:0:0:
192,192,80332,1,0,0:0:0:0:
64,192,80473,1,0,0:0:0:0:
320,192,80614,1,0,0:0:0:0:
320,192,80754,1,0,0:0:0:0:
192,192,80895,1,0,0:0:0:0:
64,192,80895,128,0,81740:0:0:0:0:
448,192,80895,128,0,81740:0:0:0:0:
320,192,80895,1,0,0:0:0:0:
320,192,81529,1,0,0:0:0:0:
192,192,81740,128,0,82585:0:0:0:0:
320,192,81740,1,0,0:0:0:0:
64,192,82585,128,0,84275:0:0:0:0:
320,192,82585,128,0,83430:0:0:0:0:
448,192,82585,1,0,0:0:0:0:
192,192,83430,1,0,0:0:0:0:
448,192,83430,1,0,0:0:0:0:
192,192,83712,1,0,0:0:0:0:
320,192,83712,1,0,0:0:0:0:
448,192,83853,1,0,0:0:0:0:
320,192,83994,1,0,0:0:0:0:
192,192,84135,1,0,0:0:0:0:
448,192,84275,128,0,84698:0:0:0:0:
192,192,84275,1,0,0:0:0:0:
320,192,84275,1,0,0:0:0:0:
64,192,84487,1,0,0:0:0:0:
192,192,84592,1,0,0:0:0:0:
320,192,84698,128,0,84909:0:0:0:0:
192,192,84909,128,0,85121:0:0:0:0:
448,192,85121,128,0,86811:0:0:0:0:
64,192,85121,1,0,0:0:0:0:
320,192,85332,1,0,0:0:0:0:
64,192,85754,1,0,0:0:0:0:
320,192,85754,1,0,0:0:0:0:
192,192,85966,1,0,0:0:0:0:
320,192,85966,1,0,0:0:0:0:
320,192,86388,1,0,0:0:0:0:
64,192,86811,1,0,0:0:0:0:
192,192,86811,1,0,0:0:0:0:
192,192,87092,1,0,0:0:0:0:
320,192,87092,1,0,0:0:0:0:
64,192,87233,1,0,0:0:0:0:
448,192,87444,1,0,0:0:0:0:
320,192,87515,1,0,0:0:0:0:
192,192,87585,1,0,0:0:0:0:
64,192,87656,1,0,0:0:0:0:
448,192,87656,1,0,0:0:0:0:
448,192,87867,1,0,0:0:0:0:
192,192,87937,1,0,0:0:0:0:
64,192,88078,1,0,0:0:0:0:
320,192,88078,1,0,0:0:0:0:
320,192,88290,1,0,0:0:0:0:
448,192,88501,128,0,90191:0:0:0:0:
192,192,88501,128,0,89346:0:0:0:0:
64,192,89346,1,0,0:0:0:0:
320,192,89346,1,0,0:0:0:0:
64,192,90191,1,0,0:0:0:0:
192,192,90191,1,0,0:0:0:0:
64,192,90473,1,0,0:0:0:0:
192,192,90473,1,0,0:0:0:0:
320,192,90614,1,0,0:0:0:0:
192,192,90754,1,0,0:0:0:0:
320,192,90895,1,0,0:0:0:0:
64,192,91036,1,0,0:0:0:0:
192,192,91036,1,0,0:0:0:0:
448,192,91036,128,0,91353:0:0:0:0:
320,192,91353,128,0,91881:0:0:0:0:
192,192,91670,128,0,91881:0:0:0:0:
64,192,91881,128,0,93571:0:0:0:0:
448,192,91881,128,0,92726:0:0:0:0:
192,192,92515,1,0,0:0:0:0:
320,192,92726,1,0,0:0:0:0:
192,192,92726,1,0,0:0:0:0:
320,192,93571,1,0,0:0:0:0:
448,192,93571,1,0,0:0:0:0:
448,192,93853,1,0,0:0:0:0:
320,192,93853,1,0,0:0:0:0:
64,192,93994,1,0,0:0:0:0:
320,192,94135,1,0,0:0:0:0:
64,192,94275,1,0,0:0:0:0:
64,192,94416,1,0,0:0:0:0:
320,192,94416,1,0,0:0:0:0:
192,192,94416,128,0,95261:0:0:0:0:
448,192,94416,128,0,95261:0:0:0:0:
320,192,95261,128,0,95895:0:0:0:0:
64,192,95261,1,0,0:0:0:0:
64,192,95895,1,0,0:0:0:0:
192,192,96001,1,0,0:0:0:0:
320,192,96106,1,0,0:0:0:0:
448,192,96106,128,0,97797:0:0:0:0:
64,192,96952,1,0,0:0:0:0:
192,192,96952,1,0,0:0:0:0:
64,192,97233,1,0,0:0:0:0:
192,192,97233,1,0,0:0:0:0:
320,192,97374,1,0,0:0:0:0:
64,192,97515,1,0,0:0:0:0:
320,192,97656,1,0,0:0:0:0:
192,192,97797,128,0,98219:0:0:0:0:
320,192,97797,1,0,0:0:0:0:
64,192,97797,1,0,0:0:0:0:
320,192,98219,128,0,98430:0:0:0:0:
64,192,98430,128,0,98642:0:0:0:0:
448,192,98642,128,0,100332:0:0:0:0:
192,192,98642,1,0,0:0:0:0:
320,192,98853,1,0,0:0:0:0:
64,192,99275,1,0,0:0:0:0:
192,192,99487,1,0,0:0:0:0:
320,192,99487,1,0,0:0:0:0:
64,192,99698,1,0,0:0:0:0:
320,192,99909,1,0,0:0:0:0:
64,192,100332,1,0,0:0:0:0:
192,192,100332,1,0,0:0:0:0:
64,192,100614,1,0,0:0:0:0:
192,192,100614,1,0,0:0:0:0:
192,192,100966,1,0,0:0:0:0:
448,192,101036,1,0,0:0:0:0:
64,192,101106,1,0,0:0:0:0:
320,192,101177,1,0,0:0:0:0:
448,192,101177,1,0,0:0:0:0:
192,192,101459,1,0,0:0:0:0:
64,192,101459,1,0,0:0:0:0:
320,192,101529,1,0,0:0:0:0:
448,192,101529,1,0,0:0:0:0:
64,192,101811,1,0,0:0:0:0:
192,192,101811,1,0,0:0:0:0:
320,192,102022,1,0,0:0:0:0:
