osu file format v14

[General]
AudioFilename: audio.mp3
AudioLeadIn: 0
PreviewTime: 102106
Countdown: 0
SampleSet: Soft
StackLeniency: 0.5
Mode: 0
LetterboxInBreaks: 0
WidescreenStoryboard: 1

[Editor]
Bookmarks: 241997,246692
DistanceSpacing: 1.3
BeatDivisor: 8
GridSize: 8
TimelineZoom: 1.7

[Metadata]
Title:Kanashikute lulululu -Hasaka ver.-
TitleUnicode:悲しくて lulululu -ハーサカver.-
Artist:Hayasaka Ai (CV: Hanamori Yumiri)
ArtistUnicode:早坂愛 (CV: 花守ゆみり)
Creator:Heratikus
Version:Normal
Source:かぐや様は告らせたい-ウルトラロマンティック-
Tags:japanese pop jpop j-pop female vocal vocals vocalist anime kaguya-sama wa kokurasetai tensai-tachi no renai zunousen kaguya sama love is war ultra romantic season 3 aitakute 会いたくて kana nishino 西野カナ
BeatmapID:3826076
BeatmapSetID:1802471

[Difficulty]
HPDrainRate:3.5
CircleSize:3.5
OverallDifficulty:5
ApproachRate:6
SliderMultiplier:1.2
SliderTickRate:1

[Events]
//Background and Video events
0,0,"hayasakaresize.jpg",0,0
//Break Periods
2,188457,199729
//Storyboard Layer 0 (Background)
//Storyboard Layer 1 (Fail)
//Storyboard Layer 2 (Pass)
//Storyboard Layer 3 (Foreground)
//Storyboard Layer 4 (Overlay)
//Storyboard Sound Samples

[TimingPoints]
4041,535.714285714286,4,2,1,40,1,0
8327,545.454545454546,4,2,1,40,1,0
10508,571.428571428571,4,2,1,50,1,0
11079,600,4,2,1,45,1,0
11679,800,4,2,1,40,1,0
12479,1090.90909090909,4,2,1,40,1,0
13569,705.882352941176,4,2,1,40,1,0
13923,882.352941176471,4,2,1,40,1,0
14364,666.666666666667,4,2,1,40,1,0
16607,521.739130434783,4,2,1,45,1,0
17128,521.739130434783,4,2,2,50,1,0
25475,-100,4,2,2,55,0,0
31997,-90.9090909090909,4,2,1,70,0,1
33562,-90.9090909090909,4,2,1,70,0,0
33823,-90.9090909090909,4,2,1,70,0,1
48171,-90.9090909090909,4,2,1,70,0,0
48693,-90.9090909090909,4,2,1,70,0,1
49997,-90.9090909090909,4,2,1,60,0,0
50519,-100,4,2,1,50,0,0
67214,-100,4,2,1,55,0,0
88084,-100,4,2,1,55,0,0
96432,-90.9090909090909,4,2,1,60,0,0
98519,-90.9090909090909,4,2,1,65,0,0
102693,521.739130434783,4,2,1,70,1,1
102693,-90.9090909090909,4,2,1,70,0,1
117040,-90.9090909090909,4,2,1,70,0,0
117562,-90.9090909090909,4,2,1,70,0,1
118866,-90.9090909090909,4,2,1,60,0,0
119388,-100,4,2,1,50,0,0
148606,-100,4,2,1,60,0,0
152779,-90.9090909090909,4,2,1,65,0,0
169475,-90.9090909090909,4,2,1,70,0,1
186171,-100,4,2,1,60,0,0
188258,521.739130434783,4,2,2,50,1,0
188258,-100,4,2,2,50,0,0
201823,-100,4,2,1,60,0,0
202344,-100,4,2,1,65,0,0
202866,-100,4,2,1,5,0,0
203910,-90.9090909090909,4,2,1,70,0,0
204953,-90.9090909090909,4,2,1,75,0,1
219301,-90.9090909090909,4,2,1,75,0,0
219823,-90.9090909090909,4,2,1,75,0,1
221388,-90.9090909090909,4,2,1,75,0,0
221649,-90.9090909090909,4,2,1,75,0,1
235997,-90.9090909090909,4,2,1,75,0,0
236518,-90.9090909090909,4,2,1,75,0,1
237823,-100,4,2,1,50,0,1
238344,-100,4,2,1,40,0,0
239127,-100,4,2,1,50,0,0
240692,-90.9090909090909,4,2,1,65,0,1
241997,-100,4,2,1,50,0,0

[Colours]
Combo1 : 115,88,165
Combo2 : 244,222,94
Combo3 : 64,169,225
Combo4 : 211,148,84

[HitObjects]
512,0,16607,6,0,L|501:70,1,60,2|2,2:2|2:2,0:0:0:0:
479,133,17128,2,0,P|452:150|415:150,1,60,6|0,2:2|2:2,0:0:0:0:
386,144,17519,1,2,2:2:0:0:
291,74,17910,6,0,L|293:10,2,60,2|2|2,2:2|2:2|2:2,0:0:0:0:
246,138,18693,2,0,L|248:202,1,60,2|2,2:2|2:2,0:0:0:0:
308,247,19214,2,0,P|357:231|397:247,2,90,2|2|2,2:2|2:2|2:2,0:0:0:0:
259,308,20258,1,2,2:2:0:0:
110,259,20780,1,2,2:2:0:0:
77,105,21301,6,0,P|87:71|114:48,1,60,2|2,2:2|2:2,0:0:0:0:
142,43,21693,1,2,2:2:0:0:
257,80,22084,5,2,2:2:0:0:
257,80,22345,2,0,L|259:140,1,60,2|2,2:2|2:2,0:0:0:0:
262,178,22736,1,2,2:2:0:0:
250,298,23128,5,2,2:2:0:0:
250,298,23388,2,0,L|314:312,1,60,2|2,2:2|2:2,0:0:0:0:
387,313,23910,2,0,P|416:308|443:320,1,60,2|2,2:2|2:2,0:0:0:0:
501,373,24432,2,0,P|520:332|514:289,2,90,2|2|2,2:2|2:2|2:2,0:0:0:0:
422,378,25475,6,0,L|326:368,1,90,2|2,2:2|2:2,0:0:0:0:
220,357,26258,1,2,2:2:0:0:
220,357,26519,1,2,2:2:0:0:
203,206,27041,5,2,2:2:0:0:
203,206,27301,2,0,L|207:247,2,30,2|2|2,2:2|2:2|2:2,0:0:0:0:
119,122,27954,1,2,2:2:0:0:
190,31,28345,1,2,2:2:0:0:
190,31,28606,1,2,2:2:0:0:
345,22,29128,6,0,L|350:84,1,60,2|2,2:2|2:2,0:0:0:0:
409,130,29649,2,0,P|457:117|498:131,2,90,2|2|2,2:2|2:2|2:2,0:0:0:0:
367,198,30693,2,0,P|377:246|364:287,2,90,2|2|2,2:2|2:2|2:2,0:0:0:0:
224,293,31997,6,0,B|205:280|180:280|162:292|162:292|141:304|117:302|99:290,1,132.00000402832,10|2,2:2|2:2,0:0:0:0:
42,226,32780,2,0,L|40:155,1,66.0000020141602,10|10,2:2|2:2,0:0:0:0:
40,116,33171,2,0,P|84:93|132:119,1,99.0000030212403,2|10,2:2|1:1,0:0:0:0:
179,179,33823,6,0,P|228:199|272:177,2,99.0000030212403,14|10|10,2:2|2:2|2:2,0:0:0:0:
126,111,34867,1,2,2:2:0:0:
264,10,35388,5,10,1:1:0:0:
349,19,35649,1,10,2:2:0:0:
433,31,35910,2,0,P|463:70|464:121,2,99.0000030212403,10|10|10,2:2|2:2|2:2,0:0:0:0:
380,99,36954,1,2,2:2:0:0:
271,232,37475,6,0,L|279:304,1,66.0000020141602,10|8,1:1|2:2,0:0:0:0:
355,335,37997,2,0,P|376:348|429:341,1,66.0000020141602,10|2,2:2|2:2,0:0:0:0:
455,328,38388,2,0,L|460:282|464:277|469:231,1,99.0000030212403,10|10,2:2|2:2,0:0:0:0:
446,147,39041,2,0,P|424:133|371:140,1,66.0000020141602,10|2,2:2|2:2,0:0:0:0:
348,154,39432,2,0,L|343:200|339:205|334:251,1,99.0000030212403,10|10,2:2|2:2,0:0:0:0:
270,309,40084,6,0,P|245:288|213:282,1,66.0000020141602,10|8,2:2|2:2,0:0:0:0:
127,274,40606,1,10,1:1:0:0:
91,195,40867,1,10,2:2:0:0:
55,116,41128,5,10,2:2:0:0:
177,154,41519,1,2,2:2:0:0:
127,274,41910,1,2,2:2:0:0:
44,298,42171,6,0,P|45:329|-2:376,2,99.0000030212403,14|10|10,2:2|2:2|2:2,0:0:0:0:
0,223,43214,1,2,2:2:0:0:
107,89,43736,1,10,1:1:0:0:
188,62,43997,1,10,2:2:0:0:
269,35,44258,5,10,2:2:0:0:
206,147,44649,1,10,2:2:0:0:
318,210,45041,1,10,2:2:0:0:
360,136,45301,5,2,2:2:0:0:
472,199,45693,1,2,2:2:0:0:
409,311,46084,1,10,2:2:0:0:
409,311,46345,5,10,2:2:0:0:
321,74,47128,1,10,2:2:0:0:
321,74,47388,2,0,P|292:100|231:95,2,99.0000030212403,10|10|10,2:2|2:2|2:2,0:0:0:0:
393,229,48693,6,0,P|387:181|416:143,2,99.0000030212403,10|10|10,0:0|2:2|2:2,0:0:0:0:
512,384,50258,5,10,2:2:0:0:
512,384,50519,1,14,2:2:0:0:
280,383,51301,5,2,2:2:0:0:
280,383,51562,2,0,P|259:312|280:268,1,120,2|2,2:2|2:2,0:0:0:0:
349,239,52345,1,10,2:2:0:0:
349,239,52606,2,0,P|406:226|432:202,2,90,10|2|2,2:2|2:2|2:2,0:0:0:0:
283,196,53649,1,2,2:2:0:0:
115,32,54432,5,2,2:2:0:0:
115,32,54693,1,10,2:2:0:0:
0,196,55475,5,10,2:2:0:0:
0,196,55736,1,10,2:2:0:0:
115,360,56519,5,2,2:2:0:0:
115,360,56780,1,10,2:2:0:0:
230,196,57562,5,2,2:2:0:0:
230,196,57823,2,0,P|256:217|283:221,2,60,2|8|8,2:2|2:2|1:1,0:0:0:0:
207,126,58606,5,2,2:2:0:0:
207,126,58867,2,0,P|181:105|120:114,2,90,10|2|10,2:2|2:2|2:2,0:0:0:0:
230,196,59910,1,10,2:2:0:0:
283,342,60432,6,0,P|309:363|336:367,1,60,2|2,2:2|2:2,0:0:0:0:
397,320,60954,2,0,L|406:225,2,90,10|2|10,2:2|2:2|2:2,0:0:0:0:
446,380,61997,1,2,2:2:0:0:
417,147,62780,5,2,2:2:0:0:
417,147,63041,1,10,2:2:0:0:
189,117,63823,5,2,2:2:0:0:
189,117,64084,2,0,P|151:150|143:190,2,90,2|2|10,2:2|2:2|2:2,0:0:0:0:
267,117,65128,2,0,L|350:131|358:123|441:137,1,180,10|10,2:2|2:2,0:0:0:0:
497,192,66171,1,2,2:2:0:0:
316,42,66954,5,10,2:2:0:0:
316,42,67214,2,0,L|257:51|252:46|193:56,1,120,14|8,2:2|1:1,0:0:0:0:
126,76,67997,1,2,2:2:0:0:
126,76,68258,2,0,L|105:131|98:133|77:188,1,120,2|10,2:2|1:1,0:0:0:0:
72,265,69041,1,2,2:2:0:0:
72,265,69301,2,0,P|78:292|130:326,2,90,10|2|2,2:2|2:2|2:2,0:0:0:0:
79,183,70345,1,2,2:2:0:0:
254,346,71128,5,2,2:2:0:0:
254,346,71388,2,0,P|309:371|368:346,1,120,10|8,2:2|1:1,0:0:0:0:
404,287,72171,1,2,2:2:0:0:
404,287,72431,2,0,P|459:262|518:287,1,120,2|8,2:2|1:1,0:0:0:0:
465,344,73214,5,2,2:2:0:0:
465,344,73475,2,0,L|451:251,1,90,10|2,2:2|2:2,0:0:0:0:
431,139,74258,1,10,2:2:0:0:
135,38,75301,5,2,2:2:0:0:
135,38,75562,2,0,P|93:24|51:37,2,90,10|2|10,2:2|2:2|2:2,0:0:0:0:
180,101,76606,2,0,L|185:196,1,90,2|2,2:2|2:2,0:0:0:0:
146,303,77388,5,10,2:2:0:0:
146,303,77649,2,0,P|188:317|230:304,2,90,10|2|10,2:2|2:2|2:2,0:0:0:0:
101,240,78693,2,0,L|96:145,2,90,2|2|10,2:2|2:2|2:2,0:0:0:0:
63,308,79736,6,0,P|22:326|-20:317,2,90,10|2|10,2:2|2:2|2:2,0:0:0:0:
101,240,80780,2,0,P|105:195|134:162,2,90,2|2|10,2:2|2:2|2:2,0:0:0:0:
141,307,81823,2,0,B|162:312|177:327|184:346|184:346|191:365|207:379|226:384,1,120,10|8,2:2|1:1,0:0:0:0:
381,364,82867,6,0,L|378:296,1,60,2|8,2:2|2:2,0:0:0:0:
325,246,83388,2,0,L|328:178,1,60,10|8,1:1|2:2,0:0:0:0:
368,118,83910,6,0,P|410:104|457:124,2,90,10|10|10,2:2|2:2|2:2,0:0:0:0:
327,186,84954,1,2,2:2:0:0:
219,73,85475,6,0,P|186:61|156:73,1,60,2|2,2:2|2:2,0:0:0:0:
106,121,85997,2,0,P|64:135|17:115,2,90,10|10|10,2:2|2:2|2:2,0:0:0:0:
163,67,87041,1,2,2:2:0:0:
4,238,87823,5,2,2:2:0:0:
4,238,88084,2,0,L|7:293|11:296|14:299|17:354,1,120,10|10,2:2|1:1,0:0:0:0:
99,352,88867,1,10,2:2:0:0:
99,352,89128,2,0,L|102:297|106:294|109:291|112:236,1,120,10|10,2:2|1:1,0:0:0:0:
99,162,89910,5,2,2:2:0:0:
99,162,90171,2,0,P|60:145|16:161,2,90,10|10|10,2:2|2:2|2:2,0:0:0:0:
155,215,91214,1,2,2:2:0:0:
315,383,91997,5,10,2:2:0:0:
315,383,92258,2,0,P|349:357|357:311,2,90,10|10|10,2:2|2:2|2:2,0:0:0:0:
237,374,93301,1,2,2:2:0:0:
139,251,93823,6,0,L|145:189,1,60,10|2,1:1|2:2,0:0:0:0:
191,128,94345,2,0,P|232:112|272:130,2,90,10|10|10,2:2|2:2|2:2,0:0:0:0:
144,191,95388,1,2,2:2:0:0:
475,281,96432,6,0,P|497:317|485:375,2,99.0000030212403,10|10|10,2:2|2:2|2:2,0:0:0:0:
402,234,97475,2,0,P|424:197|412:139,2,99.0000030212403,2|2|10,2:2|2:2|2:2,0:0:0:0:
320,261,98519,5,10,2:2:0:0:
194,290,98910,1,10,2:2:0:0:
68,319,99301,1,10,2:2:0:0:
68,319,99562,5,10,2:2:0:0:
106,195,99953,1,10,2:2:0:0:
144,73,100344,1,10,2:2:0:0:
0,0,102171,6,0,L|76:3,1,66.0000020141602,2|2,2:2|2:2,0:0:0:0:
134,55,102693,2,0,P|144:87|132:122,1,66.0000020141602,14|2,2:2|2:2,0:0:0:0:
104,147,103084,1,10,2:2:0:0:
0,223,103475,6,0,P|-8:254|1:285,2,66.0000020141602,10|2|10,2:2|2:2|2:2,0:0:0:0:
70,174,104258,1,10,1:1:0:0:
153,193,104519,1,10,2:2:0:0:
236,212,104779,5,10,2:2:0:0:
121,270,105171,1,10,2:2:0:0:
179,384,105562,1,10,2:2:0:0:
179,384,105823,1,2,2:2:0:0:
336,316,106345,6,0,L|333:250,1,66.0000020141602,10|8,1:1|2:2,0:0:0:0:
356,167,106866,2,0,P|386:148|421:149,1,66.0000020141602,10|2,2:2|2:2,0:0:0:0:
457,160,107258,1,10,2:2:0:0:
495,289,107649,1,10,2:2:0:0:
495,289,107910,2,0,P|465:308|430:307,1,66.0000020141602,10|2,2:2|2:2,0:0:0:0:
396,292,108302,1,10,2:2:0:0:
325,184,108693,6,0,L|344:216,2,33.0000010070801,10|2|10,2:2|2:2|2:2,0:0:0:0:
282,109,109214,1,10,2:2:0:0:
199,86,109475,2,0,P|167:95|146:119,1,66.0000020141602,10|10,1:1|2:2,0:0:0:0:
130,206,109997,1,2,2:2:0:0:
198,314,110388,1,2,2:2:0:0:
90,382,110779,1,2,2:2:0:0:
33,317,111040,6,0,P|26:265|58:216,2,99.0000030212403,14|10|10,2:2|2:2|2:2,0:0:0:0:
90,382,112084,1,2,2:2:0:0:
247,313,112606,5,10,1:1:0:0:
323,275,112866,1,10,2:2:0:0:
399,237,113127,2,0,P|406:189|380:143,2,99.0000030212403,10|10|10,2:2|2:2|2:2,0:0:0:0:
401,323,114171,1,2,2:2:0:0:
229,311,114693,6,0,L|235:243,1,66.0000020141602,10|10,1:1|2:2,0:0:0:0:
298,187,115214,2,0,L|357:193|367:202|426:208,1,132.00000402832,10|8,2:2|1:1,0:0:0:0:
503,256,115997,1,10,2:2:0:0:
503,256,116258,2,0,P|515:230|497:157,2,99.0000030212403,2|2|10,2:2|2:2|2:2,0:0:0:0:
358,349,117562,6,0,L|287:339,1,66.0000020141602,10|8,2:2|1:1,0:0:0:0:
250,333,117953,2,0,L|179:323,1,66.0000020141602,10|0,2:2|3:2,0:0:0:0:
142,317,118345,2,0,L|71:307,2,66.0000020141602,10|8|10,2:2|2:2|1:1,0:0:0:0:
154,235,119127,5,2,3:2:0:0:
154,235,119388,2,0,P|208:218|265:243,1,120,14|8,2:2|1:1,0:0:0:0:
315,308,120171,1,2,2:2:0:0:
315,308,120432,2,0,P|368:331|424:314,1,120,2|10,2:2|1:1,0:0:0:0:
471,253,121214,1,10,2:2:0:0:
471,253,121475,2,0,P|479:194|465:162,2,90,10|2|2,2:2|2:2|2:2,0:0:0:0:
425,313,122519,1,2,2:2:0:0:
209,246,123301,5,2,2:2:0:0:
209,246,123562,2,0,L|154:252|146:248|91:254,1,120,10|8,2:2|1:1,0:0:0:0:
101,335,124345,1,2,2:2:0:0:
101,335,124606,2,0,L|156:329|164:333|219:327,1,120,2|8,2:2|1:1,0:0:0:0:
289,288,125388,1,10,2:2:0:0:
289,288,125649,2,0,P|302:241|284:204,1,90,10|8,2:2|2:2,0:0:0:0:
250,187,126171,2,0,L|178:184,1,60,8|2,1:1|2:2,0:0:0:0:
338,360,127475,5,2,2:2:0:0:
338,360,127736,2,0,P|381:379|430:364,2,90,10|2|2,2:2|2:2|2:2,0:0:0:0:
293,295,128779,1,2,2:2:0:0:
398,179,129301,6,0,L|438:182,2,30,10|2|10,1:1|2:2|2:2,0:0:0:0:
342,124,129823,2,0,P|353:74|330:35,2,90,10|10|2,2:2|2:2|2:2,0:0:0:0:
283,175,130866,2,0,L|210:180,1,60,2|10,2:2|2:2,0:0:0:0:
184,184,131258,1,2,2:2:0:0:
75,138,131649,5,2,2:2:0:0:
75,138,131910,2,0,P|64:88|87:49,2,90,10|2|2,2:2|2:2|2:2,0:0:0:0:
139,182,132953,2,0,P|128:232|151:271,2,90,2|2|2,2:2|2:2|2:2,0:0:0:0:
213,156,133997,2,0,L|254:159|259:164|300:167,1,90,10|8,2:2|2:2,0:0:0:0:
339,168,134519,1,8,1:1:0:0:
406,27,135040,6,0,P|400:61|411:91,1,60,2|8,2:2|2:2,0:0:0:0:
456,145,135562,2,0,P|463:173|457:202,1,60,10|8,1:1|2:2,0:0:0:0:
398,254,136084,6,0,P|365:241|310:257,2,90,10|2|10,2:2|0:0|2:2,0:0:0:0:
440,319,137127,1,2,0:0:0:0:
293,371,137649,2,0,L|225:363,1,60,2|10,2:2|2:2,0:0:0:0:
155,358,138171,2,0,P|137:335|133:293,1,60,2|2,2:2|0:0,0:0:0:0:
141,267,138562,1,2,0:0:0:0:
226,187,138953,2,0,L|294:179,1,60,10|2,2:2|0:0,0:0:0:0:
55,133,139997,5,2,2:2:0:0:
55,133,140258,2,0,P|36:172|53:244,1,120,10|10,2:2|1:1,0:0:0:0:
126,282,141040,1,10,2:2:0:0:
126,282,141301,2,0,P|169:278|223:228,1,120,10|10,2:2|1:1,0:0:0:0:
225,153,142084,1,2,2:2:0:0:
225,153,142345,2,0,P|200:117|153:95,2,90,10|2|10,2:2|2:2|2:2,0:0:0:0:
223,228,143388,1,2,2:2:0:0:
39,372,144171,5,10,2:2:0:0:
39,372,144432,2,0,P|14:334|18:292,2,90,10|10|10,2:2|2:2|2:2,0:0:0:0:
116,382,145475,2,0,L|171:376|179:380|234:374,1,120,2|10,2:2|1:1,0:0:0:0:
315,366,146258,1,2,2:2:0:0:
315,366,146519,2,0,P|340:328|336:286,2,90,10|10|10,2:2|2:2|2:2,0:0:0:0:
234,373,147562,2,0,L|179:367|171:371|116:365,1,120,2|0,2:2|0:0,0:0:0:0:
152,212,148606,6,0,P|166:166|147:118,2,90,10|10|10,2:2|2:2|2:2,0:0:0:0:
86,254,149649,2,0,P|39:264|7:305,2,90,2|2|10,2:2|2:2|2:2,0:0:0:0:
155,290,150693,2,0,P|187:325|264:321,1,120,10|10,2:2|2:1,0:0:0:0:
347,199,151736,2,0,P|405:195|448:235,1,120,10|10,2:2|1:1,0:0:0:0:
461,312,152519,2,0,L|458:348,2,30,10|2|14,2:2|2:2|2:2,0:0:0:0:
379,317,153040,5,0,0:0:0:0:
379,317,153301,2,0,L|306:311,1,66.0000020141602,10|10,1:1|2:2,0:0:0:0:
233,345,153823,2,0,L|212:375,2,33.0000010070801,2|2|10,2:2|2:2|2:2,0:0:0:0:
244,258,154345,1,10,1:1:0:0:
171,211,154606,1,10,2:2:0:0:
171,211,154866,6,0,P|165:193|178:147,1,66.0000020141602,10|2,2:2|2:2,0:0:0:0:
245,97,155388,2,0,P|251:79|238:33,1,66.0000020141602,10|2,1:1|2:2,0:0:0:0:
159,2,155910,2,0,L|89:14,1,66.0000020141602,2|10,2:2|2:2,0:0:0:0:
46,85,156432,2,0,L|58:155,1,66.0000020141602,10|10,1:1|2:2,0:0:0:0:
77,233,156953,6,0,B|95:249|120:249|138:234|138:234|155:219|181:220|198:235,1,132.00000402832,10|8,2:2|1:1,0:0:0:0:
247,305,157736,2,0,P|326:322|377:226,1,198.000006042481,10|10,2:2|1:1,0:0:0:0:
508,243,160084,6,0,L|448:235|439:240|379:232,1,132.00000402832,2|2,2:2|2:2,0:0:0:0:
202,214,161127,6,0,P|184:170|198:121,2,99.0000030212403,14|10|2,2:2|2:2|2:2,0:0:0:0:
274,260,162171,2,0,P|292:304|278:353,2,99.0000030212403,2|0|10,2:2|0:0|2:2,0:0:0:0:
202,214,163214,6,0,L|103:222,2,99.0000030212403,10|10|2,2:2|2:2|2:2,0:0:0:0:
265,156,164258,2,0,L|364:164,2,99.0000030212403,2|2|10,2:2|2:2|2:2,0:0:0:0:
207,92,165301,2,0,B|168:118|162:173|193:208|193:208|224:243|217:297|180:324,1,264.00000805664,10|2,2:2|2:2,0:0:0:0:
430,381,167127,6,0,L|465:376,2,33.0000010070801,10|2|2,2:2|2:2|2:2,0:0:0:0:
323,245,167910,1,2,2:2:0:0:
216,109,168432,2,0,P|167:91|120:112,1,99.0000030212403,10|8,2:2|2:2,0:0:0:0:
99,141,168953,2,0,L|103:206,1,66.0000020141602,0|10,0:0|2:2,0:0:0:0:
113,292,169475,5,14,2:2:0:0:
185,338,169736,2,0,L|184:372,2,33.0000010070801,2|10|0,2:2|2:2|0:0,0:0:0:0:
260,296,170258,1,8,2:2:0:0:
260,296,170519,1,2,2:2:0:0:
369,363,170910,2,0,P|403:372|442:355,1,66.0000020141602,2|2,2:2|2:2,0:0:0:0:
467,338,171301,1,10,2:2:0:0:
485,254,171562,6,0,P|488:212|474:179,1,66.0000020141602,10|2,2:2|2:2,0:0:0:0:
421,127,172084,2,0,L|386:124,2,33.0000010070801,10|0|8,1:1|0:0|2:2,0:0:0:0:
484,68,172606,1,2,2:2:0:0:
484,68,172866,1,10,2:2:0:0:
422,8,173127,2,0,L|358:13|357:15|355:16|292:22,1,132.00000402832,10|0,1:1|0:0,0:0:0:0:
214,59,173910,6,0,P|203:90|212:133,1,66.0000020141602,2|10,2:2|1:1,0:0:0:0:
234,155,174301,2,0,L|300:175,1,66.0000020141602,2|2,2:2|2:2,0:0:0:0:
331,200,174693,2,0,P|342:231|333:274,1,66.0000020141602,10|2,2:2|2:2,0:0:0:0:
369,343,175214,2,0,P|347:368|305:381,1,66.0000020141602,10|0,1:1|0:0,0:0:0:0:
232,367,175736,5,10,2:2:0:0:
232,367,175997,1,10,2:2:0:0:
149,343,176258,1,10,1:1:0:0:
149,343,176519,1,10,2:2:0:0:
66,319,176779,2,0,P|47:277|61:224,1,99.0000030212403,2|2,2:2|2:2,0:0:0:0:
86,193,177301,2,0,P|105:151|91:98,1,99.0000030212403,10|10,1:1|1:1,0:0:0:0:
60,73,177823,1,14,2:2:0:0:
308,6,178606,5,10,2:2:0:0:
308,6,178866,1,2,2:2:0:0:
387,37,179127,1,10,2:2:0:0:
466,68,179388,2,0,P|474:107|464:136,1,66.0000020141602,10|10,1:0|0:0,0:0:0:0:
390,165,179910,5,10,2:2:0:0:
390,165,180171,1,2,2:2:0:0:
312,198,180432,2,0,P|305:230|314:262,1,66.0000020141602,10|10,1:1|2:2,0:0:0:0:
314,305,180823,2,0,P|337:327|369:335,1,66.0000020141602,2|2,2:2|2:2,0:0:0:0:
411,330,181214,1,10,2:2:0:0:
491,300,181475,1,10,1:1:0:0:
390,165,181997,6,0,B|358:153|358:153|285:172,1,99.0000030212403,10|8,2:2|2:2,0:0:0:0:
254,182,182519,2,0,P|242:212|254:253,1,66.0000020141602,8|2,1:1|2:2,0:0:0:0:
271,280,182910,2,0,P|277:311|265:342,1,66.0000020141602,2|2,2:2|2:2,0:0:0:0:
233,369,183301,1,10,2:2:0:0:
233,369,183562,1,8,1:1:0:0:
69,317,184084,5,10,2:2:0:0:
102,192,184475,1,10,2:2:0:0:
135,67,184866,1,2,2:2:0:0:
135,67,185127,2,0,P|171:57|201:67,1,66.0000020141602,2|10,2:2|2:2,0:0:0:0:
246,135,185649,2,0,P|282:145|312:135,1,66.0000020141602,10|10,1:1|2:2,0:0:0:0:
372,92,186171,6,0,P|364:66|380:7,2,90,6|2|2,2:2|2:2|2:2,0:0:0:0:
441,134,187214,2,2,B|457:176|457:176|423:372,1,240,2|6,2:2|2:2,2:2:0:0:
256,192,200779,12,0,202866,0:0:0:0:
256,62,203910,6,0,L|253:123|258:129|256:191,1,132.00000402832,2|2,2:2|2:2,0:0:0:0:
251,363,204953,2,0,P|217:368|183:359,1,66.0000020141602,10|2,2:2|2:2,0:0:0:0:
155,330,205344,1,10,2:2:0:0:
94,215,205736,6,0,P|62:222|30:211,2,66.0000020141602,10|2|10,2:2|2:2|2:2,0:0:0:0:
167,170,206518,1,10,1:1:0:0:
160,85,206779,1,10,2:2:0:0:
153,0,207040,5,2,2:2:0:0:
254,78,207431,1,10,2:2:0:0:
167,170,207823,1,10,2:2:0:0:
167,170,208084,1,2,2:2:0:0:
338,178,208605,6,0,L|411:181,1,66.0000020141602,10|8,1:1|2:2,0:0:0:0:
478,224,209127,2,0,P|496:243|504:284,1,66.0000020141602,10|2,2:2|2:2,0:0:0:0:
487,320,209518,1,10,2:2:0:0:
371,373,209910,5,10,2:2:0:0:
371,373,210171,2,0,L|298:370,1,66.0000020141602,10|2,2:2|2:2,0:0:0:0:
261,370,210562,1,10,2:2:0:0:
177,271,210953,6,0,L|180:303,2,33.0000010070801,10|2|10,2:2|2:2|2:2,0:0:0:0:
114,212,211475,1,10,2:2:0:0:
157,137,211736,2,0,P|175:132|219:146,1,66.0000020141602,10|10,1:1|2:2,0:0:0:0:
284,201,212258,5,2,2:2:0:0:
177,271,212649,1,2,2:2:0:0:
70,341,213040,1,2,2:2:0:0:
1,289,213301,6,0,P|-16:246|3:192,2,99.0000030212403,14|10|10,2:2|2:2|2:2,0:0:0:0:
70,341,214344,1,2,2:2:0:0:
241,353,214866,5,10,1:1:0:0:
326,363,215127,2,0,L|363:366,2,33.0000010070801,10|2|10,2:2|2:2|0:0,0:0:0:0:
443,309,215779,2,0,P|454:259|439:211,1,99.0000030212403,10|10,0:0|0:0,0:0:0:0:
378,155,216431,1,2,2:2:0:0:
213,206,216953,5,10,1:1:0:0:
128,193,217214,1,10,2:2:0:0:
69,130,217475,2,0,P|62:79|96:35,2,99.0000030212403,10|10|10,2:2|2:2|2:2,0:0:0:0:
128,193,218518,2,0,P|120:240|130:263,1,66.0000020141602,2|10,2:2|2:2,0:0:0:0:
151,291,218910,2,0,P|158:322|148:354,1,66.0000020141602,2|2,2:2|2:2,0:0:0:0:
118,384,219301,1,10,2:2:0:0:
21,241,219823,5,10,2:2:0:0:
2,157,220084,1,10,1:1:0:0:
84,182,220344,2,0,L|118:192,2,33.0000010070801,2|2|10,3:2|3:2|2:2,0:0:0:0:
65,98,220866,1,8,2:2:0:0:
86,14,221127,2,0,L|158:8,1,66.0000020141602,10|8,1:1|1:1,0:0:0:0:
232,39,221649,6,0,P|246:63|242:131,2,99.0000030212403,14|10|10,2:2|2:2|2:2,0:0:0:0:
151,8,222692,1,2,2:2:0:0:
170,178,223214,1,10,1:1:0:0:
85,191,223475,1,10,2:2:0:0:
8,230,223736,2,0,P|-6:254|-2:322,2,99.0000030212403,10|10|10,2:2|2:2|2:2,0:0:0:0:
85,191,224779,5,2,2:2:0:0:
85,191,225040,1,10,2:2:0:0:
170,202,225301,2,0,L|235:211,1,66.0000020141602,10|10,1:1|2:2,0:0:0:0:
317,239,225823,6,0,P|334:259|338:298,1,66.0000020141602,10|2,2:2|2:2,0:0:0:0:
313,332,226214,2,0,L|268:340|266:343|264:346|219:354,1,99.0000030212404,10|10,2:2|2:2,0:0:0:0:
137,326,226866,2,0,P|120:306|116:267,1,66.0000020141602,10|2,2:2|2:2,0:0:0:0:
141,233,227257,2,0,L|186:225|188:222|190:219|235:211,1,99.0000030212404,10|10,2:2|2:2,0:0:0:0:
320,221,227910,6,0,P|321:194|304:158,1,66.0000020141602,10|0,2:2|0:0,0:0:0:0:
224,126,228431,1,10,1:1:0:0:
144,93,228692,1,10,2:2:0:0:
64,60,228953,5,10,2:2:0:0:
108,180,229344,1,2,2:2:0:0:
224,126,229736,1,2,2:2:0:0:
303,92,229997,6,0,P|350:91|397:123,2,99.0000030212403,14|10|10,2:2|2:2|2:2,0:0:0:0:
224,126,231040,1,2,2:2:0:0:
189,294,231562,5,10,1:1:0:0:
109,262,231823,1,10,2:2:0:0:
28,232,232084,1,10,2:2:0:0:
73,110,232475,1,10,2:2:0:0:
195,155,232866,1,10,2:2:0:0:
275,187,233127,2,0,B|288:225|288:225|269:321,1,132.00000402832,2|10,2:2|1:1,0:0:0:0:
198,361,233910,1,10,2:2:0:0:
198,361,234171,6,0,P|153:373|73:333,1,132.00000402832,10|8,2:2|1:1,0:0:0:0:
62,260,234953,1,10,2:2:0:0:
62,260,235214,2,0,L|84:148,2,99.0000030212403,10|10|10,2:2|2:2|2:2,0:0:0:0:
198,361,236518,6,0,P|235:369|272:352,1,66.0000020141602,10|8,2:2|1:1,0:0:0:0:
294,332,236910,2,0,P|326:323|357:331,1,66.0000020141602,10|0,2:2|3:2,0:0:0:0:
395,352,237301,2,0,P|427:361|487:325,1,99.0000030212403,10|10,2:2|2:2,0:0:0:0:
488,296,237823,6,0,L|481:229,2,60,10|10|2,1:1|2:2|2:2,0:0:0:0:
397,85,239127,1,2,2:2:0:0:
397,85,239388,2,0,P|349:71|309:83,2,90,2|2|2,2:2|2:2|2:2,0:0:0:0:
232,132,240692,6,0,L|227:206,1,66.0000020141602,10|8,2:0|1:1,0:0:0:0:
188,216,241084,2,0,L|193:290,1,66.0000020141602,10|0,2:0|0:0,0:0:0:0:
221,313,241475,2,0,L|216:387,2,66.0000020141602,10|2|2,2:0|2:0|0:0,0:0:0:0:
