osu file format v14

[General]
AudioFilename: audio.mp3
AudioLeadIn: 0
PreviewTime: 102106
Countdown: 0
SampleSet: Soft
StackLeniency: 0.4
Mode: 0
LetterboxInBreaks: 0
WidescreenStoryboard: 0

[Editor]
Bookmarks: 241997,246693
DistanceSpacing: 1.2
BeatDivisor: 8
GridSize: 8
TimelineZoom: 1.7

[Metadata]
Title:Kanashikute lulululu -Hasaka ver.-
TitleUnicode:悲しくて lulululu -ハーサカver.-
Artist:Hayasaka Ai (CV: Hanamori Yumiri)
ArtistUnicode:早坂愛 (CV: 花守ゆみり)
Creator:Heratikus
Version:My Feelings
Source:かぐや様は告らせたい-ウルトラロマンティック-
Tags:japanese pop jpop j-pop female vocal vocals vocalist anime kaguya-sama wa kokurasetai tensai-tachi no renai zunousen kaguya sama love is war ultra romantic season 3 aitakute 会いたくて kana nishino 西野カナ
BeatmapID:3696043
BeatmapSetID:1802471

[Difficulty]
HPDrainRate:6
CircleSize:4.5
OverallDifficulty:8.5
ApproachRate:9.2
SliderMultiplier:2
SliderTickRate:1

[Events]
//Background and Video events
0,0,"hayasakaresize.jpg",0,0
//Break Periods
//Storyboard Layer 0 (Background)
//Storyboard Layer 1 (Fail)
//Storyboard Layer 2 (Pass)
//Storyboard Layer 3 (Foreground)
//Storyboard Layer 4 (Overlay)
//Storyboard Sound Samples

[TimingPoints]
4041,535.714285714286,4,2,1,40,1,0
4041,-133.333333333333,4,2,1,40,0,0
8327,545.454545454546,4,2,1,40,1,0
8327,-133.333333333333,4,2,1,40,0,0
10508,571.428571428571,4,2,1,50,1,0
11079,600,4,2,1,45,1,0
11679,800,4,2,1,40,1,0
12479,1090.90909090909,4,2,1,40,1,0
13569,705.882352941176,4,2,1,40,1,0
13923,882.352941176471,4,2,1,40,1,0
14364,666.666666666667,4,2,1,40,1,0
16607,521.739130434783,4,2,1,45,1,0
17128,521.739130434783,4,2,2,50,1,0
25475,-80,4,2,2,55,0,0
31997,-57.1428571428571,4,2,1,70,0,1
33562,-57.1428571428571,4,2,1,70,0,0
33823,-62.5,4,2,1,70,0,1
48171,-62.5,4,2,1,70,0,0
48693,-57.1428571428571,4,2,1,70,0,1
49997,-66.6666666666667,4,2,1,60,0,0
50519,-100,4,2,1,50,0,0
58867,-66.6666666666667,4,2,1,50,0,0
59910,-100,4,2,1,50,0,0
60954,-66.6666666666667,4,2,1,50,0,0
61997,-100,4,2,1,50,0,0
67214,-90.9090909090909,4,2,1,55,0,0
96432,-80,4,2,1,60,0,0
98519,-90.9090909090909,4,2,1,65,0,0
102693,521.739130434783,4,2,1,70,1,1
102693,-62.5,4,2,1,70,0,1
117040,-62.5,4,2,1,70,0,0
117562,-57.1428571428571,4,2,1,70,0,1
118866,-66.6666666666667,4,2,1,60,0,0
119388,-90.9090909090909,4,2,1,50,0,0
148606,-80,4,2,1,60,0,0
152779,-66.6666666666667,4,2,1,65,0,0
169475,-62.5,4,2,1,70,0,1
186171,-80,4,2,1,60,0,0
188258,521.739130434783,4,2,2,50,1,0
188258,-200,4,2,2,50,0,0
196605,-133.333333333333,4,2,1,55,0,0
201823,-114.285714285714,4,2,1,60,0,0
202344,-100,4,2,1,65,0,0
203127,-90.9090909090909,4,2,1,70,0,0
204953,-62.5,4,2,1,75,0,1
219301,-62.5,4,2,1,75,0,0
219562,-62.5,4,2,1,40,0,0
219823,-57.1428571428571,4,2,1,75,0,1
221518,-57.1428571428571,4,2,1,75,0,0
221649,-62.5,4,2,1,75,0,1
235997,-62.5,4,2,1,75,0,0
236518,-57.1428571428571,4,2,1,75,0,1
237823,-80,4,2,1,50,0,1
238344,-133.333333333333,4,2,1,40,0,0
239127,-100,4,2,1,50,0,0
240692,-66.6666666666667,4,2,1,65,0,1
241997,-100,4,2,1,50,0,0

[Colours]
Combo1 : 115,88,165
Combo2 : 244,222,94
Combo3 : 64,169,225
Combo4 : 211,148,84

[HitObjects]
512,0,4041,5,2,2:2:0:0:
373,73,4308,2,0,P|361:113|381:162,1,75.0000028610231,0|0,2:2|2:2,0:0:0:0:
512,323,4844,2,0,P|511:251|451:212,2,150.000005722046,2|2|2,2:2|2:2|2:2,0:0:0:0:
367,372,6183,2,0,L|442:384,2,75.0000028610231,2|0|0,2:2|2:2|2:2,0:0:0:0:
350,227,6987,1,2,2:2:0:0:
301,306,7121,2,0,L|226:317,1,75.0000028610231,2|0,2:2|0:0,0:0:0:0:
197,322,7523,1,2,2:2:0:0:
128,199,7791,1,2,2:2:0:0:
48,346,8058,1,2,2:2:0:0:
0,183,8327,6,0,L|8:102,2,75.0000028610231,2|0|0,2:2|2:2|2:2,0:0:0:0:
48,346,9145,2,0,P|84:367|126:357,1,75.0000028610231,2|0,2:2|0:0,0:0:0:0:
241,211,9690,1,2,2:2:0:0:
128,199,9963,1,2,2:2:0:0:
350,227,10236,1,2,2:2:0:0:
196,108,10508,5,2,2:2:0:0:
307,122,11079,1,2,2:2:0:0:
264,21,11679,5,2,2:2:0:0:
241,211,12479,1,2,2:2:0:0:
395,326,13569,5,2,2:2:0:0:
339,356,13921,5,2,2:2:0:0:
279,347,14070,1,2,2:2:0:0:
243,317,14217,1,2,2:2:0:0:
231,292,14364,5,2,2:2:0:0:
226,265,14475,1,2,2:2:0:0:
229,237,14586,1,2,2:2:0:0:
241,211,14697,1,2,2:2:0:0:
259,189,14808,1,2,2:2:0:0:
283,173,14920,1,2,2:2:0:0:
312,165,15031,2,0,P|331:165|361:174,2,33.3333333333333,4|2|2,2:3|2:2|2:2,0:0:0:0:
0,0,16607,5,2,2:2:0:0:
18,183,16867,1,2,2:2:0:0:
156,91,17128,2,0,P|109:75|61:85,1,100,6|0,2:2|2:2,0:0:0:0:
189,192,17519,2,0,P|237:202|284:186,1,100,2|0,2:2|0:0,0:0:0:0:
308,168,17910,5,2,2:2:0:0:
410,9,18171,1,2,2:2:0:0:
221,0,18432,1,2,2:2:0:0:
312,58,18693,1,2,2:2:0:0:
405,118,18954,1,2,2:2:0:0:
497,177,19214,6,0,P|509:226|496:274,1,100,2|0,2:2|0:0,0:0:0:0:
322,270,19606,2,0,P|358:236|406:223,1,100,2|0,2:2|0:0,0:0:0:0:
441,360,19997,2,0,P|422:344|407:325,1,50,2|0,2:2|0:0,0:0:0:0:
323,174,20258,2,0,P|335:222|322:269,1,100,2|0,2:2|0:0,0:0:0:0:
159,383,20780,6,0,L|258:373,1,100,2|0,2:2|0:0,0:0:0:0:
321,269,21171,1,0,0:0:0:0:
321,269,21301,2,0,P|272:246|222:252,1,100,2|2,2:2|2:2,0:0:0:0:
89,161,21693,2,0,P|138:164|182:141,1,100,2|0,2:2|0:0,0:0:0:0:
226,0,22084,2,0,L|237:57,1,50,2|0,2:2|0:0,0:0:0:0:
182,141,22345,6,0,P|133:138|89:161,1,100,2|2,2:2|2:2,0:0:0:0:
227,250,22736,2,0,P|271:272|320:269,1,100,2|0,2:2|0:0,0:0:0:0:
415,209,23128,1,2,2:2:0:0:
330,266,23258,1,2,2:2:0:0:
424,202,23388,5,2,2:2:0:0:
217,242,23649,1,2,2:2:0:0:
434,195,23910,1,2,2:2:0:0:
234,126,24171,1,2,2:2:0:0:
444,188,24432,6,0,B|469:157|471:123|460:100|460:100|452:111,1,100,2|0,2:2|0:0,0:0:0:0:
296,66,24823,2,0,B|310:103|338:122|363:124|363:124|358:112,1,100,2|0,2:2|0:0,0:0:0:0:
424,2,25214,2,0,P|402:14|385:32,1,50,2|0,2:2|0:0,0:0:0:0:
444,188,25475,6,0,P|404:218|328:214,1,125,2|0,2:2|0:0,0:0:0:0:
158,143,25867,2,0,P|203:161|238:230,1,125,2|0,2:2|0:0,0:0:0:0:
191,367,26258,2,0,L|180:299,1,62.5,2|0,2:2|0:0,0:0:0:0:
60,199,26519,2,0,L|51:255|41:262|32:318,1,125,2|0,2:2|0:0,0:0:0:0:
32,317,26910,1,0,0:0:0:0:
131,366,27041,6,0,P|167:374|197:362,1,62.5,2|0,2:2|0:0,0:0:0:0:
254,309,27301,1,2,2:2:0:0:
237,225,27432,1,2,2:2:0:0:
334,335,27562,2,0,B|352:345|375:346|394:336|394:336|412:326|435:325|454:336,1,125,2|0,2:2|0:0,0:0:0:0:
298,223,27954,2,0,B|280:233|257:234|238:224|238:224|220:214|197:213|178:224,1,125,2|0,2:2|0:0,0:0:0:0:
328,92,28345,2,0,P|351:113|358:144,1,62.5,2|0,2:2|0:0,0:0:0:0:
178,224,28606,2,0,P|192:162|161:98,1,125,2|0,2:2|2:2,0:0:0:0:
169,107,28997,1,0,0:0:0:0:
7,47,29128,6,0,L|79:52,1,62.5,2|0,2:2|0:0,0:0:0:0:
231,102,29388,2,0,L|169:107,1,62.5,2|0,2:2|0:0,0:0:0:0:
336,66,29649,6,0,P|345:95|339:126,2,62.5,2|0|0,2:2|2:2|2:2,0:0:0:0:
211,202,30041,2,0,L|215:261|221:265|225:324,1,125,2|0,2:2|0:0,0:0:0:0:
399,384,30432,2,0,L|404:312,1,62.5,2|0,2:2|0:0,0:0:0:0:
473,166,30693,6,0,P|407:179|346:147,1,125,2|0,2:2|2:2,0:0:0:0:
255,30,31084,2,0,P|189:17|128:49,1,125,2|0,2:2|2:2,0:0:0:0:
73,114,31475,1,2,2:2:0:0:
258,282,31997,6,0,P|172:279|112:218,1,175.00000166893,10|8,2:2|1:1,0:0:0:0:
320,135,32388,1,8,2:2:0:0:
317,221,32519,2,0,P|292:257|256:281,1,87.500000834465,2|0,2:2|0:0,0:0:0:0:
178,98,32780,5,10,2:2:0:0:
259,75,32910,1,8,1:1:0:0:
320,135,33041,1,10,2:2:0:0:
470,84,33171,2,0,P|427:73|384:81,1,87.500000834465,2|8,2:2|1:1,0:0:0:0:
317,221,33432,5,8,2:2:0:0:
373,366,33562,1,10,1:1:0:0:
316,242,33693,1,8,1:1:0:0:
200,353,33823,6,0,P|166:381|51:351,1,160,14|0,2:2|0:0,0:0:0:0:
0,176,34214,1,10,2:2:0:0:
103,223,34345,2,0,P|120:257|123:296,1,80,8|0,1:1|0:0,0:0:0:0:
332,253,34606,2,0,P|313:213|317:162,1,80,10|0,2:2|0:0,0:0:0:0:
499,114,34867,2,0,B|477:96|450:90|425:94|425:94|424:94|424:94|451:84|470:63|479:39,1,160,2|8,2:2|2:2,0:0:0:0:
385,0,35258,1,0,0:0:0:0:
435,193,35388,6,0,P|470:212|509:215,1,80,10|0,1:1|0:0,0:0:0:0:
379,349,35649,2,0,P|378:309|360:273,1,80,10|0,2:2|0:0,0:0:0:0:
288,110,35910,2,0,P|287:149|173:215,1,160,10|0,2:2|0:0,0:0:0:0:
47,212,36301,1,10,2:2:0:0:
119,347,36432,2,0,L|204:332,1,80,8|0,1:1|0:0,0:0:0:0:
347,198,36693,2,0,L|262:183,1,80,10|0,2:2|0:0,0:0:0:0:
87,89,36954,2,0,L|159:76|171:82|243:69,1,160,2|8,2:2|2:2,0:0:0:0:
362,47,37345,1,0,0:0:0:0:
481,258,37475,6,0,B|465:237|463:207|479:183|479:183|493:161|493:131|476:108,1,160,10|8,1:1|2:2,0:0:0:0:
475,107,37867,1,0,0:0:0:0:
344,312,37997,2,0,P|305:305|272:283,1,80,10|0,2:2|0:0,0:0:0:0:
207,150,38258,1,2,2:2:0:0:
137,348,38388,2,0,B|122:324|119:296|126:271|126:271|106:250|79:241|53:241,1,160,10|0,2:2|0:0,0:0:0:0:
0,119,38780,2,0,P|33:96|72:89,1,80,10|0,2:2|0:0,0:0:0:0:
280,180,39041,6,0,P|241:173|208:151,1,80,10|0,2:2|0:0,0:0:0:0:
193,1,39301,1,2,2:2:0:0:
71,89,39432,2,0,L|52:161|57:170|39:242,1,160,10|0,2:2|0:0,0:0:0:0:
5,384,39823,2,0,P|31:352|90:343,1,80,10|0,2:2|0:0,0:0:0:0:
253,384,40084,6,0,P|212:377|197:258,1,160,10|8,2:2|2:2,0:0:0:0:
284,377,40475,1,0,0:0:0:0:
180,185,40606,2,0,P|140:191|102:238,1,80,10|0,1:1|0:0,0:0:0:0:
181,93,40867,2,0,P|221:99|259:146,1,80,10|0,2:2|0:0,0:0:0:0:
390,262,41128,6,0,L|405:175,1,80,10|0,2:2|0:0,0:0:0:0:
422,71,41388,1,8,2:2:0:0:
236,45,41519,2,0,L|251:131,1,80,2|8,2:2|1:1,0:0:0:0:
270,237,41780,1,8,2:2:0:0:
415,110,41910,2,0,L|430:23,1,80,2|0,2:2|0:0,0:0:0:0:
298,198,42171,6,0,B|270:206|242:195|228:173|228:173|212:149|182:140|157:148,1,160,14|0,2:2|0:0,0:0:0:0:
0,269,42562,1,10,2:2:0:0:
43,163,42693,2,0,P|36:121|9:93,1,80,8|0,1:1|0:0,0:0:0:0:
70,359,42954,2,0,P|109:374|146:364,1,80,10|0,2:2|0:0,0:0:0:0:
299,218,43214,2,0,L|291:291|298:300|291:373,1,160,2|8,2:2|2:2,0:0:0:0:
291,374,43606,1,0,0:0:0:0:
194,198,43736,6,0,P|208:153|238:127,1,80,10|0,1:1|0:0,0:0:0:0:
333,313,43997,2,0,P|286:322|249:309,1,80,10|0,2:2|0:0,0:0:0:0:
364,136,44258,2,0,P|391:164|403:202,1,80,10|0,2:2|0:0,0:0:0:0:
333,313,44519,1,0,0:0:0:0:
231,130,44649,2,0,B|228:102|238:75|256:57|256:57|256:57|256:57|233:73|205:77|180:71,1,160,10|0,2:2|0:0,0:0:0:0:
61,174,45041,6,0,P|100:175|137:159,1,80,10|0,2:2|0:0,0:0:0:0:
107,4,45301,2,0,P|86:37|82:77,1,80,2|0,2:2|0:0,0:0:0:0:
209,227,45562,1,8,2:2:0:0:
358,100,45693,2,0,B|386:97|413:106|431:124|431:124|452:144|479:152|504:148,1,160,2|0,2:2|0:0,0:0:0:0:
369,283,46084,2,0,P|357:246|364:207,1,80,10|0,2:2|0:0,0:0:0:0:
424,59,46345,6,0,P|397:87|287:70,1,160,10|0,2:2|0:0,0:0:0:0:
432,28,46736,1,8,2:2:0:0:
287,70,46867,2,0,P|275:30|287:-13,1,80,8|0,1:1|0:0,0:0:0:0:
438,62,47128,6,0,L|421:151,1,80,10|0,2:2|0:0,0:0:0:0:
346,312,47388,2,0,L|331:241|318:231|304:160,1,160,10|0,2:2|0:0,0:0:0:0:
199,39,47780,1,10,2:2:0:0:
182,126,47910,2,0,L|163:221,1,80,8|0,1:1|0:0,0:0:0:0:
147,296,48171,1,10,0:0:0:0:
147,296,48432,1,2,3:2:0:0:
166,204,48693,6,0,P|121:202|78:228,1,87.500000834465,10|0,0:0|0:0,0:0:0:0:
60,310,48954,1,8,1:1:0:0:
206,368,49084,5,10,2:2:0:0:
184,212,49214,1,0,3:2:0:0:
184,212,49345,1,0,3:2:0:0:
333,270,49475,5,10,2:2:0:0:
206,368,49606,1,0,3:2:0:0:
206,368,49736,1,0,3:2:0:0:
184,212,49867,1,8,2:2:0:0:
333,270,49997,6,2,L|369:280|407:258,1,75.000002861023,2|0,1:2|2:2,2:2:0:0:
443,109,50258,1,10,2:2:0:0:
422,185,50388,1,0,0:0:0:0:
401,261,50519,6,0,P|402:308|444:358,2,100,14|0|0,2:2|0:0|0:0,0:0:0:0:
492,105,51301,2,0,L|429:109,1,50,2|2,2:2|2:2,0:0:0:0:
364,163,51562,2,0,L|320:161|310:168|266:166,1,100,2|0,2:2|0:0,0:0:0:0:
116,159,52084,1,2,2:2:0:0:
266,166,52345,1,10,2:2:0:0:
96,157,52606,6,0,P|74:201|86:254,1,100,10|0,2:2|0:0,0:0:0:0:
180,292,52997,2,0,P|202:336|190:389,1,100,2|0,2:2|0:0,0:0:0:0:
192,384,53388,1,2,2:2:0:0:
0,384,53649,5,2,2:2:0:0:
12,292,53910,1,10,2:2:0:0:
168,200,54171,5,10,1:1:0:0:
180,292,54432,1,2,2:2:0:0:
24,200,54693,6,0,P|43:151|83:117,2,100,10|0|0,2:2|0:0|0:0,0:0:0:0:
0,384,55475,1,10,2:2:0:0:
112,236,55736,2,0,P|153:206|206:210,2,100,10|0|0,2:2|0:0|0:0,0:0:0:0:
13,368,56519,1,2,2:2:0:0:
171,312,56780,2,0,P|223:322|242:368,2,100,10|0|0,2:2|0:0|0:0,0:0:0:0:
26,352,57562,5,2,2:2:0:0:
171,312,57823,1,2,2:2:0:0:
39,336,58084,5,8,2:2:0:0:
303,336,58345,1,8,1:1:0:0:
171,312,58606,5,2,2:2:0:0:
286,118,58867,2,0,B|267:165|267:165|303:339,1,225.000008583069,10|2,0:0|0:0,0:0:0:0:
477,326,59649,1,10,2:2:0:0:
328,247,59910,2,0,P|287:249|314:275,1,100,10|0,2:2|0:0,0:0:0:0:
461,318,60432,5,2,2:2:0:0:
438,119,60693,1,2,2:2:0:0:
219,53,60954,2,0,B|213:38|218:13|257:-7|308:8|309:61|302:101|273:136|230:154,1,225.000008583069,10|2,0:0|0:0,0:0:0:0:
22,122,61736,1,10,2:2:0:0:
26,297,61997,2,0,B|14:303|14:303|20:217,1,100,2|8,2:2|2:2,0:0:0:0:
10,384,62519,1,8,1:1:0:0:
144,261,62780,5,2,2:2:0:0:
144,261,62910,1,2,2:2:0:0:
252,325,63041,2,0,P|278:330|338:285,2,100,10|0|0,2:2|0:0|0:0,0:0:0:0:
148,384,63823,5,2,2:2:0:0:
148,384,63954,1,2,2:2:0:0:
45,368,64084,2,0,P|33:321|59:280,1,100,2|0,2:2|0:0,0:0:0:0:
168,219,64475,2,0,P|179:171|154:130,1,100,2|0,2:2|0:0,0:0:0:0:
52,123,64867,2,0,L|0:120,1,50,10|0,2:2|0:0,0:0:0:0:
267,132,65128,6,0,L|353:135|369:155|457:159,1,200,10|0,2:2|0:0,0:0:0:0:
299,281,65910,2,0,P|298:245|306:224,1,50,10|0,2:2|0:0,0:0:0:0:
472,302,66171,2,0,P|452:332|390:351,1,100,2|8,2:2|2:2,0:0:0:0:
458,159,66693,1,8,1:1:0:0:
300,60,66954,2,0,L|350:55,1,50,10|0,2:2|0:0,0:0:0:0:
138,80,67214,6,0,B|157:103|157:134|142:157|142:157|125:181|128:212|146:233,1,165.000005035401,14|0,2:2|0:0,0:0:0:0:
112,62,67736,1,8,1:1:0:0:
146,233,67997,2,0,P|171:251|195:254,1,55.0000016784668,2|0,2:2|0:0,0:0:0:0:
335,209,68258,2,0,P|300:228|290:304,1,110.000003356934,2|8,2:2|2:2,0:0:0:0:
100,384,68780,6,0,P|103:356|93:331,1,55.0000016784668,10|0,1:1|0:0,0:0:0:0:
20,246,69041,2,0,P|16:218|26:193,1,55.0000016784668,2|0,2:2|0:0,0:0:0:0:
0,77,69301,2,0,P|55:91|106:76,1,110.000003356934,10|0,2:2|0:0,0:0:0:0:
289,18,69693,2,0,P|236:3|184:17,1,110.000003356934,2|0,2:2|0:0,0:0:0:0:
115,175,70084,5,2,2:2:0:0:
195,115,70214,1,2,2:2:0:0:
266,168,70345,2,0,P|297:174|329:167,1,55.0000016784668,2|2,2:2|2:2,0:0:0:0:
436,68,70606,2,0,P|415:91|418:173,1,110.000003356934,10|8,2:2|1:1,0:0:0:0:
512,252,71128,6,0,L|457:256,1,55.0000016784668,2|0,2:2|0:0,0:0:0:0:
396,341,71388,2,0,L|286:333,1,110.000003356934,10|0,2:2|0:0,0:0:0:0:
286,333,71780,1,0,0:0:0:0:
425,343,71910,1,8,1:1:0:0:
204,298,72171,6,0,L|200:242,1,55.0000016784668,2|0,2:2|0:0,0:0:0:0:
140,117,72432,2,0,L|190:93|241:111,1,110.000003356934,2|8,2:2|2:2,0:0:0:0:
241,111,72823,1,0,0:0:0:0:
200,243,72954,1,8,1:1:0:0:
21,375,73214,6,0,P|49:382|75:377,1,55.0000016784668,2|0,2:2|0:0,0:0:0:0:
171,341,73475,2,0,P|169:285|209:237,1,110.000003356934,10|0,2:2|0:0,0:0:0:0:
305,227,73867,2,0,P|331:233|359:232,2,55.0000016784668,2|8|0,2:2|1:1|0:0,0:0:0:0:
116,82,74258,2,0,B|143:94|172:91|194:76|194:76|195:76|195:76|221:88|237:114|239:141,1,165.000005035401,10|0,2:2|0:0,0:0:0:0:
94,60,74780,1,8,2:2:0:0:
294,70,75041,1,8,1:1:0:0:
494,81,75301,2,0,P|470:107|463:132,1,55.0000016784668,2|0,2:2|0:0,0:0:0:0:
512,310,75562,6,0,P|501:276|427:239,1,110.000003356934,10|0,2:2|0:0,0:0:0:0:
286,313,75954,2,0,P|311:301|330:282,2,55.0000016784668,2|8|0,2:2|1:1|0:0,0:0:0:0:
169,272,76345,2,0,P|160:245|163:218,1,55.0000016784668,10|0,2:2|0:0,0:0:0:0:
118,93,76606,6,0,L|167:99|176:93|225:99,1,110.000003356934,2|8,2:2|2:2,0:0:0:0:
344,15,76997,2,0,L|289:21,2,55.0000016784668,2|8|0,2:2|1:1|0:0,0:0:0:0:
398,120,77388,2,0,L|452:126,1,55.0000016784668,10|0,2:2|0:0,0:0:0:0:
428,312,77649,6,0,P|443:262|429:206,1,110.000003356934,10|0,2:2|0:0,0:0:0:0:
314,79,78041,2,0,P|301:115|309:147,1,55.0000016784668,2|8,2:2|1:1,0:0:0:0:
302,130,78301,1,0,0:0:0:0:
237,269,78432,2,0,P|237:241|225:217,1,55.0000016784668,10|0,2:2|0:0,0:0:0:0:
0,187,78693,6,0,L|51:179|56:182|107:174,1,110.000003356934,2|8,2:2|2:2,0:0:0:0:
223,41,79084,2,0,L|203:92,1,55.0000016784668,2|8,2:2|1:1,0:0:0:0:
202,92,79345,1,0,0:0:0:0:
225,217,79475,2,0,L|259:259,1,55.0000016784668,10|0,2:2|0:0,0:0:0:0:
447,281,79736,6,0,P|407:316|354:309,1,110.000003356934,10|0,0:0|0:0,0:0:0:0:
205,257,80128,2,0,P|232:252|259:259,1,55.0000016784668,2|8,2:2|1:1,0:0:0:0:
258,258,80388,1,0,0:0:0:0:
129,332,80519,2,0,P|87:337|66:329,1,55.0000016784668,10|0,2:2|0:0,0:0:0:0:
1,171,80780,6,0,B|28:183|28:183|107:173,1,110.000003356934,2|8,0:0|0:0,0:0:0:0:
235,92,81171,2,0,L|181:85,1,55.0000016784668,2|8,2:2|1:1,0:0:0:0:
180,84,81432,1,0,0:0:0:0:
325,142,81562,2,0,L|387:134,1,55.0000016784668,10|0,2:2|0:0,0:0:0:0:
505,15,81823,6,0,L|499:62|505:75|499:122,2,110.000003356934,10|0|8,2:2|0:0|1:1,0:0:0:0:
483,231,82606,1,8,2:2:0:0:
469,384,82867,6,0,P|413:349|364:352,1,110.000003356934,2|8,2:2|2:2,0:0:0:0:
370,350,83258,1,0,0:0:0:0:
199,290,83388,2,0,P|253:287|297:255,1,110.000003356934,10|8,1:1|2:2,0:0:0:0:
297,254,83780,1,0,0:0:0:0:
370,159,83910,5,10,2:2:0:0:
171,76,84301,1,10,2:2:0:0:
312,18,84693,5,10,2:2:0:0:
171,76,84954,1,2,2:2:0:0:
30,134,85214,5,2,2:2:0:0:
25,172,85345,1,2,2:2:0:0:
20,210,85475,2,0,P|22:238|36:264,1,55.0000016784668,2|2,2:2|2:2,0:0:0:0:
157,272,85736,2,0,P|154:300|140:326,1,55.0000016784668,2|2,2:2|2:2,0:0:0:0:
34,384,85997,5,10,2:2:0:0:
270,322,86388,1,10,2:2:0:0:
334,86,86780,5,10,2:2:0:0:
233,185,87041,1,2,2:2:0:0:
370,222,87301,1,2,2:2:0:0:
404,231,87432,1,2,2:2:0:0:
438,240,87562,2,0,L|497:256,1,55.0000016784668,10|0,1:1|0:0,0:0:0:0:
398,330,87823,6,0,P|366:322|335:331,1,55.0000016784668,2|0,2:2|0:0,0:0:0:0:
259,381,88084,2,0,P|227:389|178:365,1,82.5000025177003,10|2,2:2|2:2,0:0:0:0:
176,363,88345,2,0,L|172:305,1,55.0000016784668,2|0,2:2|0:0,0:0:0:0:
271,209,88606,2,0,L|275:151,1,55.0000016784668,10|0,1:1|0:0,0:0:0:0:
284,33,88867,6,0,P|255:44|221:40,1,55.0000016784668,10|0,2:2|0:0,0:0:0:0:
97,103,89128,1,10,2:2:0:0:
122,114,89258,1,2,2:2:0:0:
152,100,89388,1,2,2:2:0:0:
187,115,89519,1,2,2:2:0:0:
227,97,89649,2,0,L|231:32,1,55.0000016784668,10|0,1:1|0:0,0:0:0:0:
167,212,89910,6,0,P|160:240|165:269,1,55.0000016784668,2|0,2:2|0:0,0:0:0:0:
330,326,90171,2,0,P|279:305|220:322,1,110.000003356934,10|0,2:2|0:0,0:0:0:0:
174,384,90562,1,10,2:2:0:0:
32,299,90693,2,0,P|60:301|86:295,1,55.0000016784668,8|0,1:1|0:0,0:0:0:0:
167,211,90954,2,0,P|194:209|220:215,1,55.0000016784668,10|0,2:2|0:0,0:0:0:0:
330,326,91214,6,0,P|345:274|388:240,1,110.000003356934,2|10,2:2|2:2,0:0:0:0:
387,240,91606,1,0,0:0:0:0:
512,358,91736,2,0,L|458:349,1,55.0000016784668,10|0,1:1|0:0,0:0:0:0:
387,240,91997,2,0,P|417:240|441:230,1,55.0000016784668,10|0,2:2|0:0,0:0:0:0:
505,44,92258,6,0,P|490:69|518:145,1,110.000003356934,10|0,2:2|0:0,0:0:0:0:
384,90,92649,2,0,P|354:90|330:100,1,55.0000016784668,10|8,2:2|1:1,0:0:0:0:
331,99,92910,1,0,0:0:0:0:
227,189,93041,2,0,P|236:160|235:134,1,55.0000016784668,10|0,2:2|0:0,0:0:0:0:
285,0,93301,6,0,P|247:37|193:34,1,110.000003356934,2|8,2:2|2:2,0:0:0:0:
193,34,93693,1,0,0:0:0:0:
26,0,93823,2,0,P|35:28|34:54,1,55.0000016784668,10|0,1:1|0:0,0:0:0:0:
119,111,94084,2,0,P|109:139|110:165,1,55.0000016784668,2|0,2:2|0:0,0:0:0:0:
0,270,94345,6,0,P|50:253|97:279,1,110.000003356934,10|0,2:2|0:0,0:0:0:0:
148,384,94736,1,10,2:2:0:0:
244,252,94867,2,0,P|218:260|198:279,1,55.0000016784668,8|0,1:1|0:0,0:0:0:0:
347,372,95128,2,0,P|353:345|347:318,1,55.0000016784668,10|0,2:2|0:0,0:0:0:0:
235,155,95388,6,0,P|218:205|244:252,1,110.000003356934,2|10,2:2|2:2,0:0:0:0:
244,252,95780,1,0,0:0:0:0:
429,229,95910,2,0,L|436:164,1,55.0000016784668,8|0,1:1|0:0,0:0:0:0:
331,45,96171,2,0,L|338:110,1,55.0000016784668,8|0,2:2|0:0,0:0:0:0:
244,252,96432,6,0,P|260:201|220:144,1,125,10|0,2:2|0:0,0:0:0:0:
65,115,96823,1,10,2:2:0:0:
171,27,96954,2,0,P|168:57|150:83,1,62.5,8|0,1:1|0:0,0:0:0:0:
21,34,97214,2,0,P|49:21|80:23,1,62.5,10|0,2:2|0:0,0:0:0:0:
91,223,97475,6,0,P|54:174|65:114,1,125,2|8,2:2|2:2,0:0:0:0:
187,227,97867,2,0,P|182:256|161:284,1,62.5,2|8,2:2|1:1,0:0:0:0:
162,282,98128,1,0,0:0:0:0:
45,366,98258,2,0,P|72:355|107:359,1,62.5,10|0,2:2|0:0,0:0:0:0:
289,384,98519,6,0,L|284:334|277:328|272:278,1,110.000003356934,10|0,2:2|0:0,0:0:0:0:
410,74,98910,2,0,L|369:103|367:112|326:141,1,110.000003356934,10|0,2:2|0:0,0:0:0:0:
132,140,99301,2,0,L|182:163,1,55.0000016784668,10|0,2:2|0:0,0:0:0:0:
433,273,99562,6,0,L|386:252|383:244|337:224,1,110.000003356934,10|0,2:2|0:0,0:0:0:0:
102,303,99954,2,0,L|142:273|151:274|192:244,1,110.000003356934,10|0,2:2|0:0,0:0:0:0:
241,3,100345,2,0,L|246:52|240:60|246:110,1,110.000003356934,10|0,2:2|0:0,0:0:0:0:
271,277,100867,5,2,2:2:0:0:
272,287,100932,1,2,2:2:0:0:
273,297,100997,1,2,2:2:0:0:
337,244,101128,1,2,2:2:0:0:
327,163,101258,1,2,2:2:0:0:
248,130,101388,1,2,2:2:0:0:
182,184,101519,1,2,2:2:0:0:
194,266,101649,5,2,2:2:0:0:
172,179,101780,1,2,2:2:0:0:
237,121,101910,1,2,2:2:0:0:
247,120,101975,1,2,2:2:0:0:
257,119,102041,1,2,2:2:0:0:
337,159,102171,6,0,P|346:185|344:212,1,55.0000016784668,2|0,2:2|0:0,0:0:0:0:
193,324,102432,2,0,P|184:298|185:270,1,55.0000016784668,2|0,2:2|0:0,0:0:0:0:
0,103,102693,6,0,P|35:118|90:105,1,80,14|0,2:2|0:0,0:0:0:0:
150,0,102953,1,2,2:2:0:0:
174,193,103084,2,0,L|185:265|178:276|190:349,1,160,10|0,2:2|0:0,0:0:0:0:
19,244,103475,6,0,P|58:231|100:242,1,80,10|0,2:2|0:0,0:0:0:0:
277,298,103736,2,0,P|316:306|354:294,1,80,2|0,2:2|0:0,0:0:0:0:
323,80,103997,2,0,L|334:159,1,80,10|0,2:2|0:0,0:0:0:0:
487,270,104258,2,0,L|498:191,1,80,10|0,1:1|0:0,0:0:0:0:
353,294,104519,2,0,L|364:373,1,80,10|0,2:2|0:0,0:0:0:0:
498,190,104779,6,0,P|418:210|346:175,1,160,10|0,2:2|0:0,0:0:0:0:
261,0,105171,1,10,2:2:0:0:
253,115,105301,2,0,P|229:152|179:167,1,80,8|0,1:1|0:0,0:0:0:0:
84,28,105562,2,0,P|127:30|166:65,1,80,10|0,2:2|0:0,0:0:0:0:
105,298,105823,2,0,L|95:227|86:216|76:144,1,160,2|8,2:2|2:2,0:0:0:0:
22,81,106214,1,0,0:0:0:0:
105,298,106345,6,0,B|128:314|158:313|180:299|180:299|205:285|234:286|255:300,1,160,10|8,1:1|2:2,0:0:0:0:
313,384,106736,1,0,0:0:0:0:
375,208,106866,2,0,P|322:218|291:205,1,80,10|0,2:2|0:0,0:0:0:0:
312,35,107127,1,2,2:2:0:0:
180,99,107258,2,0,B|201:119|207:147|201:172|201:172|207:141|232:119|261:114,1,160,10|0,2:2|0:0,0:0:0:0:
433,131,107649,6,0,P|468:171|472:205,1,80,10|0,2:2|0:0,0:0:0:0:
313,384,107910,2,0,P|330:333|357:313,1,80,10|0,2:2|0:0,0:0:0:0:
445,292,108171,1,2,2:2:0:0:
253,292,108301,2,0,P|225:263|259:156,1,160,10|0,2:2|0:0,0:0:0:0:
282,303,108693,5,10,2:2:0:0:
124,240,108823,1,2,2:2:0:0:
311,314,108953,2,0,P|354:302|377:273,1,80,10|0,2:2|0:0,0:0:0:0:
512,235,109214,2,0,P|469:223|446:194,1,80,10|0,2:2|0:0,0:0:0:0:
307,69,109475,2,0,P|350:81|373:110,1,80,10|0,1:1|0:0,0:0:0:0:
512,0,109736,2,0,P|469:12|446:41,1,80,10|0,2:2|0:0,0:0:0:0:
318,195,109997,6,0,P|279:187|253:159,1,80,2|8,2:2|2:1,0:0:0:0:
252,148,110193,1,8,2:1:0:0:
253,138,110258,1,8,2:2:0:0:
91,211,110388,2,0,P|51:219|15:204,1,80,2|8,2:2|1:1,0:0:0:0:
164,132,110649,1,8,2:2:0:0:
125,314,110779,1,2,2:2:0:0:
235,242,110910,1,8,1:1:0:0:
341,350,111040,6,0,L|333:276|325:268|317:194,1,160,14|0,2:2|0:0,0:0:0:0:
295,0,111432,2,0,L|303:81,1,80,10|8,2:2|1:1,0:0:0:0:
317,194,111693,1,0,0:0:0:0:
485,129,111823,2,0,P|447:116|409:124,1,80,10|0,2:2|0:0,0:0:0:0:
225,263,112084,2,0,B|200:276|171:273|149:259|149:259|149:259|149:259|125:243|95:242|72:254,1,160,2|8,2:2|2:2,0:0:0:0:
0,315,112475,1,0,0:0:0:0:
224,188,112606,6,0,P|237:225|225:263,1,80,10|0,1:1|0:0,0:0:0:0:
97,112,112866,2,0,P|85:71|98:36,1,80,10|0,2:2|0:0,0:0:0:0:
337,9,113127,2,0,L|347:83|341:91|351:165,1,160,10|0,2:2|0:0,0:0:0:0:
372,324,113519,1,10,2:2:0:0:
507,149,113649,2,0,P|512:188|499:226,1,80,8|0,1:1|0:0,0:0:0:0:
224,263,113910,2,0,P|199:231|192:192,1,80,10|0,2:2|0:0,0:0:0:0:
234,0,114171,2,0,P|218:36|105:60,1,160,2|8,2:2|2:2,0:0:0:0:
111,62,114562,1,0,0:0:0:0:
34,137,114693,6,0,P|22:175|30:214,1,80,10|0,1:1|0:0,0:0:0:0:
136,291,114953,2,0,P|147:328|139:367,1,80,10|0,2:2|0:0,0:0:0:0:
212,194,115214,2,0,B|236:179|265:178|288:190|288:190|288:190|288:190|314:203|342:200|364:186,1,160,10|0,2:2|0:0,0:0:0:0:
190,214,115606,1,8,2:2:0:0:
364,185,115736,2,0,P|390:155|400:117,1,80,8|0,1:1|0:0,0:0:0:0:
256,0,115997,6,0,L|177:10,1,80,10|0,2:2|0:0,0:0:0:0:
38,82,116258,2,0,L|108:91|119:106|189:115,1,160,2|8,2:2|2:2,0:0:0:0:
277,199,116649,1,2,2:2:0:0:
243,300,116779,2,0,L|164:310,1,80,8|0,1:1|0:0,0:0:0:0:
54,325,117040,1,10,0:0:0:0:
54,325,117301,1,2,3:2:0:0:
243,300,117562,6,0,P|268:331|323:344,1,87.500000834465,10|0,2:2|2:2,0:0:0:0:
420,329,117823,1,8,1:1:0:0:
241,215,117953,5,10,2:2:0:0:
325,183,118084,1,0,3:2:0:0:
408,151,118214,1,0,3:2:0:0:
196,142,118345,5,10,2:2:0:0:
309,3,118475,1,8,1:1:0:0:
252,72,118606,1,8,2:2:0:0:
196,142,118736,1,0,2:2:0:0:
39,128,118866,6,2,L|15:156|22:223,1,75.000002861023,10|8,1:1|2:2,2:2:0:0:
159,269,119127,1,2,3:2:0:0:
72,261,119258,1,2,3:2:0:0:
173,269,119388,6,0,B|202:272|229:256|241:232|241:232|255:206|282:192|309:194,1,165.000005035401,14|0,2:2|0:0,0:0:0:0:
472,255,119910,2,0,L|484:313,1,55.0000016784668,8|0,1:1|0:0,0:0:0:0:
337,366,120171,5,2,2:2:0:0:
372,271,120301,1,2,2:2:0:0:
408,177,120432,2,0,B|412:157|405:138|393:126|393:126|378:112|374:93|377:75,1,110.000003356934,2|8,2:2|2:2,0:0:0:0:
376,76,120823,1,0,0:0:0:0:
512,0,120953,2,0,P|481:12|447:7,1,55.0000016784668,10|0,1:1|0:0,0:0:0:0:
377,77,121214,2,0,P|346:65|312:70,1,55.0000016784668,10|0,2:2|0:0,0:0:0:0:
199,0,121475,2,0,P|226:46|214:98,1,110.000003356934,10|0,2:2|0:0,0:0:0:0:
86,136,121866,2,0,P|117:148|151:143,2,55.0000016784668,2|8|0,2:2|1:1|0:0,0:0:0:0:
29,44,122258,5,2,2:2:0:0:
60,119,122388,1,2,2:2:0:0:
32,186,122519,1,2,2:2:0:0:
56,246,122649,1,2,2:2:0:0:
34,298,122779,1,10,2:2:0:0:
52,343,122910,1,2,2:2:0:0:
36,380,123040,5,10,1:1:0:0:
68,355,123171,1,2,2:2:0:0:
107,363,123301,2,0,P|136:367|173:356,1,55.0000016784668,2|0,2:2|0:0,0:0:0:0:
203,240,123562,6,0,L|279:250|285:259|361:269,1,165.000005035401,10|0,2:2|0:0,0:0:0:0:
512,384,124084,2,0,L|504:324,1,55.0000016784668,8|0,1:1|0:0,0:0:0:0:
391,273,124345,2,0,P|385:237|393:213,1,55.0000016784668,2|0,2:2|0:0,0:0:0:0:
512,100,124606,2,0,P|483:123|407:114,1,110.000003356934,2|8,2:2|2:2,0:0:0:0:
413,118,124997,1,0,0:0:0:0:
311,0,125127,2,0,L|308:62,1,55.0000016784668,8|0,1:1|0:0,0:0:0:0:
196,86,125388,2,0,L|199:148,1,55.0000016784668,10|0,2:2|0:0,0:0:0:0:
324,236,125649,6,0,B|299:220|269:222|246:237|246:237|222:254|191:254|168:240,1,165.000005035401,10|8,2:2|2:2,0:0:0:0:
344,313,126171,2,0,L|345:259,1,55.0000016784668,8|0,1:1|0:0,0:0:0:0:
254,128,126432,1,2,0:0:0:0:
243,126,126519,1,2,0:0:0:0:
232,124,126606,1,2,0:0:0:0:
221,122,126693,6,0,L|100:102,1,110.000003356934,2|8,2:2|2:2,0:0:0:0:
83,293,127084,2,0,L|152:207,1,110.000003356934,2|0,2:2|0:0,0:0:0:0:
24,140,127475,2,0,P|28:167|42:190,1,55.0000016784668,2|0,2:2|0:0,0:0:0:0:
151,207,127736,6,0,P|201:199|255:236,1,110.000003356934,10|0,2:2|0:0,0:0:0:0:
214,384,128127,2,0,P|181:341|184:288,1,110.000003356934,2|0,2:2|0:0,0:0:0:0:
314,288,128519,2,0,P|293:305|267:314,1,55.0000016784668,2|0,2:2|0:0,0:0:0:0:
300,142,128779,2,0,L|347:153|355:163|402:174,1,110.000003356934,2|8,2:2|2:2,0:0:0:0:
450,232,129171,1,2,2:2:0:0:
507,308,129301,5,10,1:1:0:0:
457,242,129432,1,2,2:2:0:0:
512,319,129562,2,0,P|512:345|500:373,1,55.0000016784668,10|0,2:2|0:0,0:0:0:0:
290,346,129823,6,0,P|279:302|307:243,1,110.000003356934,10|0,2:2|0:0,0:0:0:0:
483,168,130214,2,0,P|450:199|385:204,1,110.000003356934,10|0,2:2|0:0,0:0:0:0:
282,107,130606,2,0,P|301:127|312:153,1,55.0000016784668,2|0,2:2|0:0,0:0:0:0:
177,85,130866,2,0,P|184:58|201:36,1,55.0000016784668,2|0,2:2|0:0,0:0:0:0:
303,3,131127,1,10,2:2:0:0:
177,85,131258,2,0,P|150:91|123:87,2,55.0000016784668,2|8|0,2:2|1:1|0:0,0:0:0:0:
303,3,131649,2,0,P|329:-3|356:0,1,55.0000016784668,2|0,2:2|0:0,0:0:0:0:
459,87,131910,6,0,P|466:130|437:192,1,110.000003356934,10|0,2:2|0:0,0:0:0:0:
324,259,132301,2,0,P|340:280|349:306,2,55.0000016784668,2|8|0,2:2|1:1|0:0,0:0:0:0:
210,198,132693,2,0,P|193:176|184:150,1,55.0000016784668,2|0,2:2|0:0,0:0:0:0:
312,18,132953,6,0,L|264:23|256:34|208:39,1,110.000003356934,2|8,2:2|2:2,0:0:0:0:
129,144,133345,2,0,L|188:150,2,55.0000016784668,2|8|0,2:2|1:1|0:0,0:0:0:0:
98,49,133736,2,0,L|38:55,1,55.0000016784668,2|0,2:2|0:0,0:0:0:0:
0,219,133997,6,0,B|26:205|56:210|77:228|77:228|99:246|129:248|154:237,1,165.000005035401,10|8,2:2|2:2,0:0:0:0:
286,154,134519,2,0,L|281:211,1,55.0000016784668,8|0,1:1|0:0,0:0:0:0:
234,296,134779,2,0,L|239:353,1,55.0000016784668,8|0,2:2|0:0,0:0:0:0:
75,346,135040,6,0,P|54:292|69:243,1,110.000003356934,2|8,2:2|2:2,0:0:0:0:
68,244,135432,1,0,0:0:0:0:
172,98,135562,2,0,P|151:151|166:200,1,110.000003356934,10|8,1:1|2:2,0:0:0:0:
165,199,135953,1,0,0:0:0:0:
252,261,136084,5,10,2:2:0:0:
252,261,136475,1,2,2:2:0:0:
433,177,136866,1,10,2:2:0:0:
433,177,137127,1,2,2:2:0:0:
367,271,137388,1,2,2:2:0:0:
367,271,137475,1,2,2:2:0:0:
415,375,137649,6,0,P|447:382|475:375,1,55.0000016784668,2|0,2:2|0:0,0:0:0:0:
367,271,137910,2,0,P|335:264|307:271,1,55.0000016784668,10|0,2:2|0:0,0:0:0:0:
185,366,138171,2,0,P|207:341|193:256,1,110.000003356934,2|2,2:2|2:2,0:0:0:0:
185,255,138562,2,0,P|208:303|191:353,1,110.000003356934,2|0,2:2|0:0,0:0:0:0:
180,363,138953,1,10,2:2:0:0:
94,218,139214,1,2,2:2:0:0:
176,71,139475,5,2,2:2:0:0:
205,69,139606,1,2,2:2:0:0:
234,67,139736,2,0,L|299:64,1,55.0000016784668,10|0,2:2|0:0,0:0:0:0:
400,159,139997,2,0,P|372:154|345:161,1,55.0000016784668,2|0,2:2|0:0,0:0:0:0:
290,276,140258,6,0,P|326:281|366:326,1,82.5000025177003,10|2,2:2|2:2,0:0:0:0:
363,319,140519,2,0,L|356:257,1,55.0000016784668,2|0,2:2|0:0,0:0:0:0:
400,159,140779,2,0,L|406:97,1,55.0000016784668,10|0,1:1|0:0,0:0:0:0:
512,12,141040,6,0,P|486:26|444:25,1,55.0000016784668,10|0,2:2|0:0,0:0:0:0:
302,0,141301,1,10,2:2:0:0:
317,24,141432,1,2,2:2:0:0:
322,56,141562,1,2,2:2:0:0:
311,93,141693,1,2,2:2:0:0:
279,123,141823,2,0,L|217:129,1,55.0000016784668,10|0,1:1|0:0,0:0:0:0:
108,190,142084,6,0,P|118:164|118:137,1,55.0000016784668,2|0,2:2|0:0,0:0:0:0:
0,16,142345,2,0,P|16:37|108:36,1,110.000003356934,10|0,2:2|0:0,0:0:0:0:
170,0,142736,1,2,2:2:0:0:
321,40,142866,2,0,P|321:67|311:93,1,55.0000016784668,8|0,1:1|0:0,0:0:0:0:
225,218,143127,2,0,P|225:245|235:270,1,55.0000016784668,10|0,2:2|0:0,0:0:0:0:
120,384,143388,6,0,P|133:360|113:281,1,110.000003356934,2|10,2:2|2:2,0:0:0:0:
108,279,143736,1,2,2:2:0:0:
100,275,143823,1,2,2:2:0:0:
92,272,143910,2,0,L|35:276,1,55.0000016784668,10|0,1:1|0:0,0:0:0:0:
0,148,144171,2,0,P|30:155|58:146,1,55.0000016784668,10|0,2:2|0:0,0:0:0:0:
126,39,144432,6,0,P|159:32|230:73,1,110.000003356934,10|0,2:2|0:0,0:0:0:0:
270,154,144823,1,10,2:2:0:0:
210,290,144953,2,0,P|208:263|215:237,1,55.0000016784668,8|0,1:1|0:0,0:0:0:0:
367,168,145214,2,0,P|369:140|362:114,1,55.0000016784668,10|0,2:2|0:0,0:0:0:0:
278,18,145475,6,0,L|327:20|336:13|385:15,1,110.000003356934,2|8,2:2|2:2,0:0:0:0:
385,15,145866,1,0,0:0:0:0:
512,0,145997,2,0,L|506:59,1,55.0000016784668,10|0,1:1|0:0,0:0:0:0:
452,187,146258,2,0,L|446:132,1,55.0000016784668,2|0,2:2|0:0,0:0:0:0:
486,281,146519,6,0,B|469:291|450:293|433:287|433:287|415:281|395:284|380:293,1,110.000003356934,10|0,2:2|0:0,0:0:0:0:
259,384,146910,2,0,P|275:362|281:335,1,55.0000016784668,10|8,2:2|1:1,0:0:0:0:
280,335,147171,1,0,0:0:0:0:
262,183,147301,2,0,P|272:208|292:226,1,55.0000016784668,10|0,2:2|0:0,0:0:0:0:
347,69,147562,6,0,L|296:75|290:70|239:76,1,110.000003356934,2|10,2:2|2:2,0:0:0:0:
377,65,147953,2,0,L|369:3,2,55.0000016784668,2|8|0,2:2|1:1|0:0,0:0:0:0:
262,183,148345,2,0,L|254:244,1,55.0000016784668,10|0,2:2|0:0,0:0:0:0:
353,365,148606,6,0,P|304:333|235:342,1,125,10|0,2:2|0:0,0:0:0:0:
162,384,148997,1,10,2:2:0:0:
23,336,149127,2,0,P|53:328|83:336,1,62.5,8|0,1:1|0:0,0:0:0:0:
193,258,149388,2,0,P|162:265|132:257,1,62.5,10|0,2:2|0:0,0:0:0:0:
252,179,149649,6,0,P|288:228|286:289,1,125,2|8,2:2|2:2,0:0:0:0:
132,257,150040,2,0,P|162:264|193:257,1,62.5,2|8,2:2|1:1,0:0:0:0:
252,179,150301,1,0,0:0:0:0:
372,101,150432,2,0,P|341:93|311:101,1,62.5,10|0,2:2|0:0,0:0:0:0:
192,257,150693,6,0,P|161:264|96:191,1,125,10|0,2:2|0:0,0:0:0:0:
252,179,151084,1,8,2:2:0:0:
388,283,151214,5,10,2:1:0:0:
252,179,151345,1,10,2:1:0:0:
192,257,151475,1,10,2:2:0:0:
350,192,151606,1,10,2:1:0:0:
305,30,151736,6,0,P|245:37|215:89,1,125,10|0,2:2|0:0,0:0:0:0:
371,101,152127,1,8,2:2:0:0:
496,165,152258,6,0,P|466:175|436:171,1,62.5,10|0,1:1|0:0,0:0:0:0:
305,30,152519,1,10,2:2:0:0:
215,88,152649,1,2,2:2:0:0:
125,30,152779,6,0,P|81:26|-1:89,1,150.000005722046,14|2,2:2|2:2,0:0:0:0:
5,180,153171,1,0,0:0:0:0:
129,263,153301,2,0,L|55:257,1,75.0000028610231,10|0,1:1|0:0,0:0:0:0:
186,172,153562,2,0,L|260:165,1,75.0000028610231,10|0,2:2|0:0,0:0:0:0:
446,148,153823,5,2,2:2:0:0:
260,164,153953,1,2,2:2:0:0:
360,284,154084,2,0,P|366:247|358:210,1,75.0000028610231,10|0,2:2|0:0,0:0:0:0:
351,30,154345,2,0,P|340:65|348:101,1,75.0000028610231,10|0,1:1|0:0,0:0:0:0:
508,236,154606,5,10,2:2:0:0:
358,210,154736,1,2,2:2:0:0:
508,236,154866,2,0,P|521:279|515:315,1,75.0000028610231,10|0,2:2|0:0,0:0:0:0:
384,384,155127,2,0,P|397:341|391:305,1,75.0000028610231,2|8,2:2|2:2,0:0:0:0:
257,180,155388,2,0,P|253:217|266:252,1,75.0000028610231,10|0,1:1|0:0,0:0:0:0:
145,351,155649,2,0,P|141:313|154:278,1,75.0000028610231,2|0,2:2|0:0,0:0:0:0:
324,151,155910,6,0,P|293:173|257:180,1,75.0000028610231,2|0,2:2|0:0,0:0:0:0:
82,19,156171,2,0,P|119:26|150:48,1,75.0000028610231,10|0,2:2|0:0,0:0:0:0:
75,193,156432,2,0,P|71:155|84:120,1,75.0000028610231,10|0,1:1|0:0,0:0:0:0:
248,6,156693,2,0,P|245:43|258:78,1,75.0000028610231,10|0,2:2|0:0,0:0:0:0:
421,192,156953,6,0,B|435:169|437:143|430:120|430:120|430:120|430:120|442:143|463:158|487:164,1,150.000005722046,10|0,2:2|0:0,0:0:0:0:
487,259,157345,1,0,0:0:0:0:
339,144,157475,2,0,L|263:157,1,75.0000028610231,8|0,1:1|0:0,0:0:0:0:
112,140,157736,2,0,P|132:172|127:211,1,75.0000028610231,10|0,2:2|0:0,0:0:0:0:
0,298,157997,5,2,2:2:0:0:
128,207,158127,1,2,2:2:0:0:
142,363,158258,1,10,2:2:0:0:
89,289,158388,1,2,2:2:0:0:
232,354,158519,6,0,B|259:355|281:337|289:314|289:314|298:288|321:273|346:273,1,150.000005722046,10|10,1:1|2:2,0:0:0:0:
512,321,158910,1,2,2:2:0:0:
443,248,159040,5,10,2:2:0:0:
415,344,159171,1,2,2:2:0:0:
472,153,159301,2,0,L|493:82,1,75.0000028610231,2|8,2:2|2:2,0:0:0:0:
443,248,159562,5,10,1:1:0:0:
347,219,159693,1,2,2:2:0:0:
260,245,159823,1,2,2:2:0:0:
183,221,159953,1,2,2:2:0:0:
117,316,160084,6,0,P|120:279|106:245,1,75.0000028610231,2|0,2:2|0:0,0:0:0:0:
22,191,160345,2,0,P|19:154|34:120,1,75.0000028610231,8|0,2:2|0:0,0:0:0:0:
33,120,160606,1,2,0:0:0:0:
242,77,160736,6,0,B|254:64|254:64|120:75,1,150.000005722046,8|0,2:2|0:0,0:0:0:0:
183,221,161127,6,0,P|254:247|321:215,1,150.000005722046,14|0,2:2|0:0,0:0:0:0:
402,81,161519,1,10,2:2:0:0:
325,144,161649,2,0,P|314:179|318:217,1,75.0000028610231,8|0,1:1|0:0,0:0:0:0:
468,267,161910,2,0,P|479:302|475:339,1,75.0000028610231,2|0,2:2|0:0,0:0:0:0:
289,384,162171,6,0,L|220:377|213:367|144:360,1,150.000005722046,2|8,2:2|2:2,0:0:0:0:
8,310,162562,2,0,P|-5:273|2:231,1,75.0000028610231,0|10,0:0|1:1,0:0:0:0:
71,172,162823,1,0,0:0:0:0:
142,105,162953,2,0,P|146:68|134:34,1,75.0000028610231,10|0,2:2|0:0,0:0:0:0:
92,267,163214,6,0,P|122:288|224:253,1,150.000005722046,10|0,2:2|0:0,0:0:0:0:
223,54,163606,1,10,2:2:0:0:
323,157,163736,2,0,P|361:167|407:156,1,75.0000028610231,8|0,1:1|0:0,0:0:0:0:
512,0,163997,2,0,P|484:27|470:73,1,75.0000028610231,2|0,2:2|0:0,0:0:0:0:
512,300,164258,6,0,L|444:285|434:290|366:275,1,150.000005722046,2|8,2:2|2:2,0:0:0:0:
234,131,164649,2,0,L|247:205,1,75.0000028610231,2|8,2:2|1:1,0:0:0:0:
265,314,164910,1,0,0:0:0:0:
111,345,165040,2,0,L|124:271,1,75.0000028610231,10|0,2:2|0:0,0:0:0:0:
38,46,165301,6,0,B|60:61|88:59|108:45|108:45|131:30|159:31|178:45,1,150.000005722046,10|0,2:2|0:0,0:0:0:0:
234,131,165693,1,8,2:2:0:0:
363,40,165823,2,0,L|289:46,1,75.0000028610231,8|0,1:1|0:0,0:0:0:0:
420,139,166084,2,0,L|493:145,1,75.0000028610231,2|2,2:2|2:2,0:0:0:0:
363,40,166345,5,2,2:2:0:0:
420,139,166475,1,0,0:0:0:0:
363,238,166606,2,0,L|289:231,1,75.0000028610231,8|0,2:2|0:0,0:0:0:0:
101,215,166866,1,8,1:1:0:0:
288,231,166997,1,8,2:2:0:0:
199,169,167127,5,10,2:2:0:0:
190,277,167258,2,0,L|183:352,1,75.0000028610231,2|2,2:2|2:2,0:0:0:0:
181,381,167910,1,2,2:2:0:0:
190,277,168171,5,0,3:2:0:0:
190,277,168301,1,0,3:2:0:0:
210,92,168432,2,0,B|247:77|311:90|327:139|327:139|317:133|308:132|298:133,1,150.000005722046,10|0,2:2|0:0,0:0:0:0:
114,171,168823,2,0,B|82:146|61:84|96:46|96:46|96:57|99:66|105:74,1,150.000005722046,8|0,2:2|0:0,0:0:0:0:
230,215,169214,2,0,P|203:265|174:286,1,75.0000028610231,10|0,2:2|0:0,0:0:0:0:
60,289,169475,5,14,2:2:0:0:
60,289,169606,1,0,2:2:0:0:
114,171,169736,1,2,2:2:0:0:
134,382,169866,2,0,L|171:385|175:381|212:384,2,80,10|8|0,2:2|1:1|0:0,0:0:0:0:
60,289,170258,5,8,2:2:0:0:
60,289,170388,1,0,2:2:0:0:
189,276,170519,1,2,2:2:0:0:
16,178,170649,2,0,L|13:141|17:137|14:100,1,80,0|8,2:2|2:2,0:0:0:0:
167,12,170910,2,0,L|128:3|89:27,1,80,2|8,2:2|1:1,0:0:0:0:
13,99,171171,1,2,2:2:0:0:
247,84,171301,2,0,L|274:54|273:8,1,80,10|0,2:2|2:2,0:0:0:0:
144,117,171562,6,0,P|162:157|194:180,1,80,10|0,2:2|2:2,0:0:0:0:
338,175,171823,2,0,L|299:186|277:226,1,80,2|10,2:2|2:2,0:0:0:0:
220,383,172084,1,10,1:1:0:0:
203,284,172214,1,2,2:2:0:0:
127,349,172345,1,8,2:2:0:0:
127,349,172475,1,0,2:2:0:0:
297,318,172606,6,0,L|331:311|340:315|374:308,1,80,2|0,2:2|0:0,0:0:0:0:
509,204,172866,2,0,L|475:197|466:201|432:194,1,80,10|0,2:2|0:0,0:0:0:0:
293,298,173127,1,10,1:1:0:0:
263,139,173258,1,2,2:2:0:0:
297,318,173388,1,10,2:2:0:0:
260,120,173519,1,2,2:2:0:0:
335,208,173649,6,0,L|418:193,1,80,10|0,2:2|0:0,0:0:0:0:
221,229,173910,2,0,L|185:235|182:241|146:247,1,80,2|8,2:2|2:2,0:0:0:0:
46,384,174171,1,10,1:1:0:0:
145,247,174301,2,0,L|140:210|135:207|129:171,1,80,2|8,2:2|2:2,0:0:0:0:
112,34,174562,1,2,2:2:0:0:
1,123,174693,5,10,2:2:0:0:
97,45,174823,1,0,2:2:0:0:
200,84,174953,1,2,2:2:0:0:
276,21,175084,1,8,2:2:0:0:
356,51,175214,5,10,1:1:0:0:
382,55,175301,1,2,2:2:0:0:
415,50,175388,1,2,2:2:0:0:
449,29,175475,1,10,2:2:0:0:
423,67,175562,1,2,2:2:0:0:
421,120,175649,1,2,2:2:0:0:
456,169,175736,6,0,L|477:203|465:245,1,80,10|2,2:2|2:2,0:0:0:0:
404,294,175932,1,0,0:0:0:0:
396,294,175997,1,10,2:2:0:0:
271,234,176127,1,0,2:2:0:0:
331,109,176258,1,10,1:1:0:0:
146,174,176388,1,2,2:2:0:0:
206,49,176519,1,10,2:2:0:0:
238,141,176649,1,0,2:2:0:0:
40,76,176779,6,0,L|78:64|114:82,1,80,2|8,2:2|1:1,0:0:0:0:
149,165,176975,1,8,1:1:0:0:
146,174,177040,1,10,2:2:0:0:
24,267,177171,5,2,2:2:0:0:
32,269,177236,1,2,2:2:0:0:
40,272,177301,2,0,L|78:284|114:266,1,80,10|10,1:1|2:2,0:0:0:0:
238,141,177562,5,2,2:2:0:0:
139,167,177693,1,10,1:1:0:0:
211,239,177823,2,0,L|265:292|265:300|319:353,1,160,14|0,2:2|0:0,0:0:0:0:
201,230,178214,1,8,2:2:0:0:
319,353,178345,2,0,L|407:329,1,80,8|0,1:1|0:0,0:0:0:0:
512,174,178606,6,0,L|503:206|493:214|485:246,1,80,10|2,2:2|2:2,0:0:0:0:
319,353,178866,1,2,2:2:0:0:
282,200,178997,1,2,2:2:0:0:
251,29,179127,1,10,0:0:0:0:
248,38,179193,1,2,0:0:0:0:
245,47,179258,2,0,L|232:91,1,40,2|0,0:0|0:0,0:0:0:0:
119,171,179388,6,0,L|101:180|41:167|94:137|113:142,1,160,10|10,1:1|2:2,0:0:0:0:
206,136,179736,1,2,2:2:0:0:
226,132,179823,1,2,2:2:0:0:
246,128,179910,6,0,L|319:112|328:116|401:100,1,160,10|2,2:2|2:2,0:0:0:0:
496,80,180301,1,10,2:2:0:0:
300,212,180432,2,0,L|292:251|315:284,1,80,10|0,1:1|0:0,0:0:0:0:
370,366,180693,1,10,2:2:0:0:
318,112,180823,2,0,L|278:105|246:128,1,80,2|0,2:2|0:0,0:0:0:0:
216,267,181084,1,2,2:2:0:0:
140,34,181214,5,10,2:2:0:0:
245,128,181345,1,2,2:2:0:0:
6,77,181475,2,0,L|9:149|18:161|22:233,1,160,10|8,1:1|2:2,0:0:0:0:
28,319,181866,1,0,0:0:0:0:
167,121,181997,6,0,L|239:124|251:133|323:137,1,160,10|0,2:2|0:0,0:0:0:0:
406,141,182388,1,8,2:2:0:0:
204,214,182519,2,0,L|207:300,1,80,8|0,1:1|0:0,0:0:0:0:
328,384,182779,5,2,2:2:0:0:
476,300,182910,2,0,L|438:284|401:299,1,80,2|0,2:2|0:0,0:0:0:0:
328,384,183171,1,2,2:2:0:0:
170,309,183301,2,0,L|207:324|244:309,1,80,10|0,2:2|0:0,0:0:0:0:
71,216,183562,2,0,L|40:282|40:295|10:362,1,160,8|10,1:1|2:2,0:0:0:0:
0,384,183953,1,0,0:0:0:0:
77,201,184084,6,0,L|150:193|160:187|234:179,1,160,10|0,2:2|0:0,0:0:0:0:
390,163,184475,1,10,2:2:0:0:
313,328,184606,2,0,L|320:249,1,80,8|0,1:1|0:0,0:0:0:0:
227,99,184866,2,0,L|234:179,1,80,2|0,2:2|0:0,0:0:0:0:
61,21,185127,6,0,L|96:3|140:17,1,80,2|0,2:2|0:0,0:0:0:0:
227,99,185388,2,0,L|265:111|300:93,1,80,10|0,2:2|0:0,0:0:0:0:
421,0,185649,2,0,P|418:49|440:164,1,160,10|10,1:1|2:2,0:0:0:0:
453,180,186040,1,0,0:0:0:0:
345,209,186171,6,0,B|329:225|323:247|326:266|326:266|336:247|353:234|372:227,1,125,6|0,2:2|0:0,0:0:0:0:
405,346,186562,2,0,B|427:350|448:345|464:333|464:333|442:334|422:326|407:313,1,125,2|0,2:2|0:0,0:0:0:0:
453,180,186953,2,0,P|465:208|464:239,1,62.5,2|0,2:2|0:0,0:0:0:0:
258,339,187214,2,2,L|251:252|242:242|235:155,1,187.5,2|0,2:2|0:0,2:2:0:0:
229,78,187736,5,2,2:2:0:0:
223,1,187997,1,2,2:2:0:0:
110,41,188258,2,0,L|166:46,1,50,6|2,2:2|2:2,0:0:0:0:
89,39,188649,1,2,2:2:0:0:
12,150,189040,6,0,L|7:93,2,50,2|2|2,2:2|2:2|2:2,0:0:0:0:
121,197,189823,2,0,L|116:246,1,50,2|2,2:2|2:2,0:0:0:0:
21,358,190344,2,0,P|12:322|21:286,2,75,2|2|2,2:2|2:2|2:2,0:0:0:0:
107,384,191388,2,0,L|161:381,1,50,2|0,2:2|0:0,0:0:0:0:
219,298,191910,2,0,L|272:301,1,50
361,346,192431,5,2,2:2:0:0:
374,346,192692,1,0,0:0:0:0:
461,305,192953,1,0,0:0:0:0:
448,305,193214,1,0,0:0:0:0:
378,178,193475,5,2,2:2:0:0:
376,262,193736,1,0,0:0:0:0:
286,185,193997,1,0,0:0:0:0:
288,253,194258,1,0,0:0:0:0:
200,244,194518,6,0,L|150:239,1,50,2|2,2:2|2:2,0:0:0:0:
115,234,194866,2,0,P|88:201|88:154,1,83.3333333333333,2|2,2:2|2:2,0:0:0:0:
195,105,195562,2,0,L|146:102,1,50,2|0,2:2|0:0,0:0:0:0:
145,101,195953,1,0,0:0:0:0:
66,60,196084,2,0,L|16:63,1,50,2|2,2:2|2:2,0:0:0:0:
142,11,196605,6,0,P|193:21|234:68,2,112.500004291535,2|2|2,2:2|2:2|2:2,0:0:0:0:
45,81,197649,2,0,P|29:159|43:237,1,150.000005722046,2|2,2:2|2:2,0:0:0:0:
66,60,198431,1,2,2:2:0:0:
231,173,198692,2,0,P|285:162|322:121,2,112.500004291535,2|2|2,2:2|2:2|2:2,0:0:0:0:
196,23,199736,2,0,L|281:14,1,75.0000028610231,2|0,2:2|0:0,0:0:0:0:
322,120,200258,2,0,L|407:129,1,75.0000028610231,2|0,2:2|0:0,0:0:0:0:
512,0,200779,5,2,2:2:0:0:
508,37,200910,1,0,0:0:0:0:
504,74,201040,2,0,L|499:116,1,37.5000014305115
489,194,201301,6,0,L|446:198,3,37.5000014305115,2|0|0|0,2:2|0:0|0:0|0:0,0:0:0:0:
396,128,201823,2,0,L|353:123,3,43.7500004172325,2|0|0|0,2:2|0:0|0:0|0:0,0:0:0:0:
307,206,202344,2,0,L|257:210,1,50,2|0,2:2|0:0,0:0:0:0:
201,107,202605,2,0,L|151:102,2,50
151,102,203127,5,2,2:2:0:0:
153,113,203192,1,2,2:2:0:0:
155,124,203258,1,2,2:2:0:0:
174,215,203388,1,2,2:2:0:0:
263,245,203518,1,2,2:2:0:0:
174,215,203649,1,2,2:2:0:0:
104,278,203779,1,2,2:2:0:0:
195,318,203910,5,2,2:2:0:0:
174,215,204040,1,2,2:2:0:0:
75,182,204171,1,2,2:2:0:0:
64,178,204236,1,2,2:2:0:0:
53,174,204301,1,2,2:2:0:0:
174,215,204431,5,2,2:2:0:0:
253,146,204562,1,2,2:2:0:0:
352,179,204692,2,0,P|388:183|416:170,1,55.0000016784668,2|0,2:2|0:0,0:0:0:0:
512,0,204953,6,0,P|471:2|433:34,1,80,10|0,2:2|0:0,0:0:0:0:
405,176,205214,1,2,2:2:0:0:
196,50,205344,2,0,B|217:70|246:74|270:65|270:65|270:65|270:65|297:54|326:61|344:80,1,160,10|0,2:2|0:0,0:0:0:0:
415,295,205736,6,0,P|397:330|364:351,1,80,10|0,2:2|0:0,0:0:0:0:
405,176,205997,2,0,P|444:172|479:191,1,80,2|0,2:2|0:0,0:0:0:0:
307,243,206258,2,0,P|284:210|283:170,1,80,10|0,2:2|0:0,0:0:0:0:
194,10,206518,2,0,L|199:97,1,80,10|0,1:1|0:0,0:0:0:0:
111,244,206779,2,0,L|116:157,1,80,10|0,2:2|0:0,0:0:0:0:
2,350,207040,6,0,B|24:331|54:331|76:345|76:345|101:361|131:357|151:340,1,160,2|0,2:2|0:0,0:0:0:0:
331,118,207431,1,10,2:2:0:0:
211,183,207562,2,0,P|200:221|215:258,1,80,8|0,1:1|0:0,0:0:0:0:
392,267,207823,2,0,P|354:256|317:270,1,80,10|0,2:2|0:0,0:0:0:0:
512,384,208084,2,0,L|506:311|512:298|506:225,1,160,2|8,2:2|2:2,0:0:0:0:
500,121,208475,1,0,0:0:0:0:
317,269,208605,2,0,B|294:286|264:286|242:271|242:271|219:254|188:256|167:273,1,160,10|8,1:1|2:2,0:0:0:0:
112,369,208997,1,0,0:0:0:0:
36,173,209127,6,0,P|70:186|116:170,1,80,10|0,2:2|0:0,0:0:0:0:
134,0,209388,1,2,2:2:0:0:
209,159,209518,2,0,B|212:131|196:105|172:94|172:94|172:94|172:94|194:111|224:111|246:95,1,160,10|0,2:2|0:0,0:0:0:0:
403,3,209910,6,0,P|370:-9|323:7,1,80,10|0,2:2|0:0,0:0:0:0:
328,184,210171,2,0,P|361:196|408:180,1,80,10|0,2:2|0:0,0:0:0:0:
485,93,210431,1,2,2:2:0:0:
439,317,210562,2,0,L|366:304|356:311|283:298,1,160,10|0,2:2|0:0,0:0:0:0:
80,258,210953,5,10,2:2:0:0:
257,293,211084,1,2,2:2:0:0:
54,253,211214,2,0,P|41:207|55:166,1,80,10|0,2:2|0:0,0:0:0:0:
167,46,211475,2,0,P|154:92|168:133,1,80,10|0,2:2|0:0,0:0:0:0:
271,267,211736,2,0,P|283:229|276:190,1,80,10|0,1:1|0:0,0:0:0:0:
382,45,211997,2,0,P|394:82|387:121,1,80,10|0,2:2|0:0,0:0:0:0:
131,270,212258,6,0,L|53:252,1,80,2|0,2:2|0:0,0:0:0:0:
0,152,212518,1,8,2:2:0:0:
195,107,212649,2,0,L|292:84,1,80,2|8,2:2|1:1,0:0:0:0:
355,203,212910,1,8,2:2:0:0:
252,297,213040,2,0,L|234:374,1,80,2|0,2:2|0:0,0:0:0:0:
512,384,213301,6,0,L|491:317|495:297|474:231,1,160,14|0,2:2|0:0,0:0:0:0:
412,39,213692,2,0,L|437:115,1,80,10|8,2:2|1:1,0:0:0:0:
473,230,213953,1,0,0:0:0:0:
287,238,214084,2,0,P|317:211|356:204,1,80,10|0,2:2|0:0,0:0:0:0:
250,372,214344,2,0,B|221:374|196:360|181:338|181:338|166:314|139:302|112:304,1,160,2|8,2:2|2:2,0:0:0:0:
0,337,214736,1,0,0:0:0:0:
10,155,214866,6,0,P|39:181|78:189,1,80,10|0,1:1|0:0,0:0:0:0:
215,63,215127,1,10,2:2:0:0:
107,185,215258,1,2,2:2:0:0:
243,58,215388,2,0,B|272:56|297:70|311:92|311:92|311:92|311:92|327:116|353:128|379:126,1,160,10|0,2:2|0:0,0:0:0:0:
512,0,215779,1,10,2:2:0:0:
409,122,215910,2,0,P|400:160|414:197,1,80,8|0,1:1|0:0,0:0:0:0:
507,376,216171,2,0,P|521:339|512:300,1,80,2|0,2:2|0:0,0:0:0:0:
257,200,216431,2,0,L|326:204|343:193|413:197,1,160,2|8,2:2|2:2,0:0:0:0:
512,204,216823,1,0,0:0:0:0:
409,384,216953,6,0,P|362:372|339:344,1,80,10|0,1:1|0:0,0:0:0:0:
257,200,217214,2,0,P|270:245|257:279,1,80,10|0,2:2|0:0,0:0:0:0:
80,311,217475,6,0,P|117:297|155:306,1,80,10|0,2:2|0:0,0:0:0:0:
235,381,217736,1,0,0:0:0:0:
80,311,217866,2,0,P|66:273|75:235,1,80,10|8,2:2|1:1,0:0:0:0:
150,156,218127,1,0,0:0:0:0:
52,17,218258,2,0,P|91:23|120:50,1,80,10|0,2:2|0:0,0:0:0:0:
256,182,218518,6,0,P|293:170|319:140,1,80,2|0,2:2|0:0,0:0:0:0:
335,33,218779,1,10,2:2:0:0:
256,182,218910,2,0,P|247:220|261:257,1,80,2|8,2:2|1:1,0:0:0:0:
345,324,219171,1,2,2:2:0:0:
469,255,219301,2,0,B|495:266|510:291|511:317|511:317|511:318|511:318|496:294|469:282|443:284,1,160,10|0,2:2|3:2,0:0:0:0:
442,284,219692,1,0,3:2:0:0:
239,358,219823,6,0,L|249:262,1,87.500000834465,10|0,2:2|0:0,0:0:0:0:
275,8,220084,2,0,L|266:95,1,87.500000834465,10|10,1:1|2:2,0:0:0:0:
248,270,220344,1,2,3:2:0:0:
257,182,220475,1,2,3:2:0:0:
409,197,220605,5,10,2:2:0:0:
329,234,220736,1,8,1:1:0:0:
266,95,220866,1,8,2:2:0:0:
337,146,220997,1,0,3:2:0:0:
105,167,221127,5,10,1:1:0:0:
266,95,221258,1,8,2:2:0:0:
86,165,221388,1,8,1:1:0:0:
248,270,221518,1,8,1:1:0:0:
67,164,221649,6,0,P|37:121|66:24,1,160,14|0,2:2|0:0,0:0:0:0:
263,0,222040,1,10,2:2:0:0:
360,75,222171,2,0,L|353:159,1,80,8|0,1:1|0:0,0:0:0:0:
216,271,222431,2,0,L|210:192,1,80,10|0,2:2|0:0,0:0:0:0:
111,384,222692,2,0,B|135:368|164:367|187:379|187:379|187:379|187:379|221:396|262:384|282:354,1,160,2|8,2:2|2:2,0:0:0:0:
328,282,223084,1,0,0:0:0:0:
506,384,223214,6,0,P|518:346|512:305,1,80,10|0,1:1|0:0,0:0:0:0:
420,163,223475,2,0,P|414:202|426:240,1,80,10|0,2:2|0:0,0:0:0:0:
486,25,223736,2,0,L|412:29|403:37|329:41,1,160,10|0,2:2|0:0,0:0:0:0:
129,51,224127,1,10,2:2:0:0:
225,180,224258,2,0,P|237:142|232:103,1,80,8|0,1:1|0:0,0:0:0:0:
27,0,224518,2,0,P|15:37|20:77,1,80,10|0,2:2|0:0,0:0:0:0:
46,228,224779,6,0,B|117:208|117:208|123:211,1,80,2|0,2:2|0:0,0:0:0:0:
298,366,225040,2,0,B|227:386|227:386|222:384,1,80,10|0,2:2|0:0,0:0:0:0:
242,172,225301,2,0,B|239:177|239:177|259:248,1,80,10|0,1:1|0:0,0:0:0:0:
407,384,225562,2,0,B|404:378|404:378|424:307,1,80,10|0,2:2|0:0,0:0:0:0:
470,129,225823,6,0,P|432:144|379:129,1,80,10|0,2:2|0:0,0:0:0:0:
257,0,226084,1,2,2:2:0:0:
285,108,226214,2,0,B|283:137|266:160|242:171|242:171|217:183|202:208|200:234,1,160,10|0,2:2|0:0,0:0:0:0:
224,384,226605,1,10,2:2:0:0:
213,367,226671,1,2,2:2:0:0:
197,354,226736,1,2,2:2:0:0:
15,291,226866,6,0,P|53:301|92:291,1,80,10|0,2:2|0:0,0:0:0:0:
242,172,227127,1,2,2:2:0:0:
131,188,227258,2,0,B|105:174|92:148|93:122|93:122|92:150|76:174|53:187,1,160,10|0,2:2|0:0,0:0:0:0:
60,14,227649,2,0,L|147:24,1,80,10|0,2:2|0:0,0:0:0:0:
383,33,227910,6,0,L|315:41|301:59|233:67,1,160,10|0,2:2|0:0,0:0:0:0:
139,23,228301,1,0,0:0:0:0:
368,132,228431,2,0,P|380:173|370:212,1,80,10|0,1:1|0:0,0:0:0:0:
222,384,228692,2,0,P|234:343|224:304,1,80,10|0,2:2|0:0,0:0:0:0:
95,116,228953,6,0,L|89:210,1,80,10|0,2:2|0:0,0:0:0:0:
79,344,229214,1,8,2:2:0:0:
225,307,229344,2,0,L|219:227,1,80,2|8,2:2|1:1,0:0:0:0:
92,156,229605,1,8,2:2:0:0:
165,29,229736,2,0,L|244:23,1,80,2|0,2:2|0:0,0:0:0:0:
506,98,229997,6,0,L|502:167|490:184|486:253,1,160,14|0,2:2|0:0,0:0:0:0:
359,384,230388,2,0,L|354:304,1,80,10|8,2:2|1:1,0:0:0:0:
345,155,230649,1,0,0:0:0:0:
171,197,230779,2,0,P|203:220|242:221,1,80,10|0,2:2|0:0,0:0:0:0:
60,228,231040,2,0,B|44:204|47:173|62:152|62:152|80:130|80:100|66:77,1,160,2|8,2:2|2:2,0:0:0:0:
0,0,231431,1,0,0:0:0:0:
166,59,231562,6,0,L|256:51,1,80,10|0,1:1|0:0,0:0:0:0:
424,162,231823,2,0,L|334:154,1,80,10|0,2:2|0:0,0:0:0:0:
191,334,232084,2,0,P|169:258|203:188,1,160,10|0,2:2|0:0,0:0:0:0:
444,128,232475,2,0,B|469:139|487:161|497:185|497:185|469:161|433:156|402:166,1,160,10|0,2:2|0:0,0:0:0:0:
276,213,232866,2,0,P|235:207|196:183,1,80,10|0,2:2|0:0,0:0:0:0:
67,62,233127,2,0,B|59:60|49:66|48:80|55:94|87:99|122:80|141:59|141:59|162:36|196:18|226:24|233:38|232:51|222:57|214:55,1,240,2|0,2:2|0:0,0:0:0:0:
330,2,233649,6,0,P|342:42|331:90,1,80,10|0,1:1|0:0,0:0:0:0:
201,188,233910,2,0,P|189:228|200:276,1,80,10|0,2:2|0:0,0:0:0:0:
494,305,234171,2,0,L|425:317|408:305|339:317,1,160,10|0,2:2|0:0,0:0:0:0:
252,333,234562,1,0,0:0:0:0:
451,221,234692,2,0,L|436:135,1,80,8|0,1:1|0:0,0:0:0:0:
375,11,234953,6,0,P|410:-5|450:0,1,80,10|0,2:2|0:0,0:0:0:0:
293,131,235214,2,0,B|271:149|242:152|218:142|218:142|191:131|162:137|142:153,1,160,10|0,2:2|0:0,0:0:0:0:
43,293,235605,1,10,2:2:0:0:
173,318,235736,2,0,L|252:333,1,80,8|0,1:1|0:0,0:0:0:0:
374,353,235997,1,10,0:0:0:0:
374,353,236258,1,2,3:2:0:0:
251,332,236518,6,0,P|267:281|299:251,1,87.500000834465,10|0,2:2|0:0,0:0:0:0:
421,236,236779,1,8,1:1:0:0:
204,153,236910,5,10,0:0:0:0:
289,256,237040,1,0,3:2:0:0:
289,256,237171,1,0,3:2:0:0:
470,110,237301,5,10,2:2:0:0:
336,131,237431,1,2,2:2:0:0:
204,153,237562,1,2,2:2:0:0:
421,236,237692,1,10,2:2:0:0:
289,256,237823,6,0,P|261:289|252:322,1,62.5,10|0,1:1|0:0,0:0:0:0:
151,384,238084,2,0,P|137:355|116:333,1,62.5,10|0,2:2|0:0,0:0:0:0:
0,350,238344,6,0,L|11:271,1,75.0000028610231,2|0,2:2|0:0,0:0:0:0:
111,214,238866,1,0,0:0:0:0:
0,112,239127,6,0,P|24:106|48:110,1,50,2|0,2:2|0:0,0:0:0:0:
111,214,239388,2,0,P|159:225|206:210,1,100,2|0,2:2|0:0,0:0:0:0:
302,211,239779,2,0,P|287:163|251:130,1,100,2|0,2:2|0:0,0:0:0:0:
201,48,240171,2,0,P|167:84|157:132,1,100,2|2,2:2|2:2,0:0:0:0:
175,227,240692,5,10,0:0:0:0:
157,132,240823,1,0,0:0:0:0:
193,322,240953,1,8,1:0:0:0:
84,196,241084,5,10,0:0:0:0:
175,227,241215,1,0,0:0:0:0:
266,259,241345,1,0,0:0:0:0:
101,290,241475,5,10,0:0:0:0:
175,227,241605,1,0,0:0:0:0:
248,163,241736,1,2,0:0:0:0:
248,163,241866,1,2,2:2:0:0:
157,132,241997,5,2,2:2:0:0:
