osu file format v14

[General]
AudioFilename: audio.mp3
AudioLeadIn: 0
PreviewTime: 102106
Countdown: 0
SampleSet: Soft
StackLeniency: 0.4
Mode: 0
LetterboxInBreaks: 0
WidescreenStoryboard: 1

[Editor]
Bookmarks: 241997,246692
DistanceSpacing: 1.2
BeatDivisor: 8
GridSize: 8
TimelineZoom: 1.7

[Metadata]
Title:Kanashikute lulululu -Hasaka ver.-
TitleUnicode:悲しくて lulululu -ハーサカver.-
Artist:Hayasaka Ai (CV: Hanamori Yumiri)
ArtistUnicode:早坂愛 (CV: 花守ゆみり)
Creator:Heratikus
Version:Light Insane
Source:かぐや様は告らせたい-ウルトラロマンティック-
Tags:japanese pop jpop j-pop female vocal vocals vocalist anime kaguya-sama wa kokurasetai tensai-tachi no renai zunousen kaguya sama love is war ultra romantic season 3 aitakute 会いたくて kana nishino 西野カナ
BeatmapID:3925967
BeatmapSetID:1802471

[Difficulty]
HPDrainRate:4
CircleSize:3.8
OverallDifficulty:7
ApproachRate:8
SliderMultiplier:1.5
SliderTickRate:1

[Events]
//Background and Video events
0,0,"hayasakaresize.jpg",0,0
//Break Periods
2,188457,200029
//Storyboard Layer 0 (Background)
//Storyboard Layer 1 (Fail)
//Storyboard Layer 2 (Pass)
//Storyboard Layer 3 (Foreground)
//Storyboard Layer 4 (Overlay)
//Storyboard Sound Samples

[TimingPoints]
4041,535.714285714286,4,2,1,40,1,0
8327,545.454545454546,4,2,1,40,1,0
10508,571.428571428571,4,2,1,50,1,0
11079,600,4,2,1,45,1,0
11679,800,4,2,1,40,1,0
12479,1090.90909090909,4,2,1,40,1,0
13569,705.882352941176,4,2,1,40,1,0
13923,882.352941176471,4,2,1,40,1,0
14364,666.666666666667,4,2,1,40,1,0
16607,521.739130434783,4,2,1,45,1,0
17128,521.739130434783,4,2,2,50,1,0
17128,-100,4,2,2,50,0,0
25475,-80,4,2,2,55,0,0
31997,-57.1428571428571,4,2,1,70,0,1
33562,-57.1428571428571,4,2,1,70,0,0
33823,-62.5,4,2,1,70,0,1
48171,-62.5,4,2,1,70,0,0
48432,-62.5,4,2,1,30,0,0
48693,-57.1428571428571,4,2,1,70,0,1
49997,-66.6666666666667,4,2,1,60,0,0
50519,-100,4,2,1,50,0,0
67214,-90.9090909090909,4,2,1,55,0,0
83910,-111.111111111111,4,2,1,55,0,0
88084,-90.9090909090909,4,2,1,55,0,0
96432,-80,4,2,1,60,0,0
98519,-90.9090909090909,4,2,1,65,0,0
102693,521.739130434783,4,2,1,70,1,1
102693,-62.5,4,2,1,70,0,1
117040,-62.5,4,2,1,70,0,0
117301,-62.5,4,2,1,30,0,0
117562,-57.1428571428571,4,2,1,70,0,1
118866,-66.6666666666667,4,2,1,60,0,0
119388,-90.9090909090909,4,2,1,50,0,0
136084,-111.111111111111,4,2,1,50,0,0
140258,-90.9090909090909,4,2,1,50,0,0
148606,-80,4,2,1,60,0,0
152779,-66.6666666666667,4,2,1,65,0,0
167388,-200,4,2,1,65,0,0
168432,-66.6666666666667,4,2,1,65,0,0
169475,-62.5,4,2,1,70,0,1
186171,-80,4,2,1,60,0,0
188258,521.739130434783,4,2,2,55,1,0
202866,-100,4,2,2,5,0,0
203127,-90.9090909090909,4,2,1,70,0,0
204953,-62.5,4,2,1,75,0,1
219301,-62.5,4,2,1,75,0,0
219562,-62.5,4,2,1,40,0,0
219823,-57.1428571428571,4,2,1,75,0,1
221518,-57.1428571428571,4,2,1,75,0,0
221649,-62.5,4,2,1,75,0,1
235997,-62.5,4,2,1,75,0,0
236258,-62.5,4,2,1,30,0,0
236518,-57.1428571428571,4,2,1,75,0,1
237823,-80,4,2,1,50,0,1
238344,-133.333333333333,4,2,1,40,0,0
239127,-100,4,2,1,50,0,0
240692,-66.6666666666667,4,2,1,65,0,1
241997,-100,4,2,1,50,0,0

[Colours]
Combo1 : 115,88,165
Combo2 : 244,222,94
Combo3 : 64,169,225
Combo4 : 211,148,84

[HitObjects]
0,384,16607,6,0,L|80:376,1,75,2|2,2:2|2:2,0:0:0:0:
163,312,17128,2,0,P|175:280|161:235,1,75,6|0,2:2|2:2,0:0:0:0:
103,181,17519,1,2,2:2:0:0:
315,176,17910,6,0,P|288:202|252:209,2,75,2|2|2,2:2|2:2|2:2,0:0:0:0:
335,79,18693,2,0,P|370:88|394:116,1,75,2|2,2:2|2:2,0:0:0:0:
241,111,19214,6,0,P|231:75|267:7,2,112.5,2|2|2,2:2|2:2|2:2,0:0:0:0:
315,176,20258,1,2,2:2:0:0:
489,157,20780,6,0,L|403:167,1,75,2|0,2:2|0:0,0:0:0:0:
269,264,21301,2,0,L|355:274,1,75,2|2,2:2|2:2,0:0:0:0:
430,283,21693,1,2,2:2:0:0:
464,364,22084,5,2,2:2:0:0:
343,272,22345,2,0,L|257:262,1,75,2|2,2:2|2:2,0:0:0:0:
182,253,22736,1,2,2:2:0:0:
42,312,23128,5,2,2:2:0:0:
42,312,23258,1,2,2:2:0:0:
42,312,23388,2,0,P|27:274|32:231,1,75,2|2,2:2|2:2,0:0:0:0:
98,109,23910,2,0,P|113:147|108:190,1,75,2|2,2:2|2:2,0:0:0:0:
7,47,24432,2,0,P|32:15|104:2,2,112.5,2|2|2,2:2|2:2|2:2,0:0:0:0:
41,186,25475,6,0,L|107:183|113:176|179:173,2,140.625,2|2|2,2:2|2:2|2:2,0:0:0:0:
0,305,26519,2,0,P|3:353|44:389,1,93.75,2|0,2:2|0:0,0:0:0:0:
169,310,27041,2,0,L|264:315,1,93.75,2|2,2:2|2:2,0:0:0:0:
349,384,27432,1,2,2:2:0:0:
349,384,27562,2,0,P|374:320|352:253,2,140.625,2|2|2,2:2|2:2|2:2,0:0:0:0:
169,310,28606,2,0,L|173:208,1,93.75,2|0,2:2|2:2,0:0:0:0:
181,52,29128,1,2,2:2:0:0:
129,131,29388,1,2,2:2:0:0:
223,136,29649,6,0,L|286:141|296:152|358:156,2,140.625,2|2|2,2:2|2:2|2:2,0:0:0:0:
340,69,30693,1,2,2:2:0:0:
448,164,30954,1,0,2:2:0:0:
448,164,31084,1,2,2:2:0:0:
335,241,31345,1,0,2:2:0:0:
335,241,31475,1,2,2:2:0:0:
159,338,31997,6,0,P|163:280|223:238,1,131.250001251698,10|8,2:2|1:1,0:0:0:0:
335,241,32388,2,0,P|276:266|219:239,1,131.250001251698,8|0,2:2|0:0,0:0:0:0:
162,137,32780,2,0,P|210:169|216:242,1,131.250001251698,10|10,2:2|2:2,0:0:0:0:
159,338,33171,6,0,L|78:332,1,65.6250006258488,2|8,2:2|1:1,0:0:0:0:
7,244,33432,1,8,2:2:0:0:
4,211,33562,1,10,1:1:0:0:
2,178,33693,1,8,1:1:0:0:
0,145,33823,6,0,L|120:139,1,120,14|0,2:2|0:0,0:0:0:0:
191,62,34214,2,0,L|311:68,1,120,10|0,2:2|0:0,0:0:0:0:
399,124,34606,1,10,2:2:0:0:
461,304,34867,2,0,P|483:274|472:180,1,120,2|8,2:2|2:2,0:0:0:0:
356,315,35388,2,0,L|294:308,1,60,10|0,1:1|0:0,0:0:0:0:
225,235,35649,2,0,L|163:242,1,60,10|0,2:2|0:0,0:0:0:0:
46,297,35910,6,0,P|72:244|56:187,1,120,10|0,2:2|0:0,0:0:0:0:
0,109,36301,2,0,P|-15:54|16:-5,1,120,10|0,2:2|0:0,0:0:0:0:
106,0,36693,1,10,2:2:0:0:
144,151,36954,2,0,L|199:151|206:144|261:144,1,120,2|8,2:2|2:2,0:0:0:0:
404,29,37475,2,0,P|380:70|404:144,1,120,10|8,1:1|2:2,0:0:0:0:
512,249,37997,6,0,L|446:253,1,60,10|0,2:2|0:0,0:0:0:0:
415,350,38258,1,2,2:2:0:0:
415,350,38388,2,0,L|359:346|353:340|297:336,1,120,10|0,2:2|0:0,0:0:0:0:
205,330,38780,1,10,2:2:0:0:
72,251,39041,6,0,L|138:247,1,60,10|0,2:2|0:0,0:0:0:0:
169,150,39301,1,2,2:2:0:0:
169,150,39432,2,0,L|225:154|231:160|287:164,1,120,10|0,2:2|0:0,0:0:0:0:
379,170,39823,1,10,2:2:0:0:
488,14,40084,6,0,P|500:71|470:121,1,120,10|8,2:2|2:2,0:0:0:0:
286,163,40606,1,10,1:1:0:0:
467,224,40867,1,10,2:2:0:0:
286,268,41128,6,0,P|256:318|268:375,1,120,10|8,2:2|2:2,0:0:0:0:
366,336,41519,2,0,P|414:339|444:320,2,60,2|8|8,2:2|1:1|2:2,0:0:0:0:
286,268,41910,2,0,P|237:264|207:283,1,60,2|0,2:2|0:0,0:0:0:0:
136,363,42171,6,0,L|129:242,1,120,14|0,2:2|0:0,0:0:0:0:
31,208,42562,2,0,L|38:87,1,120,10|0,2:2|0:0,0:0:0:0:
119,33,42954,1,10,2:2:0:0:
318,18,43214,2,0,P|291:42|190:53,1,120,2|8,2:2|2:2,0:0:0:0:
12,8,43736,2,0,L|15:76,1,60,10|0,1:1|0:0,0:0:0:0:
107,128,43997,2,0,L|104:196,1,60,10|0,2:2|0:0,0:0:0:0:
48,302,44258,6,0,P|102:280|164:310,1,120,10|0,2:2|0:0,0:0:0:0:
237,361,44649,2,0,P|291:383|353:353,1,120,10|0,2:2|0:0,0:0:0:0:
393,287,45041,1,10,2:2:0:0:
427,76,45301,6,0,L|419:130|413:136|407:195,1,120,2|8,2:2|2:2,0:0:0:0:
316,231,45693,2,0,L|308:176|302:170|296:111,1,120,2|0,2:2|0:0,0:0:0:0:
208,70,46084,1,10,2:2:0:0:
21,122,46345,6,0,P|74:145|138:128,1,120,10|0,2:2|0:0,0:0:0:0:
208,70,46736,1,8,2:2:0:0:
296,114,46867,2,0,L|304:181,1,60,8|0,1:1|0:0,0:0:0:0:
219,230,47128,2,0,L|211:297,1,60,10|0,2:2|0:0,0:0:0:0:
127,358,47388,6,0,P|93:362|35:299,1,120,10|0,2:2|0:0,0:0:0:0:
33,205,47780,1,10,2:2:0:0:
33,205,47910,2,0,L|100:197,1,60,8|0,1:1|0:0,0:0:0:0:
117,94,48171,2,0,L|65:88|53:96|1:90,1,120,10|0,2:2|3:2,0:0:0:0:
299,173,48693,6,0,P|325:229|304:296,1,131.250001251698,10|8,0:0|1:1,0:0:0:0:
226,238,49084,2,0,P|164:232|116:180,1,131.250001251698,10|0,2:2|3:2,0:0:0:0:
207,142,49475,2,0,P|242:91|311:75,1,131.250001251698,10|0,2:2|3:2,0:0:0:0:
394,114,49867,1,8,2:2:0:0:
423,131,49997,2,2,L|430:181|424:190|431:240,1,112.500004291535,2|10,1:2|2:2,2:2:0:0:
449,334,50388,1,0,0:0:0:0:
449,334,50519,6,0,B|426:320|399:321|378:334|378:334|355:348|327:347|306:333,1,150,14|0,2:2|0:0,0:0:0:0:
245,214,51301,2,0,L|240:256,1,37.5,2|2,2:2|2:2,0:0:0:0:
237,284,51562,2,0,P|201:292|165:282,1,75,2|0,2:2|0:0,0:0:0:0:
105,154,52084,1,2,2:2:0:0:
97,235,52345,1,10,2:2:0:0:
179,120,52606,6,0,P|234:113|291:144,2,112.5,10|2|2,2:2|2:2|2:2,0:0:0:0:
97,235,53649,2,0,L|105:148,1,75,2|10,2:2|2:2,0:0:0:0:
30,37,54171,2,0,L|38:124,1,75,10|2,1:1|2:2,0:0:0:0:
97,235,54693,6,0,B|119:250|147:250|168:238|168:238|191:225|218:227|238:241,1,150,10|0,2:2|0:0,0:0:0:0:
304,368,55475,1,10,2:2:0:0:
304,368,55736,2,0,B|305:341|291:317|271:305|271:305|248:291|236:267|238:242,1,150,10|0,2:2|0:0,0:0:0:0:
315,122,56519,1,2,2:2:0:0:
315,122,56780,2,0,B|291:133|277:157|276:181|276:181|276:208|261:230|239:241,1,150,10|0,2:2|0:0,0:0:0:0:
380,249,57562,5,2,2:2:0:0:
492,201,57823,2,0,L|482:126,1,75,2|8,2:2|2:2,0:0:0:0:
408,0,58345,2,0,L|398:75,1,75,8|2,1:1|2:2,0:0:0:0:
210,119,58867,6,0,P|260:138|317:120,2,112.5,10|2|10,2:2|2:2|2:2,0:0:0:0:
142,17,59910,2,0,P|108:0|71:0,1,75,10|0,2:2|0:0,0:0:0:0:
0,120,60432,2,0,L|10:198,1,75,2|2,2:2|2:2,0:0:0:0:
67,284,60954,2,0,L|118:306|172:283,2,112.5,10|2|10,2:2|2:2|2:2,0:0:0:0:
0,120,61997,2,0,L|10:42,1,75,2|8,2:2|2:2,0:0:0:0:
150,0,62519,1,8,1:1:0:0:
301,114,62780,5,2,0:0:0:0:
301,114,62910,1,2,0:0:0:0:
301,114,63041,2,0,B|321:132|349:133|371:121|371:121|394:107|422:111|441:128,1,150,10|0,2:2|0:0,0:0:0:0:
487,316,63823,5,2,0:0:0:0:
487,316,63954,1,2,0:0:0:0:
487,316,64084,2,0,P|465:329|378:309,2,112.5,2|2|10,2:2|2:2|2:2,0:0:0:0:
332,186,65128,2,0,L|316:253|305:257|289:324,1,150,10|0,2:2|0:0,0:0:0:0:
235,196,65910,2,0,L|197:195,1,37.5,10|0,2:2|0:0,0:0:0:0:
165,195,66171,2,0,P|137:157|136:117,1,75,2|8,2:2|2:2,0:0:0:0:
239,15,66693,1,8,1:1:0:0:
152,41,66954,1,10,2:2:0:0:
306,78,67214,6,0,B|334:87|363:76|380:55|380:55|397:31|427:22|453:31,1,165.000005035401,14|8,2:2|1:1,0:0:0:0:
512,191,67997,1,2,2:2:0:0:
453,351,68258,2,0,P|426:349|382:310,1,82.5000025177003,2|8,2:2|2:2,0:0:0:0:
342,192,68780,1,10,1:1:0:0:
212,246,69041,1,2,2:2:0:0:
83,301,69301,6,0,P|110:243|89:188,2,123.75000377655,10|2|2,2:2|2:2|2:2,0:0:0:0:
0,310,70214,1,2,2:2:0:0:
1,278,70345,2,0,L|2:230,1,41.2500012588501,2|2,2:2|2:2,0:0:0:0:
3,205,70606,2,0,L|5:109,1,82.5000025177003,10|8,2:2|1:1,0:0:0:0:
7,0,71128,1,2,2:2:0:0:
95,63,71388,6,0,B|119:78|150:76|171:59|171:59|194:39|226:38|248:53,1,165.000005035401,10|8,2:2|1:1,0:0:0:0:
315,207,72171,1,2,2:2:0:0:
326,110,72432,2,0,L|415:72,1,82.5000025177003,2|8,2:2|2:2,0:0:0:0:
248,53,72954,1,8,1:1:0:0:
148,188,73214,1,2,2:2:0:0:
215,343,73475,6,0,L|271:348|279:342|336:348,1,123.75000377655,10|2,2:2|2:2,0:0:0:0:
336,348,73997,1,0,0:0:0:0:
512,384,74258,2,0,B|495:359|496:329|510:305|510:305|526:280|523:249|508:227,1,165.000005035401,10|8,2:2|2:2,0:0:0:0:
312,131,75041,1,8,1:1:0:0:
382,236,75301,1,2,2:2:0:0:
438,121,75562,6,0,P|437:90|373:20,2,123.75000377655,10|2|10,2:2|2:2|2:2,0:0:0:0:
382,236,76606,2,0,L|299:231,1,82.5000025177003,2|0,2:2|2:2,0:0:0:0:
206,227,76997,2,0,L|202:186,1,41.2500012588501,2|8,0:0|1:0,0:0:0:0:
217,349,77388,1,10,2:2:0:0:
51,196,77649,6,0,P|31:126|57:73,2,123.75000377655,10|2|10,2:2|2:2|2:2,0:0:0:0:
206,227,78693,2,0,L|289:222,1,82.5000025177003,2|0,2:2|2:2,0:0:0:0:
382,218,79084,2,0,L|386:177,1,41.2500012588501,2|8,0:0|1:0,0:0:0:0:
369,347,79475,1,10,2:2:0:0:
511,174,79736,6,0,L|501:86,1,82.5000025177003,10|0,2:2|0:0,0:0:0:0:
402,42,80128,2,0,L|392:130,1,82.5000025177003,2|0,2:2|0:0,0:0:0:0:
298,166,80519,1,10,2:2:0:0:
211,39,80780,6,0,P|200:80|216:125,1,82.5000025177003,2|8,2:2|2:2,0:0:0:0:
298,166,81171,2,0,P|309:207|293:252,1,82.5000025177003,2|0,2:2|0:0,0:0:0:0:
222,293,81562,1,10,2:2:0:0:
0,284,81823,6,0,B|28:294|57:284|74:262|74:262|91:237|122:229|148:239,1,165.000005035401,10|8,2:2|1:1,0:0:0:0:
217,384,82606,1,8,2:2:0:0:
146,238,82867,2,0,P|146:194|171:162,1,82.5000025177003,2|8,2:2|2:2,0:0:0:0:
355,123,83388,2,0,P|316:145|276:139,1,82.5000025177003,10|8,1:1|2:2,0:0:0:0:
195,54,83910,6,0,P|147:41|100:56,2,101.249996910095,10|10|10,2:2|2:2|2:2,0:0:0:0:
280,140,84954,2,0,L|283:212,1,67.4999979400635,2|2,2:2|2:2,0:0:0:0:
290,309,85475,1,2,2:2:0:0:
290,309,85736,1,2,2:2:0:0:
374,259,85997,6,0,P|422:250|468:269,2,101.249996910095,10|10|10,2:2|2:2|2:2,0:0:0:0:
290,309,87041,1,2,2:2:0:0:
290,309,87301,2,0,L|292:351,2,33.7499989700318,2|2|10,2:2|2:2|1:1,0:0:0:0:
193,264,87823,1,2,2:2:0:0:
105,314,88084,6,0,P|75:318|23:296,2,82.5000025177003,10|2|10,2:2|2:2|1:1,0:0:0:0:
193,264,88867,1,10,2:2:0:0:
195,171,89128,2,0,L|196:127,1,41.2500012588501,10|2,2:2|2:2,0:0:0:0:
198,97,89388,2,0,L|199:53,1,41.2500012588501,2|2,2:2|2:2,0:0:0:0:
289,12,89649,1,10,1:1:0:0:
120,0,89910,1,2,2:2:0:0:
42,166,90171,6,0,P|16:111|35:54,2,123.75000377655,10|10|10,2:2|2:2|2:2,0:0:0:0:
183,230,91214,2,0,L|266:216,2,82.5000025177003,2|10|10,2:2|2:2|1:1,0:0:0:0:
57,320,91997,1,10,2:2:0:0:
42,166,92258,6,0,P|67:110|123:88,2,123.75000377655,10|10|10,2:2|2:2|2:2,0:0:0:0:
57,320,93301,2,0,L|144:335,1,82.5000025177003,2|8,2:2|2:2,0:0:0:0:
292,358,93823,1,10,1:1:0:0:
227,269,94084,1,2,2:2:0:0:
383,179,94345,6,0,P|329:152|271:168,2,123.75000377655,10|10|10,2:2|2:2|2:2,0:0:0:0:
467,341,95388,2,0,L|472:254,1,82.5000025177003,2|10,2:2|2:2,0:0:0:0:
378,97,95910,2,0,L|383:184,1,82.5000025177003,8|8,1:1|2:2,0:0:0:0:
316,339,96432,6,0,P|282:349|221:333,1,93.75,10|0,2:2|0:0,0:0:0:0:
156,287,96823,2,0,P|122:277|61:293,1,93.75,10|0,2:2|0:0,0:0:0:0:
8,352,97214,1,10,2:2:0:0:
12,217,97475,6,0,L|16:124,1,93.75,2|8,2:2|2:2,0:0:0:0:
110,81,97867,2,0,L|114:174,1,93.75,2|0,2:2|0:0,0:0:0:0:
200,211,98258,1,10,2:2:0:0:
375,60,98519,5,10,2:2:0:0:
362,213,98910,1,10,2:2:0:0:
349,366,99301,1,10,2:2:0:0:
213,364,99562,5,10,2:2:0:0:
200,211,99954,1,10,2:2:0:0:
187,58,100345,1,10,2:2:0:0:
18,60,100867,6,0,L|13:17,2,41.2500012588501,2|2|2,2:2|2:2|2:2,0:0:0:0:
101,107,101258,1,2,2:2:0:0:
101,107,101388,2,0,L|96:150,1,41.2500012588501,2|2,2:2|2:2,0:0:0:0:
40,208,101649,2,0,L|45:251,1,41.2500012588501,2|2,2:2|2:2,0:0:0:0:
79,322,101910,2,0,L|74:365,1,41.2500012588501,2|2,2:2|2:2,0:0:0:0:
135,256,102171,2,0,P|176:248|223:266,1,82.5000025177003,2|2,2:2|2:2,0:0:0:0:
304,374,102693,6,0,L|296:311,1,60,14|0,2:2|0:0,0:0:0:0:
365,253,102953,1,2,2:2:0:0:
365,253,103084,2,0,L|379:127,1,120,10|0,2:2|0:0,0:0:0:0:
330,63,103475,2,0,P|269:48|214:70,2,120,10|2|10,2:2|2:2|2:2,0:0:0:0:
454,204,104258,1,10,1:1:0:0:
393,381,104519,1,10,2:2:0:0:
270,239,104779,6,0,P|256:200|284:117,1,120,10|0,2:2|0:0,0:0:0:0:
377,76,105171,2,0,P|350:106|264:124,1,120,10|0,2:2|0:0,0:0:0:0:
181,63,105562,1,10,2:2:0:0:
33,146,105823,2,0,L|36:202|42:206|45:262,1,120,2|8,2:2|2:2,0:0:0:0:
174,384,106345,2,0,P|201:354|287:336,1,120,10|8,1:1|2:2,0:0:0:0:
450,384,106866,6,0,P|443:352|451:316,1,60,10|0,2:2|0:0,0:0:0:0:
512,255,107127,1,2,2:2:0:0:
512,255,107258,2,0,P|522:202|501:132,1,120,10|0,2:2|0:0,0:0:0:0:
430,81,107649,1,10,2:2:0:0:
352,203,107910,6,0,P|318:210|292:201,1,60,10|0,2:2|0:0,0:0:0:0:
229,134,108171,1,2,2:2:0:0:
229,134,108301,2,0,P|165:117|110:140,1,120,10|0,2:2|0:0,0:0:0:0:
51,219,108693,1,10,2:2:0:0:
56,251,108823,1,2,2:2:0:0:
61,283,108953,6,0,L|183:293,1,120,10|10,2:2|2:2,0:0:0:0:
348,124,109475,2,0,L|226:134,1,120,10|10,1:1|2:2,0:0:0:0:
91,6,109997,6,0,P|81:37|90:67,1,60,2|8,2:2|2:1,0:0:0:0:
198,118,110258,1,8,2:2:0:0:
228,133,110388,2,0,P|238:164|229:194,1,60,2|8,2:2|1:1,0:0:0:0:
148,272,110649,1,8,2:2:0:0:
118,287,110779,2,0,P|108:318|117:348,1,60,2|8,2:2|1:1,0:0:0:0:
242,384,111040,6,0,L|297:380|302:371|357:367,1,120,14|0,2:2|0:0,0:0:0:0:
394,282,111432,2,0,L|339:278|334:269|279:265,1,120,10|0,2:2|0:0,0:0:0:0:
231,189,111823,1,10,2:2:0:0:
379,71,112084,2,0,P|386:141|375:196,1,120,2|8,2:2|2:2,0:0:0:0:
176,259,112606,2,0,L|116:254,1,60,10|0,1:1|0:0,0:0:0:0:
78,166,112866,2,0,L|137:161,1,60,10|0,2:2|0:0,0:0:0:0:
219,124,113127,6,0,P|233:73|210:11,1,120,10|0,2:2|0:0,0:0:0:0:
98,20,113519,2,0,P|149:34|211:11,1,120,10|0,2:2|0:0,0:0:0:0:
322,3,113910,1,10,2:2:0:0:
219,124,114171,2,0,P|205:175|228:237,1,120,2|8,2:2|2:2,0:0:0:0:
336,330,114693,2,0,L|340:262,1,60,10|0,1:1|0:0,0:0:0:0:
411,196,114953,2,0,L|407:128,1,60,10|0,2:2|0:0,0:0:0:0:
303,105,115214,6,0,P|286:40|313:0,1,120,10|0,2:2|0:0,0:0:0:0:
404,0,115606,1,8,2:2:0:0:
404,0,115736,1,8,1:1:0:0:
303,105,115997,2,0,L|237:102,1,60,10|0,2:2|0:0,0:0:0:0:
140,42,116258,6,0,P|155:97|130:154,1,120,2|8,2:2|2:2,0:0:0:0:
30,200,116649,2,0,P|70:159|131:152,1,120,2|0,2:2|0:0,0:0:0:0:
221,215,117040,2,0,P|165:200|129:150,1,120,10|2,2:2|3:2,0:0:0:0:
60,316,117562,6,0,L|193:310,1,131.250001251698,10|8,2:2|1:1,0:0:0:0:
265,379,117953,2,0,L|398:385,1,131.250001251698,10|0,2:2|3:2,0:0:0:0:
477,326,118345,2,0,P|494:267|467:200,1,131.250001251698,10|8,2:2|2:2,0:0:0:0:
393,139,118736,1,0,2:2:0:0:
359,141,118866,2,2,L|308:146|304:144|299:141|248:146,1,112.500004291535,10|2,1:1|3:2,2:2:0:0:
155,158,119258,1,2,3:2:0:0:
155,158,119388,6,0,B|138:182|138:213|153:236|153:236|168:261|165:291|150:313,1,165.000005035401,14|8,2:2|1:1,0:0:0:0:
0,321,120171,1,2,2:2:0:0:
0,321,120301,1,2,2:2:0:0:
0,321,120432,2,0,P|28:344|80:346,1,82.5000025177003,2|8,2:2|2:2,0:0:0:0:
247,287,120953,1,10,1:1:0:0:
375,341,121214,1,10,2:2:0:0:
503,287,121475,6,0,P|521:228|498:168,2,123.75000377655,10|2|2,2:2|2:2|2:2,0:0:0:0:
416,337,122388,1,2,2:2:0:0:
416,337,122519,2,0,L|360:342,1,41.2500012588501,2|2,2:2|2:2,0:0:0:0:
311,279,122779,2,0,L|255:274,1,41.2500012588501,10|2,2:2|2:2,0:0:0:0:
229,345,123040,2,0,L|173:350,1,41.2500012588501,10|2,1:1|2:2,0:0:0:0:
139,268,123301,1,2,2:2:0:0:
17,349,123562,6,0,P|45:289|43:225,1,123.75000377655,10|0,2:2|0:0,0:0:0:0:
0,158,124084,1,8,1:1:0:0:
110,19,124345,1,2,2:2:0:0:
249,129,124606,2,0,P|251:179|236:207,1,82.5000025177003,2|8,2:2|2:2,0:0:0:0:
211,33,125127,1,8,1:1:0:0:
147,114,125388,1,10,2:2:0:0:
236,206,125649,6,0,P|298:223|351:187,1,123.75000377655,10|8,2:2|2:2,0:0:0:0:
378,110,126171,1,8,1:1:0:0:
440,276,126432,2,0,L|474:288,2,27.5000008392334,2|2|2,2:2|2:2|2:2,0:0:0:0:
408,271,126693,2,0,P|362:316|366:380,2,123.75000377655,2|2|2,2:2|2:2|2:2,0:0:0:0:
512,175,127736,6,0,L|427:168,1,82.5000025177003,10|0,2:2|0:0,0:0:0:0:
359,106,128127,2,0,L|274:113,1,82.5000025177003,2|0,2:2|0:0,0:0:0:0:
204,158,128519,1,2,2:2:0:0:
135,30,128779,2,0,P|121:67|133:113,1,82.5000025177003,2|8,2:2|2:2,0:0:0:0:
290,206,129301,1,10,1:1:0:0:
290,206,129432,1,2,2:2:0:0:
290,206,129562,1,10,2:2:0:0:
135,382,129823,6,0,P|121:345|133:299,1,82.5000025177003,10|0,2:2|0:0,0:0:0:0:
189,242,130214,2,0,P|203:205|191:159,1,82.5000025177003,10|0,2:2|0:0,0:0:0:0:
129,107,130606,1,2,2:2:0:0:
0,217,130866,2,0,L|86:229,1,82.5000025177003,2|10,2:2|2:2,0:0:0:0:
162,239,131258,1,2,2:2:0:0:
162,239,131388,1,8,1:1:0:0:
0,322,131649,1,2,2:2:0:0:
69,155,131910,6,0,P|99:147|152:167,1,82.5000025177003,10|0,2:2|0:0,0:0:0:0:
189,242,132301,2,0,P|219:249|272:229,1,82.5000025177003,2|0,2:2|0:0,0:0:0:0:
313,159,132693,1,2,2:2:0:0:
444,243,132953,6,0,L|356:234,1,82.5000025177003,2|8,2:2|2:2,0:0:0:0:
313,159,133345,2,0,L|225:168,1,82.5000025177003,2|0,2:2|0:0,0:0:0:0:
159,217,133736,1,2,2:2:0:0:
123,47,133997,2,0,P|123:107|87:156,1,123.75000377655,10|8,2:2|2:2,0:0:0:0:
0,190,134519,1,8,1:1:0:0:
28,0,134779,1,8,2:2:0:0:
218,94,135040,6,0,L|304:74,1,82.5000025177003,2|8,2:2|2:2,0:0:0:0:
390,230,135562,2,0,L|307:211,1,82.5000025177003,10|8,1:1|2:2,0:0:0:0:
205,294,136084,5,10,2:2:0:0:
205,294,136866,1,10,2:2:0:0:
205,294,137388,2,0,P|244:306|268:298,1,67.4999979400635,2|2,2:2|2:2,0:0:0:0:
321,243,137779,1,0,0:0:0:0:
321,243,137910,2,0,P|343:240|364:246,1,33.7499989700318,10|0,2:2|0:0,0:0:0:0:
411,295,138171,5,2,2:2:0:0:
411,295,138953,1,10,2:2:0:0:
411,295,139475,2,0,L|414:252,1,33.7499989700318,2|2,2:2|2:2,0:0:0:0:
478,209,139736,2,0,L|473:139,1,67.4999979400635,10|2,2:2|2:2,0:0:0:0:
429,20,140258,6,0,P|468:8|508:19,2,82.5000025177003,10|2|10,2:2|2:2|1:1,0:0:0:0:
355,117,141040,1,10,2:2:0:0:
256,42,141301,2,0,L|253:83,1,41.2500012588501,10|2,2:2|2:2,0:0:0:0:
250,116,141562,2,0,L|247:157,1,41.2500012588501,2|2,2:2|2:2,0:0:0:0:
324,220,141823,1,10,1:1:0:0:
162,199,142084,1,2,2:2:0:0:
0,178,142345,6,0,P|13:109|59:71,2,123.75000377655,10|2|10,2:2|2:2|2:2,0:0:0:0:
63,329,143388,1,2,2:2:0:0:
225,350,143649,2,0,L|272:355,3,27.5000008392334,10|2|2|10,2:2|2:2|2:2|1:1,0:0:0:0:
414,373,144171,1,10,2:2:0:0:
512,226,144432,6,0,P|474:211|428:228,1,82.5000025177003,10|0,2:2|0:0,0:0:0:0:
365,286,144823,2,0,P|327:301|281:284,1,82.5000025177003,10|0,2:2|0:0,0:0:0:0:
220,224,145214,1,10,2:2:0:0:
261,52,145475,2,0,L|242:132,1,82.5000025177003,2|8,2:2|2:2,0:0:0:0:
129,250,145997,1,10,1:1:0:0:
83,93,146258,1,2,2:2:0:0:
261,52,146519,6,0,P|309:56|341:83,1,82.5000025177003,10|0,2:2|0:0,0:0:0:0:
352,152,146910,2,0,P|331:108|338:67,1,82.5000025177003,10|0,2:2|0:0,0:0:0:0:
393,22,147301,1,10,2:2:0:0:
512,192,147562,6,0,L|421:204,1,82.5000025177003,2|10,2:2|2:2,0:0:0:0:
350,242,147953,2,0,P|329:285|336:326,1,82.5000025177003,2|0,2:2|0:0,0:0:0:0:
390,384,148345,1,10,2:2:0:0:
512,192,148606,6,0,L|402:177,1,93.75,10|0,2:2|0:0,0:0:0:0:
345,117,148997,2,0,L|290:124,2,46.875,10|8|0,2:2|1:1|0:0,0:0:0:0:
404,41,149388,1,10,2:2:0:0:
213,131,149649,6,0,P|170:130|130:99,1,93.75,2|8,2:2|2:2,0:0:0:0:
45,62,150040,2,0,P|18:65|-17:50,2,46.875,2|8|0,2:2|1:1|0:0,0:0:0:0:
121,8,150432,1,10,2:2:0:0:
53,154,150693,6,0,L|56:220|62:225|65:291,1,140.625,10|8,2:2|2:2,0:0:0:0:
157,346,151214,1,10,2:1:0:0:
184,336,151345,1,10,2:1:0:0:
213,334,151475,1,10,2:2:0:0:
241,342,151606,1,10,2:1:0:0:
267,357,151736,2,0,B|287:372|313:372|334:361|334:361|355:349|381:352|400:365,1,140.625,10|8,2:2|2:2,0:0:0:0:
512,264,152258,2,0,P|464:279|412:254,1,93.75,10|10,1:1|2:2,0:0:0:0:
365,198,152649,1,2,2:2:0:0:
401,114,152779,6,0,L|462:109,1,56.2500021457673,14|0,2:2|0:0,0:0:0:0:
356,35,153040,2,0,L|295:30,1,56.2500021457673,2|0,2:2|0:0,0:0:0:0:
248,127,153301,1,10,1:1:0:0:
457,109,153562,1,10,2:2:0:0:
248,127,153823,1,2,2:2:0:0:
208,130,153953,1,2,2:2:0:0:
168,133,154084,2,0,P|152:177|158:249,1,112.500004291535,10|10,2:2|1:1,0:0:0:0:
228,384,154606,5,10,2:2:0:0:
228,384,154736,1,2,2:2:0:0:
310,331,154866,2,0,P|326:287|320:215,1,112.500004291535,10|2,2:2|2:2,0:0:0:0:
128,136,155388,2,0,P|172:152|244:146,1,112.500004291535,10|2,1:1|2:2,0:0:0:0:
313,0,155910,1,2,2:2:0:0:
505,149,156171,2,0,P|461:133|389:139,2,112.500004291535,10|10|10,2:2|1:1|2:2,0:0:0:0:
500,317,156953,6,0,L|421:323|415:331|336:337,1,168.750006437302,10|0,2:2|0:0,0:0:0:0:
255,344,157475,1,8,1:1:0:0:
241,175,157736,2,0,P|251:209|211:272,1,112.500004291535,10|2,2:2|2:2,0:0:0:0:
127,255,158127,1,2,2:2:0:0:
127,255,158258,1,10,2:2:0:0:
0,122,158519,2,0,L|121:114,1,112.500004291535,10|10,1:1|2:2,0:0:0:0:
197,111,158910,1,2,2:2:0:0:
197,111,159040,6,0,L|193:50,1,56.2500021457673,10|2,2:2|2:2,0:0:0:0:
104,0,159301,1,2,2:2:0:0:
286,157,159562,2,0,L|282:217,1,56.2500021457673,10|2,1:1|2:2,0:0:0:0:
213,270,159823,2,0,L|217:330,1,56.2500021457673,2|2,2:2|2:2,0:0:0:0:
287,384,160084,6,0,P|336:383|381:338,2,112.500004291535,2|8|2,2:2|2:2|2:2,0:0:0:0:
216,326,160736,2,0,L|165:328|158:335|107:337,1,112.500004291535,8|0,2:2|0:0,0:0:0:0:
17,273,161127,6,0,P|21:212|57:174,1,112.500004291535,14|0,2:2|0:0,0:0:0:0:
160,182,161519,2,0,P|200:192|226:190,2,56.2500021457673,10|8|0,2:2|1:1|0:0,0:0:0:0:
111,86,161910,2,0,P|100:46|84:24,1,56.2500021457673,2|0,2:2|0:0,0:0:0:0:
230,89,162171,6,0,P|202:143|215:194,1,112.500004291535,2|8,2:2|2:2,0:0:0:0:
308,239,162562,2,0,P|347:249|369:265,2,56.2500021457673,0|10|0,0:0|1:1|0:0,0:0:0:0:
217,297,162953,2,0,P|187:326|163:337,1,56.2500021457673,10|0,2:2|0:0,0:0:0:0:
64,320,163214,6,0,L|56:202,1,112.500004291535,10|0,2:2|0:0,0:0:0:0:
50,118,163606,1,10,2:2:0:0:
73,96,163736,2,0,L|132:100,1,56.2500021457673,8|0,1:1|0:0,0:0:0:0:
188,189,163997,2,0,L|247:185,1,56.2500021457673,2|0,2:2|0:0,0:0:0:0:
361,115,164258,6,0,P|347:165|371:226,1,112.500004291535,2|8,2:2|2:2,0:0:0:0:
464,271,164649,1,2,2:2:0:0:
490,293,164779,2,0,P|499:322|486:355,1,56.2500021457673,8|0,1:1|0:0,0:0:0:0:
384,384,165040,2,0,L|317:378,1,56.2500021457673,10|0,2:2|0:0,0:0:0:0:
243,295,165301,6,0,P|233:231|248:174,1,112.500004291535,10|0,2:2|0:0,0:0:0:0:
325,128,165693,1,8,2:2:0:0:
361,115,165823,1,8,1:1:0:0:
151,157,166084,6,0,P|86:150|35:120,1,112.500004291535,2|2,2:2|2:2,0:0:0:0:
0,44,166475,1,0,0:0:0:0:
13,14,166606,2,0,L|77:12,1,56.2500021457673,8|0,2:2|0:0,0:0:0:0:
192,6,166866,1,8,1:1:0:0:
192,6,166997,1,8,2:2:0:0:
254,78,167127,6,0,L|252:142,2,56.2500021457673,10|2|2,2:2|2:2|2:2,0:0:0:0:
320,13,167910,1,2,2:2:0:0:
254,78,168171,1,0,3:2:0:0:
254,78,168301,1,0,3:2:0:0:
319,144,168432,6,0,B|348:146|375:129|385:103|385:103|395:74|424:59|452:63,2,168.750006437302,10|8|10,2:2|2:2|2:2,0:0:0:0:
159,98,169475,6,0,L|152:161,1,60,14|0,2:2|2:2,0:0:0:0:
142,245,169736,1,2,2:2:0:0:
129,332,169866,2,0,L|184:326|191:331|246:325,1,120,10|0,2:2|0:0,0:0:0:0:
354,277,170258,6,0,L|347:340,1,60,8|0,2:2|2:2,0:0:0:0:
430,384,170519,1,2,2:2:0:0:
512,336,170649,2,0,L|505:276,1,60,0|8,2:2|2:2,0:0:0:0:
491,179,170910,2,0,L|431:174,1,60,2|8,2:2|1:1,0:0:0:0:
369,97,171171,1,2,2:2:0:0:
306,19,171301,2,0,L|251:24|244:30|189:35,1,120,10|10,2:2|2:2,0:0:0:0:
0,55,171823,6,0,L|70:48,1,60,2|10,2:2|2:2,0:0:0:0:
136,153,172084,2,0,L|66:146,1,60,10|2,1:1|2:2,0:0:0:0:
18,220,172345,1,8,2:2:0:0:
18,220,172475,1,0,2:2:0:0:
84,295,172606,6,0,L|154:288,1,60,2|0,2:2|0:0,0:0:0:0:
212,222,172866,2,0,L|282:229,1,60,10|0,2:2|0:0,0:0:0:0:
389,244,173127,1,10,1:1:0:0:
389,244,173258,1,2,2:2:0:0:
334,174,173388,1,10,2:2:0:0:
334,174,173519,2,0,L|339:120|347:112|352:58,1,120,2|0,2:2|0:0,0:0:0:0:
451,0,173910,6,0,L|457:64,1,60,2|8,2:2|2:2,0:0:0:0:
467,155,174171,1,10,1:1:0:0:
477,250,174301,2,0,L|417:244,1,60,2|8,2:2|2:2,0:0:0:0:
308,336,174562,6,0,L|367:330,2,60,2|10|0,2:2|2:2|2:2,0:0:0:0:
214,348,174953,1,2,2:2:0:0:
214,348,175084,1,8,2:2:0:0:
120,360,175214,6,0,P|83:344|59:269,1,120,10|10,1:1|2:2,0:0:0:0:
99,198,175606,1,0,0:0:0:0:
99,198,175736,5,10,2:2:0:0:
141,116,175866,2,0,L|212:127,1,60,2|10,2:2|2:2,0:0:0:0:
269,184,176127,1,0,2:2:0:0:
337,242,176258,2,0,L|408:231,2,60,10|2|10,1:1|2:2|2:2,0:0:0:0:
278,311,176649,1,0,2:2:0:0:
207,248,176779,6,0,L|174:198|187:140,1,120,2|10,2:2|2:2,0:0:0:0:
262,76,177171,1,2,2:2:0:0:
356,119,177301,2,0,L|365:173|361:182|369:236,1,120,10|2,1:1|2:2,0:0:0:0:
392,348,177693,1,10,1:1:0:0:
392,348,177823,6,0,L|333:358|282:321,1,120,14|0,2:2|0:0,0:0:0:0:
216,268,178214,1,8,2:2:0:0:
216,268,178345,1,8,1:1:0:0:
136,382,178606,6,0,L|131:317,1,60,10|2,2:2|2:2,0:0:0:0:
221,208,178866,2,0,L|216:267,1,60,2|2,2:2|2:2,0:0:0:0:
304,338,179127,2,0,L|308:384,2,30,10|2|2,2:2|2:2|2:2,0:0:0:0:
377,265,179388,2,0,L|432:256|439:259|494:250,1,120,10|10,1:1|2:2,0:0:0:0:
475,155,179779,1,2,2:2:0:0:
470,123,179910,6,0,L|459:57,1,60,10|0,2:2|0:0,0:0:0:0:
383,8,180171,1,2,2:2:0:0:
351,19,180301,1,10,2:2:0:0:
319,30,180432,2,0,L|308:96,1,60,10|0,1:1|0:0,0:0:0:0:
222,140,180693,1,10,2:2:0:0:
190,129,180823,2,0,L|179:63,1,60,2|0,2:2|0:0,0:0:0:0:
98,6,181084,5,2,2:2:0:0:
66,17,181214,1,10,2:2:0:0:
34,28,181345,1,2,2:2:0:0:
2,39,181475,2,0,L|-6:95|-2:103|-8:160,1,120,10|8,1:1|2:2,0:0:0:0:
131,382,181997,6,0,L|120:296|126:285|115:199,1,180,10|8,2:2|2:2,0:0:0:0:
199,125,182519,1,8,1:1:0:0:
388,175,182779,1,2,2:2:0:0:
385,208,182910,2,0,L|316:215,1,60,2|0,2:2|0:0,0:0:0:0:
242,282,183171,1,2,2:2:0:0:
245,315,183301,2,0,L|299:320|307:327|361:332,2,120,10|8|10,2:2|1:1|2:2,0:0:0:0:
72,379,184084,6,0,P|87:321|72:248,1,120,10|0,2:2|0:0,0:0:0:0:
8,197,184475,1,10,2:2:0:0:
69,122,184606,2,0,L|139:126,1,60,8|0,1:1|0:0,0:0:0:0:
229,197,184866,2,0,L|221:142|225:134|217:79,2,120,2|2|10,2:2|2:2|2:2,0:0:0:0:
430,141,185649,2,0,P|375:162|317:150,1,120,10|10,1:1|2:2,0:0:0:0:
224,0,186171,6,0,B|237:22|235:47|224:67|224:67|210:88|211:114|223:134,2,140.625,6|2|2,2:2|2:2|2:2,0:0:0:0:
0,212,187214,2,2,L|88:216|96:210|185:214,2,187.5,2|2|6,2:2|2:2|2:2,2:2:0:0:
256,192,200779,12,0,202866,0:0:0:0:
512,0,203910,6,0,L|507:93,1,82.5000025177003,2|2,2:2|2:2,0:0:0:0:
375,151,204431,2,0,L|380:244,1,82.5000025177003,2|2,2:2|2:2,0:0:0:0:
512,384,204953,6,0,L|445:376,1,60,10|0,2:2|0:0,0:0:0:0:
333,360,205214,1,2,2:2:0:0:
300,354,205344,2,0,L|294:299|286:292|280:237,1,120,10|0,2:2|0:0,0:0:0:0:
268,131,205736,2,0,P|239:108|154:114,2,120,10|2|10,2:2|2:2|2:2,0:0:0:0:
194,302,206518,1,10,1:1:0:0:
83,153,206779,1,10,2:2:0:0:
280,238,207040,6,0,P|316:233|372:169,1,120,2|0,2:2|0:0,0:0:0:0:
362,65,207431,2,0,P|347:98|375:179,1,120,10|0,2:2|0:0,0:0:0:0:
470,222,207823,1,10,2:2:0:0:
266,123,208084,2,0,L|209:127|205:131|148:135,1,120,2|8,2:2|2:2,0:0:0:0:
48,347,208605,2,0,P|67:320|76:230,1,120,10|8,1:1|2:2,0:0:0:0:
0,46,209127,6,0,L|62:50,1,60,10|0,2:2|0:0,0:0:0:0:
115,139,209388,1,2,2:2:0:0:
148,135,209518,2,0,L|205:131|209:127|266:123,1,120,10|0,2:2|0:0,0:0:0:0:
333,52,209910,1,10,2:2:0:0:
501,174,210171,6,0,P|467:170|431:184,1,60,10|0,2:2|0:0,0:0:0:0:
369,258,210431,1,2,2:2:0:0:
338,275,210562,2,0,P|304:279|240:230,1,120,10|0,2:2|0:0,0:0:0:0:
209,127,210953,1,10,2:2:0:0:
211,94,211084,1,2,2:2:0:0:
213,61,211214,6,0,L|336:52,1,120,10|10,2:2|2:2,0:0:0:0:
141,202,211736,2,0,L|18:193,1,120,10|10,1:1|2:2,0:0:0:0:
248,363,212258,6,0,P|267:311|244:253,1,120,2|8,2:2|2:2,0:0:0:0:
141,202,212649,1,2,2:2:0:0:
118,179,212779,2,0,P|113:148|132:112,1,60,8|8,1:1|2:2,0:0:0:0:
242,85,213040,2,0,P|246:54|227:18,1,60,2|0,2:2|0:0,0:0:0:0:
130,3,213301,6,0,L|77:10|70:21|17:28,1,120,14|0,2:2|0:0,0:0:0:0:
0,124,213692,2,0,L|53:131|60:142|113:149,1,120,10|0,2:2|0:0,0:0:0:0:
168,225,214084,1,10,2:2:0:0:
78,384,214344,2,0,P|70:335|91:258,1,120,2|8,2:2|2:2,0:0:0:0:
209,146,214866,1,10,1:1:0:0:
329,268,215127,1,10,2:2:0:0:
351,290,215258,1,2,2:2:0:0:
373,312,215388,6,0,L|504:302,1,120,10|0,2:2|0:0,0:0:0:0:
512,214,215779,2,0,L|381:204,1,120,10|0,2:2|0:0,0:0:0:0:
336,136,216171,1,2,2:2:0:0:
166,205,216431,2,0,P|223:222|279:204,1,120,2|8,2:2|2:2,0:0:0:0:
394,68,216953,1,10,1:1:0:0:
218,35,217214,1,10,2:2:0:0:
42,2,217475,6,0,P|24:60|36:121,1,120,10|0,2:2|0:0,0:0:0:0:
106,182,217866,2,0,P|124:240|112:301,1,120,10|0,2:2|0:0,0:0:0:0:
41,363,218258,1,10,2:2:0:0:
201,337,218518,5,2,2:2:0:0:
361,311,218779,1,10,2:2:0:0:
361,311,218910,1,2,2:2:0:0:
512,368,219171,1,2,2:2:0:0:
512,368,219301,1,10,2:2:0:0:
201,337,219823,6,0,L|206:263,1,65.6250006258488,10|0,2:2|0:0,0:0:0:0:
299,207,220084,2,0,L|294:133,1,65.6250006258488,10|10,1:1|2:2,0:0:0:0:
215,80,220344,1,2,3:2:0:0:
215,80,220475,1,2,3:2:0:0:
286,13,220605,6,0,L|345:17|349:22|352:27|411:31,1,131.250001251698,10|8,2:2|2:2,0:0:0:0:
299,207,221127,1,10,1:1:0:0:
259,207,221258,1,8,2:2:0:0:
219,209,221388,1,8,1:1:0:0:
180,211,221518,1,8,1:1:0:0:
140,213,221649,6,0,P|105:169|112:105,1,120,14|0,2:2|0:0,0:0:0:0:
187,30,222040,2,0,P|166:81|107:107,1,120,10|0,2:2|0:0,0:0:0:0:
4,79,222431,1,10,2:2:0:0:
140,213,222692,2,0,L|195:208|201:215|257:211,1,120,2|8,2:2|2:2,0:0:0:0:
336,75,223214,2,0,L|331:135,1,60,10|0,1:1|0:0,0:0:0:0:
410,201,223475,2,0,L|414:262,1,60,10|0,2:2|0:0,0:0:0:0:
364,348,223736,6,0,P|307:364|250:346,1,120,10|0,2:2|0:0,0:0:0:0:
170,299,224127,2,0,P|127:284|55:303,1,120,10|0,2:2|0:0,0:0:0:0:
0,368,224518,1,10,2:2:0:0:
78,81,224779,5,2,2:2:0:0:
124,190,225040,1,10,2:2:0:0:
312,110,225301,1,10,1:1:0:0:
194,95,225562,1,10,2:2:0:0:
241,205,225823,6,0,L|309:207,1,60,10|0,2:2|0:0,0:0:0:0:
364,283,226084,1,2,2:2:0:0:
397,281,226214,2,0,L|453:279|457:272|513:270,1,120,10|0,2:2|0:0,0:0:0:0:
496,356,226605,1,10,2:2:0:0:
413,195,226866,6,0,P|407:162|416:133,1,60,10|0,2:2|0:0,0:0:0:0:
490,70,227127,1,2,2:2:0:0:
462,49,227258,2,0,P|421:37|346:62,1,120,10|0,2:2|0:0,0:0:0:0:
303,146,227649,1,10,2:2:0:0:
131,51,227910,6,0,L|268:64,1,120,10|0,2:2|0:0,0:0:0:0:
355,229,228431,1,10,1:1:0:0:
448,55,228692,1,10,2:2:0:0:
254,175,228953,6,0,L|208:205|206:215|160:244,1,120,10|8,2:2|2:2,0:0:0:0:
76,201,229344,2,0,L|23:174,2,60,2|8|8,2:2|1:1|2:2,0:0:0:0:
81,294,229736,2,0,L|84:354,1,60,2|0,2:2|0:0,0:0:0:0:
236,370,229997,6,0,P|247:309|223:246,1,120,14|0,2:2|0:0,0:0:0:0:
172,179,230388,2,0,P|160:118|184:55,1,120,10|0,2:2|0:0,0:0:0:0:
247,8,230779,1,10,2:2:0:0:
448,31,231040,2,0,L|392:38|388:44|332:52,1,120,2|8,2:2|2:2,0:0:0:0:
461,135,231562,2,0,L|468:196,1,60,10|0,1:1|0:0,0:0:0:0:
387,243,231823,2,0,L|379:304,1,60,10|0,2:2|0:0,0:0:0:0:
309,368,232084,6,0,P|257:370|196:327,1,120,10|0,2:2|0:0,0:0:0:0:
55,270,232475,2,0,P|107:272|168:229,1,120,10|0,2:2|0:0,0:0:0:0:
194,146,232866,1,10,2:2:0:0:
4,10,233127,6,0,B|34:-1|67:8|86:30|86:30|107:56|139:62|167:51,1,180,2|0,2:2|0:0,0:0:0:0:
264,13,233649,2,0,L|262:78,1,60,10|0,1:1|0:0,0:0:0:0:
194,146,233910,2,0,L|196:211,1,60,10|0,2:2|0:0,0:0:0:0:
202,299,234171,6,0,L|287:297|294:290|379:288,1,180,10|0,2:2|0:0,0:0:0:0:
470,285,234692,1,8,1:1:0:0:
455,70,234953,2,0,P|423:65|394:76,1,60,10|0,2:2|0:0,0:0:0:0:
316,133,235214,6,0,P|252:140|205:106,1,120,10|0,2:2|0:0,0:0:0:0:
173,5,235605,2,0,P|211:56|205:114,1,120,10|0,2:2|0:0,0:0:0:0:
133,191,235997,2,0,P|158:132|211:108,1,120,10|2,2:2|3:2,0:0:0:0:
370,204,236518,6,0,L|364:264|356:271|350:331,1,131.250001251698,10|8,2:2|1:1,0:0:0:0:
250,351,236910,2,0,L|244:291|236:284|230:224,1,131.250001251698,10|0,2:2|3:2,0:0:0:0:
133,191,237301,2,0,L|127:251|119:258|113:318,1,131.250001251698,10|2,2:2|2:2,0:0:0:0:
23,353,237692,1,10,2:2:0:0:
23,353,237823,5,10,1:1:0:0:
18,252,238084,1,10,2:2:0:0:
13,151,238344,1,2,2:2:0:0:
232,118,239127,5,2,2:2:0:0:
326,186,239388,2,0,P|384:181|427:151,2,112.5,2|2|2,2:2|2:2|2:2,0:0:0:0:
232,118,240431,1,2,2:2:0:0:
132,46,240692,6,0,L|118:159,1,112.500004291535,10|8,0:0|1:0,0:0:0:0:
40,189,241084,2,0,L|54:302,1,112.500004291535,10|0,0:0|0:0,0:0:0:0:
98,371,241475,2,0,P|126:384|209:359,1,112.500004291535,10|2,0:0|0:0,0:0:0:0:
240,297,241866,1,2,0:0:0:0:
240,297,241997,1,2,0:0:0:0:
