osu file format v14

[General]
AudioFilename: audio.mp3
AudioLeadIn: 0
PreviewTime: 102106
Countdown: 0
SampleSet: Soft
StackLeniency: 0.4
Mode: 0
LetterboxInBreaks: 0
WidescreenStoryboard: 1

[Editor]
Bookmarks: 241997,246692
DistanceSpacing: 1.2
BeatDivisor: 8
GridSize: 8
TimelineZoom: 1.7

[Metadata]
Title:Kanashikute lulululu -Hasaka ver.-
TitleUnicode:悲しくて lulululu -ハーサカver.-
Artist:Hayasaka Ai (CV: Hanamori Yumiri)
ArtistUnicode:早坂愛 (CV: 花守ゆみり)
Creator:Heratikus
Version:Insane
Source:かぐや様は告らせたい-ウルトラロマンティック-
Tags:japanese pop jpop j-pop female vocal vocals vocalist anime kaguya-sama wa kokurasetai tensai-tachi no renai zunousen kaguya sama love is war ultra romantic season 3 aitakute 会いたくて kana nishino 西野カナ
BeatmapID:3721946
BeatmapSetID:1802471

[Difficulty]
HPDrainRate:5
CircleSize:4.2
OverallDifficulty:8
ApproachRate:9
SliderMultiplier:1.8
SliderTickRate:1

[Events]
//Background and Video events
0,0,"hayasakaresize.jpg",0,0
//Break Periods
2,192631,195484
//Storyboard Layer 0 (Background)
//Storyboard Layer 1 (Fail)
//Storyboard Layer 2 (Pass)
//Storyboard Layer 3 (Foreground)
//Storyboard Layer 4 (Overlay)
//Storyboard Sound Samples

[TimingPoints]
4041,535.714285714286,4,2,1,40,1,0
8327,545.454545454546,4,2,1,40,1,0
10508,571.428571428571,4,2,1,50,1,0
11079,600,4,2,1,45,1,0
11679,800,4,2,1,40,1,0
12479,1090.90909090909,4,2,1,40,1,0
13569,705.882352941176,4,2,1,40,1,0
13923,882.352941176471,4,2,1,40,1,0
14364,666.666666666667,4,2,1,40,1,0
16607,521.739130434783,4,2,1,45,1,0
17128,521.739130434783,4,2,2,50,1,0
17128,-100,4,2,2,50,0,0
25475,-80,4,2,2,55,0,0
31997,-57.1428571428571,4,2,1,70,0,1
33562,-57.1428571428571,4,2,1,70,0,0
33823,-62.5,4,2,1,70,0,1
48171,-62.5,4,2,1,70,0,0
48432,-62.5,4,2,1,30,0,0
48693,-57.1428571428571,4,2,1,70,0,1
49997,-66.6666666666667,4,2,1,60,0,0
50519,-100,4,2,1,50,0,0
67214,-90.9090909090909,4,2,1,55,0,0
96432,-80,4,2,1,60,0,0
98519,-90.9090909090909,4,2,1,65,0,0
102693,521.739130434783,4,2,1,70,1,1
102693,-62.5,4,2,1,70,0,1
117040,-62.5,4,2,1,70,0,0
117301,-62.5,4,2,1,30,0,0
117562,-57.1428571428571,4,2,1,70,0,1
118866,-66.6666666666667,4,2,1,60,0,0
119388,-90.9090909090909,4,2,1,50,0,0
148606,-80,4,2,1,60,0,0
152779,-66.6666666666667,4,2,1,65,0,0
167388,-200,4,2,1,65,0,0
168432,-66.6666666666667,4,2,1,65,0,0
169475,-62.5,4,2,1,70,0,1
186171,-80,4,2,1,60,0,0
188258,521.739130434783,4,2,2,50,1,0
188258,-200,4,2,2,50,0,0
196605,-133.333333333333,4,2,1,55,0,0
201823,-114.285714285714,4,2,1,60,0,0
202344,-100,4,2,1,65,0,0
203127,-90.9090909090909,4,2,1,70,0,0
204953,-62.5,4,2,1,75,0,1
219301,-62.5,4,2,1,75,0,0
219562,-62.5,4,2,1,40,0,0
219823,-57.1428571428571,4,2,1,75,0,1
221518,-57.1428571428571,4,2,1,75,0,0
221649,-62.5,4,2,1,75,0,1
235997,-62.5,4,2,1,75,0,0
236258,-62.5,4,2,1,30,0,0
236518,-57.1428571428571,4,2,1,75,0,1
237823,-80,4,2,1,50,0,1
238344,-133.333333333333,4,2,1,40,0,0
239127,-100,4,2,1,50,0,0
240692,-66.6666666666667,4,2,1,65,0,1
241997,-100,4,2,1,50,0,0

[Colours]
Combo1 : 115,88,165
Combo2 : 244,222,94
Combo3 : 64,169,225
Combo4 : 211,148,84

[HitObjects]
0,0,16607,5,2,2:2:0:0:
9,30,16867,1,2,2:2:0:0:
18,60,17128,2,0,L|115:63,1,90,6|0,2:2|2:2,0:0:0:0:
177,127,17519,2,0,L|274:124,1,90,2|0,2:2|0:0,0:0:0:0:
323,190,17910,5,2,2:2:0:0:
332,67,18171,1,2,2:2:0:0:
323,190,18432,1,2,2:2:0:0:
314,313,18693,1,2,2:2:0:0:
426,260,18954,1,2,2:2:0:0:
286,328,19214,6,0,B|262:335|239:326|224:311|224:311|207:292|183:286|161:293,2,135,2|2|2,2:2|2:2|2:2,0:0:0:0:
452,240,20258,1,2,2:2:0:0:
232,85,20780,6,0,L|295:82|301:76|364:73,1,135,2|0,2:2|0:0,0:0:0:0:
448,28,21301,2,0,L|443:122,1,90,2|2,2:2|2:2,0:0:0:0:
370,155,21693,1,2,2:2:0:0:
370,155,22084,5,2,2:2:0:0:
460,325,22345,2,0,L|455:231,1,90,2|2,2:2|2:2,0:0:0:0:
394,175,22736,1,2,2:2:0:0:
329,359,23128,6,0,P|307:363|272:354,1,45,2|2,2:2|2:2,0:0:0:0:
215,303,23388,1,2,2:2:0:0:
189,105,23649,1,2,2:2:0:0:
144,211,23910,1,2,2:2:0:0:
259,196,24171,1,2,2:2:0:0:
30,227,24432,6,0,B|19:248|20:273|31:291|31:291|42:312|42:336|33:355,2,135,2|2|2,2:2|2:2|2:2,0:0:0:0:
189,105,25475,6,0,L|305:94,1,112.5,2|0,2:2|0:0,0:0:0:0:
401,173,25867,2,0,L|517:184,1,112.5,2|0,2:2|0:0,0:0:0:0:
374,171,26258,1,2,2:2:0:0:
512,0,26519,2,0,L|400:10,1,112.5,2|0,2:2|0:0,0:0:0:0:
246,100,27041,1,2,2:2:0:0:
374,171,27301,1,2,2:2:0:0:
401,173,27432,1,2,2:2:0:0:
428,175,27562,6,0,P|462:209|467:283,1,112.5,2|0,2:2|0:0,0:0:0:0:
300,345,27954,2,0,P|317:293|362:261,1,112.5,2|0,2:2|0:0,0:0:0:0:
470,270,28345,1,2,2:2:0:0:
306,378,28606,2,0,P|252:389|201:367,1,112.5,2|0,2:2|2:2,0:0:0:0:
154,183,29128,1,2,2:2:0:0:
269,252,29388,1,2,2:2:0:0:
86,298,29649,6,0,P|75:320|76:358,2,56.25,2|0|0,2:2|2:2|2:2,0:0:0:0:
214,259,30041,2,0,L|263:248|273:254|322:243,1,112.5,2|0,2:2|0:0,0:0:0:0:
420,248,30432,2,0,L|406:193,1,56.25,2|0,2:2|0:0,0:0:0:0:
437,85,30693,6,0,P|414:101|322:90,1,112.5,2|0,2:2|2:2,0:0:0:0:
280,23,31084,2,0,P|257:6|164:18,1,112.5,2|0,2:2|2:2,0:0:0:0:
113,66,31475,1,2,2:2:0:0:
232,381,31997,6,0,B|231:354|248:328|276:321|276:321|300:313|319:291|319:262,1,157.500001502037,10|8,2:2|1:1,0:0:0:0:
277,164,32388,1,8,2:2:0:0:
170,150,32519,2,0,P|140:111|141:80,1,78.7500007510185,2|0,2:2|0:0,0:0:0:0:
273,0,32780,6,0,L|368:15,1,78.7500007510185,10|8,2:2|1:1,0:0:0:0:
415,80,33041,1,10,2:2:0:0:
354,151,33171,2,0,L|276:163,1,78.7500007510185,2|8,2:2|1:1,0:0:0:0:
205,257,33432,5,8,2:2:0:0:
182,92,33562,1,10,1:1:0:0:
276,163,33693,1,8,1:1:0:0:
111,185,33823,6,0,P|87:247|111:326,1,144,14|0,2:2|0:0,0:0:0:0:
228,334,34214,1,10,2:2:0:0:
282,234,34345,2,0,L|276:163,1,72,8|0,1:1|0:0,0:0:0:0:
188,20,34606,2,0,L|181:94,1,72,10|0,2:2|0:0,0:0:0:0:
96,213,34867,2,0,P|35:179|17:105,1,144,2|8,2:2|2:2,2:2:0:0:
16,110,35258,1,0,0:0:0:0:
157,10,35388,2,0,P|122:3|89:13,1,72,10|0,1:1|0:0,0:0:0:0:
195,146,35649,2,0,P|231:157|274:142,1,72,10|0,2:2|0:0,0:0:0:0:
349,29,35910,6,0,L|357:95|365:102|373:168,1,144,10|0,2:2|0:0,0:0:0:0:
475,278,36301,2,0,L|483:206,2,72,10|8|0,2:2|1:1|0:0,0:0:0:0:
404,345,36693,2,0,P|367:358|325:343,1,72,10|0,2:2|0:0,0:0:0:0:
212,219,36954,2,0,P|241:244|216:336,1,144,2|8,2:2|2:2,0:0:0:0:
217,335,37345,1,0,0:0:0:0:
78,335,37475,2,0,L|83:269|75:259|81:193,1,144,10|8,1:1|2:2,0:0:0:0:
81,194,37867,1,0,0:0:0:0:
159,101,37997,6,0,P|115:105|83:84,1,72,10|0,2:2|0:0,0:0:0:0:
33,26,38258,1,2,2:2:0:0:
187,87,38388,2,0,B|208:102|217:127|213:150|213:150|207:175|219:200|239:212,1,144,10|0,2:2|0:0,0:0:0:0:
364,201,38780,2,0,P|399:195|431:209,1,72,10|0,2:2|0:0,0:0:0:0:
467,340,39041,6,0,L|377:349,1,72,10|0,2:2|0:0,0:0:0:0:
287,358,39301,1,2,2:2:0:0:
239,212,39432,2,0,L|217:270|204:283|183:342,1,144,10|0,2:2|0:0,0:0:0:0:
26,307,39823,2,0,L|116:298,1,72,10|0,2:2|0:0,0:0:0:0:
239,212,40084,2,0,L|176:205|170:199|164:192|101:185,1,144,10|8,2:2|2:2,0:0:0:0:
101,185,40475,1,0,0:0:0:0:
23,77,40606,2,0,L|94:69,1,72,10|0,1:1|0:0,0:0:0:0:
265,7,40867,2,0,L|194:0,1,72,10|0,2:2|0:0,0:0:0:0:
447,21,41128,6,0,P|394:44|379:134,1,144,10|8,2:2|2:2,0:0:0:0:
512,227,41519,1,2,2:2:0:0:
350,246,41649,2,0,P|377:222|412:214,1,72,8|8,1:1|2:2,0:0:0:0:
329,343,41910,2,0,P|295:332|270:306,1,72,2|0,2:2|0:0,0:0:0:0:
424,313,42171,6,0,B|435:336|433:362|420:382|420:382|443:369|455:346|457:323,1,144,14|0,2:2|0:0,0:0:0:0:
424,121,42562,2,0,P|455:103|492:104,2,72,10|8|0,2:2|1:1|0:0,0:0:0:0:
314,212,42954,2,0,P|282:228|246:227,1,72,10|0,2:2|0:0,0:0:0:0:
322,72,43214,2,0,L|314:135|323:149|315:212,1,144,2|8,2:2|2:2,0:0:0:0:
314,212,43606,1,0,0:0:0:0:
198,137,43736,2,0,L|117:142,1,72,10|0,1:1|0:0,0:0:0:0:
19,266,43997,2,0,L|100:271,1,72,10|0,2:2|0:0,0:0:0:0:
223,384,44258,6,0,P|202:345|216:249,1,144,10|0,2:2|0:0,0:0:0:0:
342,190,44649,2,0,P|325:152|324:120,2,72,10|8|0,2:2|1:1|0:0,0:0:0:0:
481,222,45041,2,0,P|497:259|498:291,1,72,10|0,2:2|0:0,0:0:0:0:
348,384,45301,6,0,L|282:370|272:374|207:360,1,144,2|8,2:2|2:2,0:0:0:0:
70,264,45693,2,0,L|0:279,2,72,2|8|0,2:2|1:1|0:0,0:0:0:0:
198,159,46084,2,0,L|268:174,1,72,10|0,2:2|0:0,0:0:0:0:
401,271,46345,6,0,P|387:199|455:146,1,144,10|0,2:2|0:0,0:0:0:0:
431,151,46736,1,8,2:2:0:0:
495,297,46867,2,0,L|424:292,1,72,8|0,1:1|0:0,0:0:0:0:
238,308,47128,6,0,P|252:269|243:235,1,72,10|0,2:2|0:0,0:0:0:0:
73,185,47388,2,0,P|111:199|172:107,1,144,10|0,2:2|0:0,0:0:0:0:
87,75,47780,2,0,P|72:36|81:2,2,72,10|8|0,2:2|1:1|0:0,0:0:0:0:
179,138,48171,2,0,B|300:129|300:129|286:128|274:124|264:118,1,144,10|0,2:2|3:2,0:0:0:0:
277,124,48693,6,0,P|240:147|227:183,1,78.7500007510185,10|0,0:0|0:0,0:0:0:0:
242,273,48954,1,8,1:1:0:0:
102,309,49084,6,0,P|140:329|178:322,1,78.7500007510185,10|0,2:2|3:2,0:0:0:0:
248,264,49345,1,0,3:2:0:0:
350,368,49475,6,0,P|348:324|323:295,1,78.7500007510185,10|0,2:2|3:2,0:0:0:0:
238,263,49736,1,0,3:2:0:0:
173,324,49867,1,8,2:2:0:0:
87,298,49997,6,2,L|70:268|79:232,1,67.5000025749208,2|0,1:2|2:2,2:2:0:0:
141,152,50258,1,10,2:2:0:0:
141,152,50388,1,0,0:0:0:0:
81,76,50519,6,0,P|38:74|-3:101,2,90,14|0|0,2:2|0:0|0:0,0:0:0:0:
201,228,51301,1,2,2:2:0:0:
201,228,51432,1,2,2:2:0:0:
260,303,51562,2,0,P|303:305|344:278,1,90,2|0,2:2|0:0,0:0:0:0:
439,131,52084,1,2,2:2:0:0:
428,309,52345,1,10,2:2:0:0:
278,209,52606,6,0,B|256:199|231:204|214:216|214:216|194:230|169:232|149:224,2,135,10|2|2,2:2|2:2|2:2,0:0:0:0:
341,280,53649,1,2,2:2:0:0:
214,217,53910,1,10,2:2:0:0:
404,153,54171,1,10,1:1:0:0:
341,280,54432,1,2,2:2:0:0:
277,90,54693,6,0,L|181:84,2,90,10|0|0,2:2|0:0|0:0,0:0:0:0:
355,208,55475,1,10,2:2:0:0:
214,217,55736,2,0,L|118:223,2,90,10|0|0,2:2|0:0|0:0,0:0:0:0:
292,335,56519,1,2,2:2:0:0:
160,328,56780,2,0,L|64:322,2,90,10|0|0,2:2|0:0|0:0,0:0:0:0:
214,217,57562,5,2,2:2:0:0:
247,44,57823,1,2,2:2:0:0:
317,147,58084,5,8,2:2:0:0:
144,114,58345,1,8,1:1:0:0:
231,131,58606,1,2,2:2:0:0:
57,97,58867,6,0,P|41:137|51:182,1,90,10|0,2:2|0:0,0:0:0:0:
138,212,59258,2,0,P|154:252|144:297,1,90,2|0,2:2|0:0,0:0:0:0:
75,348,59649,1,10,2:2:0:0:
214,347,59910,2,0,L|305:345,1,90,10|0,2:2|0:0,0:0:0:0:
442,340,60432,1,2,2:2:0:0:
368,222,60693,1,2,2:2:0:0:
512,144,60954,6,0,P|476:153|425:138,1,90,10|0,2:2|0:0,0:0:0:0:
362,59,61345,2,0,P|326:50|275:65,1,90,2|0,2:2|0:0,0:0:0:0:
224,137,61736,1,10,2:2:0:0:
65,76,61997,6,0,L|162:80,1,90,2|8,2:2|2:2,0:0:0:0:
0,14,62519,1,8,1:1:0:0:
26,195,62780,2,0,L|20:151,1,45,2|2,2:2|2:2,0:0:0:0:
34,226,63041,2,0,B|57:249|92:251|116:233|116:233|142:214|178:218|198:240,1,180,10|0,2:2|0:0,0:0:0:0:
303,365,63823,6,0,P|281:366|261:358,1,45,2|2,2:2|2:2,0:0:0:0:
332,354,64084,2,0,L|336:265,1,90,2|0,2:2|0:0,0:0:0:0:
274,188,64475,2,0,L|270:99,1,90,2|0,2:2|0:0,0:0:0:0:
345,31,64867,1,10,2:2:0:0:
482,160,65128,2,0,B|475:129|488:98|512:80|512:80|487:102|454:105|427:92,1,180,10|0,2:2|0:0,0:0:0:0:
300,31,65910,2,0,L|345:31,1,45,10|0,2:2|0:0,0:0:0:0:
428,92,66171,1,2,2:2:0:0:
345,153,66432,5,8,2:2:0:0:
200,38,66693,1,8,1:1:0:0:
215,168,66954,2,0,L|220:212,1,45,10|0,2:2|0:0,0:0:0:0:
142,110,67214,6,0,B|106:107|75:126|61:157|61:157|46:189|14:206|-16:204,1,198.000006042481,14|8,2:2|1:1,0:0:0:0:
114,253,67997,2,0,L|167:256,1,49.5000015106202,2|0,2:2|0:0,0:0:0:0:
288,226,68258,2,0,L|273:328,1,99.0000030212403,2|8,2:2|2:2,0:0:0:0:
269,137,68780,2,0,P|294:133|324:143,1,49.5000015106202,10|0,1:1|0:0,0:0:0:0:
374,255,69041,2,0,P|399:259|429:249,1,49.5000015106202,2|0,2:2|0:0,0:0:0:0:
487,172,69301,6,0,L|475:74,1,99.0000030212403,10|0,2:2|0:0,0:0:0:0:
385,12,69693,2,0,L|287:0,1,99.0000030212403,2|0,2:2|0:0,0:0:0:0:
201,44,70084,2,0,L|195:93,1,49.5000015106202,2|2,2:2|2:2,0:0:0:0:
111,149,70345,2,0,L|117:198,1,49.5000015106202,2|2,2:2|2:2,0:0:0:0:
177,259,70606,1,10,2:2:0:0:
105,61,70867,1,8,1:1:0:0:
42,196,71128,2,0,L|20:242,1,49.5000015106202,2|0,2:2|0:0,0:0:0:0:
43,336,71388,6,0,P|93:357|142:339,1,99.0000030212403,10|0,2:2|0:0,0:0:0:0:
134,344,71780,1,0,0:0:0:0:
172,269,71910,1,8,1:1:0:0:
310,329,72171,2,0,P|337:336|373:330,1,49.5000015106202,2|0,2:2|0:0,0:0:0:0:
438,270,72432,6,0,L|455:223|433:178,1,99.0000030212404,2|8,2:2|2:2,0:0:0:0:
433,178,72823,1,0,0:0:0:0:
390,103,72954,1,8,1:1:0:0:
266,182,73214,2,0,L|210:183,1,49.5000015106202,2|0,2:2|0:0,0:0:0:0:
110,141,73475,6,0,P|105:85|128:44,1,99.0000030212403,10|0,2:2|0:0,0:0:0:0:
212,15,73867,2,0,P|166:47|118:47,1,99.0000030212403,2|0,2:2|0:0,0:0:0:0:
0,0,74258,2,0,L|7:90|-3:104|4:194,1,198.000006042481,10|8,2:2|2:2,0:0:0:0:
0,0,75041,1,8,1:1:0:0:
110,141,75301,2,0,P|134:149|169:142,1,49.5000015106202,2|0,2:2|0:0,0:0:0:0:
241,41,75562,6,0,L|353:34,1,99.0000030212403,10|0,2:2|0:0,0:0:0:0:
384,120,75954,2,0,L|496:127,1,99.0000030212403,2|0,2:2|0:0,0:0:0:0:
512,22,76345,1,10,2:2:0:0:
353,129,76606,2,0,P|337:168|348:228,1,99.0000030212403,2|8,2:2|2:2,0:0:0:0:
461,252,76997,2,0,P|477:291|466:351,1,99.0000030212403,2|0,2:2|0:0,0:0:0:0:
393,384,77388,1,10,2:2:0:0:
207,366,77649,6,0,L|196:254,1,99.0000030212403,10|0,2:2|0:0,0:0:0:0:
94,213,78041,2,0,L|105:101,1,99.0000030212403,2|0,2:2|0:0,0:0:0:0:
176,48,78432,1,10,2:2:0:0:
106,242,78693,2,0,P|148:262|204:243,1,99.0000030212403,2|8,2:2|2:2,0:0:0:0:
250,145,79084,2,0,P|292:125|348:144,1,99.0000030212403,2|0,2:2|0:0,0:0:0:0:
408,204,79475,2,0,L|406:266,1,49.5000015106202,10|0,2:2|0:0,0:0:0:0:
311,298,79736,6,0,P|284:304|262:330,2,49.5000015106202,10|0|0,2:2|0:0|0:0,0:0:0:0:
398,358,80128,2,0,P|417:377|450:383,2,49.5000015106202,2|8|0,2:2|1:1|0:0,0:0:0:0:
406,252,80519,2,0,P|413:226|402:194,1,49.5000015106202,10|0,2:2|0:0,0:0:0:0:
339,55,80780,6,0,L|355:3,2,49.5000015106202,2|0|8,2:2|0:0|2:2,0:0:0:0:
375,169,81171,2,0,L|412:208,2,49.5000015106202,2|8|0,2:2|1:1|0:0,0:0:0:0:
258,143,81562,2,0,L|204:155,1,49.5000015106202,10|0,2:2|0:0,0:0:0:0:
81,87,81823,6,0,P|110:123|110:180,2,99.0000030212403,10|0|8,2:2|0:0|1:1,0:0:0:0:
50,244,82606,1,8,2:2:0:0:
171,350,82867,6,0,P|125:357|75:328,1,99.0000030212403,2|8,2:2|2:2,0:0:0:0:
246,275,83388,2,0,P|275:311|275:368,1,99.0000030212403,10|8,1:1|2:2,0:0:0:0:
218,261,83910,5,10,2:2:0:0:
331,217,84301,1,10,2:2:0:0:
444,173,84693,1,10,2:2:0:0:
409,251,84954,1,2,2:2:0:0:
365,138,85214,6,0,L|302:132,1,49.5000015106202,2|2,2:2|2:2,0:0:0:0:
245,61,85475,2,0,P|217:68|182:63,1,49.5000015106202,2|2,2:2|2:2,0:0:0:0:
133,5,85736,2,0,P|105:-2|70:3,1,49.5000015106202,2|2,2:2|2:2,0:0:0:0:
11,68,85997,5,10,2:2:0:0:
105,227,86388,1,10,2:2:0:0:
196,66,86780,1,10,2:2:0:0:
103,120,87041,1,2,2:2:0:0:
197,172,87301,2,0,L|246:172,2,49.5000015106202,2|2|10,2:2|2:2|1:1,0:0:0:0:
105,227,87823,2,0,P|93:256|98:281,1,49.5000015106202,2|0,2:2|0:0,0:0:0:0:
160,363,88084,5,10,2:2:0:0:
303,301,88345,2,0,L|296:245,1,49.5000015106202,2|0,2:2|0:0,0:0:0:0:
197,172,88606,2,0,L|204:116,1,49.5000015106202,10|0,1:1|0:0,0:0:0:0:
259,31,88867,6,0,P|285:25|322:33,1,49.5000015106202,10|0,2:2|0:0,0:0:0:0:
427,103,89128,2,0,P|401:97|364:105,1,49.5000015106202,10|2,2:2|2:2,0:0:0:0:
322,178,89388,1,2,2:2:0:0:
322,178,89519,1,2,2:2:0:0:
417,269,89649,2,0,L|406:217,1,49.5000015106202,10|0,1:1|0:0,0:0:0:0:
253,244,89910,2,0,P|250:269|262:306,1,49.5000015106202,2|0,2:2|0:0,0:0:0:0:
400,354,90171,6,0,P|459:353|492:315,1,99.0000030212403,10|0,2:2|0:0,0:0:0:0:
486,327,90562,1,10,2:2:0:0:
454,209,90693,2,0,L|406:220,1,49.5000015106202,8|0,1:1|0:0,0:0:0:0:
289,147,90954,2,0,P|312:139|337:145,1,49.5000015106202,10|0,2:2|0:0,0:0:0:0:
243,259,91214,5,2,2:2:0:0:
224,52,91475,1,10,2:2:0:0:
337,146,91736,1,10,1:1:0:0:
130,165,91997,2,0,P|108:162|82:148,1,49.5000015106202,10|0,2:2|0:0,0:0:0:0:
31,8,92258,6,0,L|143:-2,1,99.0000030212403,10|0,2:2|0:0,0:0:0:0:
224,52,92649,2,0,L|280:57,2,49.5000015106202,10|8|0,2:2|1:1|0:0,0:0:0:0:
139,117,93041,2,0,P|129:142|136:181,1,49.5000015106202,10|0,2:2|0:0,0:0:0:0:
207,249,93301,2,0,P|158:255|125:290,1,99.0000030212403,2|8,2:2|2:2,0:0:0:0:
125,289,93693,1,0,0:0:0:0:
215,364,93823,2,0,L|264:360,1,49.5000015106202,10|0,1:1|0:0,0:0:0:0:
317,261,94084,2,0,L|366:265,1,49.5000015106202,2|0,2:2|0:0,0:0:0:0:
512,367,94345,6,0,L|505:322|498:317|491:272,1,99.0000030212403,10|0,2:2|0:0,0:0:0:0:
425,154,94736,2,0,P|458:161|486:151,2,49.5000015106202,10|8|0,2:2|1:1|0:0,0:0:0:0:
364,53,95128,2,0,P|331:46|303:56,1,49.5000015106202,10|0,2:2|0:0,0:0:0:0:
192,177,95388,2,0,P|224:138|212:72,2,99.0000030212403,2|10|8,2:2|2:2|1:1,0:0:0:0:
0,159,96171,1,8,2:2:0:0:
95,0,96432,6,0,L|99:113,1,112.5,10|0,2:2|0:0,0:0:0:0:
192,177,96823,1,10,2:2:0:0:
189,266,96954,2,0,L|191:209,1,56.25,8|0,1:1|0:0,0:0:0:0:
298,328,97214,2,0,L|300:385,1,56.25,10|0,2:2|0:0,0:0:0:0:
452,303,97475,6,0,P|441:248|397:205,1,112.5,2|8,2:2|2:2,0:0:0:0:
282,166,97867,1,2,2:2:0:0:
403,208,97997,2,0,P|426:208|467:189,1,56.25,8|0,1:1|0:0,0:0:0:0:
251,155,98258,2,0,P|228:155|187:174,1,56.25,10|0,2:2|0:0,0:0:0:0:
245,352,98519,6,0,L|247:252,1,99.0000030212403,10|0,2:2|0:0,0:0:0:0:
343,106,98910,2,0,L|345:206,1,99.0000030212403,10|0,2:2|0:0,0:0:0:0:
254,36,99301,1,10,2:2:0:0:
437,95,99562,6,0,P|399:111|332:100,1,99.0000030212403,10|0,2:2|0:0,0:0:0:0:
159,25,99954,2,0,P|207:18|253:35,1,99.0000030212403,10|0,2:2|0:0,0:0:0:0:
89,139,100345,1,10,2:2:0:0:
89,139,100867,6,0,L|58:144,2,24.7500007553101,2|2|2,2:2|2:2|2:2,0:0:0:0:
146,92,101128,1,2,2:2:0:0:
215,118,101258,1,2,2:2:0:0:
271,71,101388,1,2,2:2:0:0:
339,96,101519,1,2,2:2:0:0:
395,50,101649,5,2,2:2:0:0:
441,106,101780,1,2,2:2:0:0:
385,152,101910,2,0,L|382:179,2,24.7500007553101,2|2|2,2:2|2:2|2:2,0:0:0:0:
372,250,102171,2,0,P|344:246|325:253,1,49.5000015106202,2|0,2:2|0:0,0:0:0:0:
265,360,102432,2,0,P|237:364|218:357,1,49.5000015106202,2|0,2:2|0:0,0:0:0:0:
108,316,102693,6,0,P|117:274|106:236,1,72,14|0,2:2|0:0,0:0:0:0:
0,201,102953,1,2,2:2:0:0:
206,173,103084,2,0,L|271:164|279:172|345:163,1,144,10|0,2:2|0:0,0:0:0:0:
479,63,103475,6,0,P|468:108|447:130,1,72,10|0,2:2|0:0,0:0:0:0:
299,60,103736,2,0,P|332:48|368:54,1,72,2|0,2:2|0:0,0:0:0:0:
387,218,103997,2,0,P|353:185|344:156,1,72,10|0,2:2|0:0,0:0:0:0:
209,101,104258,2,0,L|205:178,1,72,10|0,1:1|0:0,0:0:0:0:
278,263,104519,2,0,L|282:340,1,72,10|0,2:2|0:0,0:0:0:0:
61,384,104779,6,0,P|46:348|77:248,1,144,10|0,2:2|0:0,0:0:0:0:
73,251,105171,1,10,0:0:0:0:
242,196,105301,2,0,L|165:202,1,72,8|0,1:0|0:0,0:0:0:0:
25,112,105562,2,0,L|102:118,1,72,10|0,2:2|0:0,0:0:0:0:
253,64,105823,2,0,L|220:128|244:202,1,144,2|8,2:2|2:2,0:0:0:0:
242,196,106214,1,0,0:0:0:0:
389,309,106345,2,0,P|439:321|517:262,1,144,10|8,1:1|2:2,0:0:0:0:
511,273,106736,1,0,0:0:0:0:
343,229,106866,6,0,P|315:252|300:284,1,72,10|0,2:2|0:0,0:0:0:0:
323,372,107127,1,2,2:2:0:0:
436,230,107258,2,0,P|421:180|331:142,1,144,10|0,2:2|0:0,0:0:0:0:
190,179,107649,2,0,L|268:181,1,72,10|0,2:2|0:0,0:0:0:0:
106,324,107910,6,0,L|104:252,1,72,10|0,2:2|0:0,0:0:0:0:
17,177,108171,1,2,2:2:0:0:
57,83,108301,2,0,L|121:79|132:69|197:65,1,144,10|0,2:2|0:0,0:0:0:0:
319,57,108693,1,10,2:2:0:0:
442,49,108823,1,2,2:2:0:0:
295,77,108953,6,0,P|279:114|287:153,1,72,10|0,2:2|0:0,0:0:0:0:
363,220,109214,2,0,P|367:255|352:287,1,72,10|0,2:2|0:0,0:0:0:0:
201,251,109475,2,0,L|271:238,1,72,10|0,1:1|0:0,0:0:0:0:
448,136,109736,2,0,L|378:123,1,72,10|0,2:2|0:0,0:0:0:0:
227,102,109997,5,2,2:2:0:0:
201,251,110127,2,0,L|195:210,2,36,8|8|8,2:1|2:1|2:2,0:0:0:0:
324,316,110388,2,0,P|310:349|312:385,2,72,2|8|8,2:2|1:1|2:2,0:0:0:0:
447,252,110779,2,0,P|431:220|433:184,1,72,2|8,2:2|1:1,0:0:0:0:
512,84,111040,6,0,L|446:80|436:72|370:68,1,144,14|0,2:2|0:0,0:0:0:0:
224,152,111432,2,0,L|308:146,2,72,10|8|0,2:2|1:1|0:0,0:0:0:0:
132,80,111823,2,0,L|137:8,1,72,10|0,2:2|0:0,0:0:0:0:
51,170,112084,2,0,L|55:236|63:246|67:312,1,144,2|8,2:2|2:2,0:0:0:0:
66,310,112475,1,0,0:0:0:0:
248,376,112606,2,0,P|213:384|179:376,1,72,10|0,1:1|0:0,0:0:0:0:
297,250,112866,2,0,P|331:241|366:248,1,72,10|0,2:2|0:0,0:0:0:0:
512,384,113127,6,0,L|504:317|508:309|500:242,1,144,10|0,2:2|0:0,0:0:0:0:
446,45,113519,2,0,P|430:76|436:112,2,72,10|8|0,2:2|1:1|0:0,0:0:0:0:
499,233,113910,2,0,P|464:257|428:255,1,72,10|0,2:2|0:0,0:0:0:0:
318,129,114171,2,0,L|350:193|326:263,1,144,2|8,2:2|2:2,0:0:0:0:
326,261,114562,1,0,0:0:0:0:
162,206,114693,2,0,L|241:200,1,72,10|0,1:1|0:0,0:0:0:0:
129,318,114953,2,0,L|49:312,1,72,10|0,2:2|0:0,0:0:0:0:
0,190,115214,6,0,P|9:123|66:76,1,144,10|0,2:2|0:0,0:0:0:0:
65,76,115606,1,8,2:2:0:0:
13,219,115736,1,8,1:1:0:0:
215,50,115997,6,0,P|253:50|286:65,1,72,10|0,2:2|0:0,0:0:0:0:
395,163,116258,2,0,B|378:144|370:120|372:97|372:97|364:122|345:140|323:150,1,144,2|8,2:2|2:2,0:0:0:0:
467,103,116649,2,0,P|495:81|512:50,2,72,2|8|0,2:2|1:1|0:0,0:0:0:0:
342,242,117040,2,0,B|339:267|348:291|364:308|364:308|382:327|389:351|386:374,1,144,10|2,2:2|3:2,0:0:0:0:
385,374,117562,6,0,L|294:364,1,78.7500007510185,10|0,2:2|2:2,0:0:0:0:
250,261,117823,1,8,1:1:0:0:
118,368,117953,6,0,L|209:358,1,78.7500007510185,10|0,2:2|3:2,0:0:0:0:
250,246,118214,1,0,3:2:0:0:
385,148,118345,6,0,L|294:158,1,78.7500007510185,10|8,2:2|1:1,0:0:0:0:
250,261,118606,1,8,2:2:0:0:
250,276,118736,1,0,2:2:0:0:
193,156,118866,6,2,L|163:140|125:151,1,67.5000025749208,10|8,1:1|2:2,2:2:0:0:
52,211,119127,1,2,3:2:0:0:
66,309,119258,1,2,3:2:0:0:
158,345,119388,6,0,L|227:348|233:355|306:358,1,148.50000453186,14|0,2:2|0:0,0:0:0:0:
414,364,119910,1,8,1:1:0:0:
496,169,120171,1,2,2:2:0:0:
504,203,120301,1,2,2:2:0:0:
512,237,120432,6,0,L|408:241,1,99.0000030212403,2|8,2:2|2:2,0:0:0:0:
214,251,120953,1,10,1:1:0:0:
312,138,121214,2,0,L|310:188,1,49.5000015106202,10|0,2:2|0:0,0:0:0:0:
223,62,121475,2,0,P|166:53|131:82,1,99.0000030212403,10|0,2:2|0:0,0:0:0:0:
103,160,121866,2,0,P|138:114|131:70,1,99.0000030212403,2|0,2:2|0:0,0:0:0:0:
77,7,122258,5,2,2:2:0:0:
44,26,122388,1,2,2:2:0:0:
11,45,122519,2,0,L|14:99,1,49.5000015106202,2|2,2:2|2:2,0:0:0:0:
103,160,122779,2,0,L|100:214,1,49.5000015106202,10|2,2:2|2:2,0:0:0:0:
31,266,123040,2,0,L|34:320,1,49.5000015106202,10|2,1:1|2:2,0:0:0:0:
89,384,123301,1,2,2:2:0:0:
296,365,123562,6,0,P|252:333|154:335,1,148.50000453186,10|0,2:2|0:0,0:0:0:0:
89,384,124084,1,8,1:1:0:0:
290,335,124345,2,0,L|282:281,1,49.5000015106202,2|0,2:2|0:0,0:0:0:0:
242,155,124606,6,0,L|339:169,1,99.0000030212403,2|8,2:2|2:2,0:0:0:0:
128,138,125127,1,8,1:1:0:0:
339,169,125388,1,10,2:2:0:0:
248,48,125649,6,0,L|179:48|171:42|101:43,1,148.50000453186,10|8,2:2|2:2,0:0:0:0:
281,48,126171,1,8,1:1:0:0:
145,165,126432,2,0,L|127:137,2,33.0000010070801,2|2|2,2:2|2:2|2:2,0:0:0:0:
152,195,126693,2,0,P|152:222|102:280,1,99.0000030212403,2|8,2:2|2:2,0:0:0:0:
18,282,127084,2,0,P|41:268|116:282,1,99.0000030212403,2|0,2:2|0:0,0:0:0:0:
164,344,127475,1,2,2:2:0:0:
340,337,127736,6,0,P|317:351|242:337,1,99.0000030212403,10|0,2:2|0:0,0:0:0:0:
198,263,128127,2,0,P|197:236|247:178,1,99.0000030212403,2|0,2:2|0:0,0:0:0:0:
333,177,128519,1,2,2:2:0:0:
475,251,128779,2,0,P|452:265|376:251,1,99.0000030212403,2|8,2:2|2:2,0:0:0:0:
506,168,129301,1,10,1:1:0:0:
509,143,129432,1,2,2:2:0:0:
512,118,129562,1,10,2:2:0:0:
321,14,129823,6,0,L|368:28|390:71,1,99.0000030212404,10|0,2:2|0:0,0:0:0:0:
375,162,130214,2,0,L|364:113|389:72,1,99.0000030212404,10|0,2:2|0:0,0:0:0:0:
476,40,130606,1,2,2:2:0:0:
289,16,130866,6,0,L|247:42,1,49.5000015106202,2|0,2:2|0:0,0:0:0:0:
205,125,131127,1,10,2:2:0:0:
68,107,131258,2,0,L|112:130,1,49.5000015106202,2|8,2:2|1:1,0:0:0:0:
255,202,131649,1,2,2:2:0:0:
389,115,131910,6,0,L|395:159|401:166|407:210,1,99.0000030212403,10|0,2:2|0:0,0:0:0:0:
320,299,132301,2,0,L|312:351,2,49.5000015106202,2|8|0,2:2|1:1|0:0,0:0:0:0:
255,202,132693,2,0,L|247:149,1,49.5000015106202,2|0,2:2|0:0,0:0:0:0:
190,52,132953,6,0,P|143:39|85:58,1,99.0000030212403,2|8,2:2|2:2,0:0:0:0:
47,152,133345,2,0,P|14:140|-12:142,2,49.5000015106202,2|8|0,2:2|1:1|0:0,0:0:0:0:
86,262,133736,2,0,P|108:271|133:273,1,49.5000015106202,2|0,2:2|0:0,0:0:0:0:
262,186,133997,6,0,P|246:239|271:335,1,148.50000453186,10|8,2:2|2:2,0:0:0:0:
283,161,134519,1,8,1:1:0:0:
416,124,134779,1,8,2:2:0:0:
479,281,135040,2,0,L|384:255,1,99.0000030212403,2|8,2:2|2:2,0:0:0:0:
301,56,135562,2,0,L|206:83,1,99.0000030212403,10|8,1:1|2:2,0:0:0:0:
54,190,136084,5,10,2:2:0:0:
54,190,136475,1,2,2:2:0:0:
89,276,136866,5,10,2:2:0:0:
124,362,137127,2,0,P|171:381|222:364,1,99.0000030212403,2|2,2:2|2:2,0:0:0:0:
282,254,137649,6,0,L|287:308,1,49.5000015106202,2|0,2:2|0:0,0:0:0:0:
367,366,137910,1,10,2:2:0:0:
485,304,138171,5,2,2:2:0:0:
390,354,138432,1,2,2:2:0:0:
367,366,138562,1,2,2:2:0:0:
508,292,138953,5,10,2:2:0:0:
400,258,139214,1,2,2:2:0:0:
374,147,139475,2,0,L|413:111,2,49.5000015106202,2|2|10,2:2|2:2|2:2,0:0:0:0:
266,113,139997,1,2,2:2:0:0:
182,189,140258,5,10,2:2:0:0:
74,155,140519,2,0,L|77:102,1,49.5000015106202,2|0,2:2|0:0,0:0:0:0:
166,49,140779,2,0,L|163:-4,1,49.5000015106202,10|0,1:1|0:0,0:0:0:0:
7,25,141040,6,0,P|-2:54|4:88,1,49.5000015106202,10|0,2:2|0:0,0:0:0:0:
74,155,141301,2,0,P|83:184|77:218,1,49.5000015106202,10|2,2:2|2:2,0:0:0:0:
13,271,141562,1,2,2:2:0:0:
13,271,141693,1,2,2:2:0:0:
81,202,141823,2,0,L|140:210,1,49.5000015106202,10|0,1:1|0:0,0:0:0:0:
215,327,142084,2,0,P|206:297|210:268,1,49.5000015106202,2|0,2:2|0:0,0:0:0:0:
372,202,142345,6,0,P|333:231|269:214,1,99.0000030212403,10|0,2:2|0:0,0:0:0:0:
216,163,142736,1,2,2:2:0:0:
283,98,142866,2,0,L|350:107,1,49.5000015106202,8|0,1:1|0:0,0:0:0:0:
372,202,143127,2,0,L|439:193,1,49.5000015106202,10|0,2:2|0:0,0:0:0:0:
512,129,143388,5,2,2:2:0:0:
372,202,143649,2,0,L|366:243,3,33.0000010070801,10|2|2|10,2:2|2:2|2:2|1:1,0:0:0:0:
466,354,144171,1,10,2:2:0:0:
295,366,144432,6,0,P|257:365|206:324,1,99.0000030212403,10|0,2:2|0:0,0:0:0:0:
205,209,144823,2,0,P|214:178|212:159,2,49.5000015106202,10|8|0,2:2|1:1|0:0,0:0:0:0:
102,272,145214,2,0,P|71:279|55:289,1,49.5000015106202,10|0,2:2|0:0,0:0:0:0:
0,117,145475,6,0,L|46:117|50:122|96:122,1,99.0000030212403,2|8,2:2|2:2,0:0:0:0:
96,122,145866,1,0,0:0:0:0:
202,159,145997,2,0,L|204:208,1,49.5000015106202,10|0,1:1|0:0,0:0:0:0:
272,84,146258,2,0,L|274:34,1,49.5000015106202,2|0,2:2|0:0,0:0:0:0:
430,13,146519,6,0,L|431:58|426:63|428:109,1,99.0000030212403,10|0,2:2|0:0,0:0:0:0:
347,223,146910,2,0,L|345:167,2,49.5000015106202,10|8|0,2:2|1:1|0:0,0:0:0:0:
429,302,147301,2,0,L|427:357,1,49.5000015106202,10|0,2:2|0:0,0:0:0:0:
233,384,147562,6,0,P|220:338|244:287,1,99.0000030212403,2|10,2:2|2:2,0:0:0:0:
429,301,147953,2,0,P|397:339|349:348,1,99.0000030212403,2|0,2:2|0:0,0:0:0:0:
239,292,148345,1,10,2:2:0:0:
59,209,148606,6,0,P|106:220|175:185,1,112.5,10|0,2:2|0:0,0:0:0:0:
163,196,148997,1,10,2:2:0:0:
236,130,149127,2,0,P|270:122|300:134,1,56.25,8|0,1:1|0:0,0:0:0:0:
356,196,149388,2,0,P|390:204|420:192,1,56.25,10|0,2:2|0:0,0:0:0:0:
512,102,149649,6,0,L|459:96|456:90|403:84,1,112.5,2|8,2:2|2:2,0:0:0:0:
403,84,150040,1,2,2:2:0:0:
339,12,150171,2,0,L|270:19,1,56.25,8|0,1:1|0:0,0:0:0:0:
205,69,150432,2,0,L|136:62,1,56.25,10|0,2:2|0:0,0:0:0:0:
0,0,150693,6,0,P|41:29|40:103,1,112.5,10|0,2:2|0:0,0:0:0:0:
9,172,151084,1,8,2:2:0:0:
139,124,151214,5,10,2:1:0:0:
139,124,151345,1,10,2:1:0:0:
94,210,151475,1,10,2:2:0:0:
94,210,151606,1,10,2:1:0:0:
49,296,151736,6,0,P|60:343|109:382,1,112.5,10|0,2:2|0:0,0:0:0:0:
199,365,152127,1,8,2:2:0:0:
265,304,152258,2,0,L|314:296|323:301|373:295,1,112.5,10|10,1:1|2:2,0:0:0:0:
454,366,152649,1,2,2:2:0:0:
375,295,152779,6,0,L|363:223,1,67.5000025749208,14|0,2:2|0:0,0:0:0:0:
272,145,153040,2,0,L|284:73,1,67.5000025749208,2|0,2:2|0:0,0:0:0:0:
171,211,153301,1,10,1:1:0:0:
464,162,153562,1,10,2:2:0:0:
272,145,153823,5,2,2:2:0:0:
363,228,153953,1,2,2:2:0:0:
269,129,154084,2,0,L|257:57,1,67.5000025749208,10|0,2:2|0:0,0:0:0:0:
360,242,154345,2,0,L|348:308,1,67.5000025749208,10|0,1:1|0:0,0:0:0:0:
174,302,154606,1,10,2:2:0:0:
267,272,154736,1,2,2:2:0:0:
113,226,154866,6,0,P|103:188|117:153,1,67.5000025749208,10|0,2:2|0:0,0:0:0:0:
33,77,155127,2,0,P|60:49|98:43,1,67.5000025749208,2|8,2:2|2:2,0:0:0:0:
252,80,155388,2,0,L|174:89,1,67.5000025749208,10|0,1:1|0:0,0:0:0:0:
322,183,155649,2,0,L|400:192,1,67.5000025749208,2|0,2:2|0:0,0:0:0:0:
499,74,155910,6,0,P|471:96|462:137,1,67.5000025749208,2|0,2:2|0:0,0:0:0:0:
362,132,156171,2,0,P|367:166|398:195,1,67.5000025749208,10|0,2:2|0:0,0:0:0:0:
512,269,156432,2,0,L|430:279,1,67.5000025749208,10|0,1:1|0:0,0:0:0:0:
384,357,156693,2,0,L|302:347,1,67.5000025749208,10|0,2:2|0:0,0:0:0:0:
226,195,156953,6,0,B|245:226|241:264|220:290|220:290|197:318|197:356|214:385,1,202.500007724762,10|0,2:2|0:0,0:0:0:0:
123,231,157475,2,0,L|54:236,1,67.5000025749208,8|0,1:1|0:0,0:0:0:0:
247,88,157736,2,0,L|316:93,1,67.5000025749208,10|0,2:2|0:0,0:0:0:0:
445,173,157997,5,2,2:2:0:0:
413,247,158127,1,2,2:2:0:0:
477,99,158258,2,0,L|472:29,1,67.5000025749208,10|2,2:2|2:2,0:0:0:0:
245,102,158519,2,0,L|250:32,1,67.5000025749208,10|0,1:1|0:0,0:0:0:0:
347,4,158779,1,10,2:2:0:0:
361,0,158910,1,2,2:2:0:0:
347,136,159040,5,10,2:2:0:0:
245,102,159171,1,2,2:2:0:0:
143,68,159301,2,0,P|108:70|79:88,1,67.5000025749208,2|8,2:2|2:2,0:0:0:0:
0,193,159562,1,10,1:1:0:0:
13,224,159693,1,2,2:2:0:0:
26,255,159823,1,2,2:2:0:0:
39,286,159953,1,2,2:2:0:0:
52,317,160084,6,0,L|115:323|119:329|184:335,2,135.000005149842,2|8|2,2:2|2:2|2:2,0:0:0:0:
212,337,160736,2,0,P|249:309|251:226,1,135.000005149842,8|0,2:2|0:0,0:0:0:0:
137,144,161127,6,0,L|198:139|206:129|267:124,1,135.000005149842,14|0,2:2|0:0,0:0:0:0:
383,13,161519,2,0,L|315:7,2,67.5000025749208,10|8|0,2:2|1:1|0:0,0:0:0:0:
445,106,161910,2,0,L|512:100,1,67.5000025749208,2|0,2:2|0:0,0:0:0:0:
482,252,162171,6,0,B|462:239|438:238|417:246|417:246|395:254|371:251|352:240,1,135.000005149842,2|8,2:2|2:2,0:0:0:0:
266,124,162562,2,0,P|259:91|239:64,2,67.5000025749208,0|10|0,0:0|1:1|0:0,0:0:0:0:
208,256,162953,2,0,P|182:278|170:309,1,67.5000025749208,10|0,2:2|0:0,0:0:0:0:
45,384,163214,6,0,L|38:243,1,135.000005149842,10|0,2:2|0:0,0:0:0:0:
30,82,163606,1,10,2:2:0:0:
131,125,163736,2,0,L|127:192,1,67.5000025749208,8|0,1:1|0:0,0:0:0:0:
29,67,163997,2,0,L|25:0,1,67.5000025749208,2|0,2:2|0:0,0:0:0:0:
216,38,164258,6,0,P|276:40|334:88,1,135.000005149842,2|8,2:2|2:2,0:0:0:0:
406,248,164649,1,2,2:2:0:0:
309,265,164779,2,0,P|308:231|320:200,1,67.5000025749208,8|0,1:1|0:0,0:0:0:0:
487,129,165040,2,0,P|458:145|424:151,1,67.5000025749208,10|0,2:2|0:0,0:0:0:0:
216,38,165301,6,0,L|213:99|204:108|201:169,1,135.000005149842,10|0,2:2|0:0,0:0:0:0:
200,169,165693,1,8,2:2:0:0:
62,248,165823,2,0,L|144:243,1,67.5000025749208,8|0,1:1|0:0,0:0:0:0:
202,323,166084,2,0,L|284:327,1,67.5000025749208,2|2,2:2|2:2,0:0:0:0:
346,235,166345,5,2,2:2:0:0:
346,235,166475,1,0,0:0:0:0:
426,299,166606,2,0,P|459:307|491:300,1,67.5000025749208,8|0,2:2|0:0,0:0:0:0:
266,171,166866,2,0,P|232:162|201:170,1,67.5000025749208,8|8,1:1|2:2,0:0:0:0:
119,232,167127,5,10,2:2:0:0:
114,265,167258,1,2,2:2:0:0:
109,298,167388,2,0,L|205:308,1,90,2|2,2:2|2:2,0:0:0:0:
294,318,168171,5,0,3:2:0:0:
294,318,168301,1,0,3:2:0:0:
210,148,168432,2,0,B|239:128|278:132|303:155|303:155|330:179|369:180|397:161,2,202.500007724762,10|8|10,2:2|2:2|2:2,0:0:0:0:
109,298,169475,5,14,2:2:0:0:
109,298,169606,1,0,2:2:0:0:
207,254,169736,1,2,2:2:0:0:
294,318,169866,2,0,L|327:330|362:314,2,72,10|8|0,2:2|1:1|0:0,0:0:0:0:
207,254,170258,5,8,2:2:0:0:
207,254,170388,1,0,2:2:0:0:
210,148,170519,1,2,2:2:0:0:
210,148,170649,2,0,L|204:112|172:90,1,72,0|8,2:2|2:2,0:0:0:0:
121,201,170910,6,0,L|50:202,1,72,2|8,2:2|1:1,0:0:0:0:
3,91,171171,1,2,2:2:0:0:
174,91,171301,2,0,L|245:92,1,72,10|0,2:2|2:2,0:0:0:0:
446,63,171562,6,0,L|461:95|448:129,1,72,10|0,2:2|2:2,0:0:0:0:
367,199,171823,2,0,L|355:233|370:265,1,72,2|10,2:2|2:2,0:0:0:0:
482,314,172084,1,10,1:1:0:0:
370,265,172214,1,2,2:2:0:0:
272,338,172345,1,8,2:2:0:0:
272,338,172475,1,0,2:2:0:0:
160,289,172606,6,0,L|144:212,1,72,2|0,2:2|0:0,0:0:0:0:
108,48,172866,2,0,L|122:118,1,72,10|0,2:2|0:0,0:0:0:0:
46,187,173127,1,10,1:1:0:0:
219,147,173258,1,2,2:2:0:0:
122,118,173388,1,10,2:2:0:0:
145,218,173519,2,0,L|158:279|166:284|166:284|174:289|186:349,1,144,2|0,2:2|0:0,0:0:0:0:
327,238,173910,6,0,L|255:236,1,72,2|8,2:2|2:2,0:0:0:0:
401,327,174171,1,10,1:1:0:0:
490,253,174301,2,0,L|492:181,1,72,2|8,2:2|2:2,0:0:0:0:
414,106,174562,1,2,2:2:0:0:
499,35,174693,5,10,2:2:0:0:
415,88,174823,1,0,2:2:0:0:
327,41,174953,1,2,2:2:0:0:
243,94,175084,1,8,2:2:0:0:
160,35,175214,5,10,1:1:0:0:
146,54,175301,1,2,0:0:0:0:
138,77,175388,1,2,0:0:0:0:
137,101,175475,1,10,0:0:0:0:
143,124,175562,1,2,0:0:0:0:
155,145,175649,1,2,0:0:0:0:
172,162,175736,5,10,2:2:0:0:
250,225,175866,2,0,L|310:219,2,36,2|0|10,2:2|0:0|2:2,0:0:0:0:
190,307,176127,1,0,2:2:0:0:
230,382,176258,1,10,1:1:0:0:
230,382,176388,1,2,2:2:0:0:
314,379,176519,1,10,2:2:0:0:
314,379,176649,1,0,2:2:0:0:
190,307,176779,6,0,L|157:291|47:323,1,144,2|10,2:2|2:2,0:0:0:0:
0,256,177171,1,2,2:2:0:0:
1,248,177236,1,2,2:2:0:0:
2,240,177301,2,0,L|13:176|25:168|36:104,1,144,10|2,1:1|2:2,0:0:0:0:
138,13,177693,1,10,1:1:0:0:
166,149,177823,6,0,L|230:138|238:126|302:115,1,144,14|0,2:2|0:0,0:0:0:0:
301,115,178214,1,8,2:2:0:0:
429,174,178345,2,0,L|423:255,1,72,8|0,1:1|0:0,0:0:0:0:
377,342,178606,6,0,L|344:358|297:341,1,72,10|2,2:2|2:2,0:0:0:0:
226,305,178866,1,2,2:2:0:0:
219,212,178997,1,2,2:2:0:0:
212,119,179127,2,0,L|209:67,2,36,10|2|2,2:2|2:2|2:2,0:0:0:0:
126,219,179388,2,0,P|105:266|104:358,1,144,10|10,1:0|0:0,0:0:0:0:
109,367,179736,1,2,2:2:0:0:
117,376,179823,1,2,2:2:0:0:
126,384,179910,6,0,L|193:379|198:370|265:365,1,144,10|2,2:2|2:2,0:0:0:0:
355,356,180301,1,10,2:2:0:0:
483,285,180432,2,0,L|452:263|417:270,1,72,10|0,1:1|0:0,0:0:0:0:
366,355,180693,1,10,2:2:0:0:
292,203,180823,2,0,L|322:181|357:188,1,72,2|0,2:2|0:0,0:0:0:0:
409,273,181084,1,2,2:2:0:0:
419,102,181214,5,10,2:2:0:0:
463,190,181345,1,2,2:2:0:0:
375,14,181475,2,0,L|307:18|302:24|234:28,1,144,10|8,1:1|2:2,0:0:0:0:
139,36,181866,1,0,0:0:0:0:
186,245,181997,6,0,P|201:182|191:99,1,144,10|0,2:2|0:0,0:0:0:0:
193,104,182388,1,8,2:2:0:0:
89,261,182519,2,0,L|4:269,1,72,8|0,1:1|0:0,0:0:0:0:
163,341,182779,5,2,2:2:0:0:
270,317,182910,2,0,L|290:285|279:237,1,72,2|0,2:2|0:0,0:0:0:0:
196,186,183171,1,2,2:2:0:0:
297,144,183301,2,0,L|362:150|369:161|434:167,1,144,10|8,2:2|1:1,0:0:0:0:
512,343,183823,2,0,L|505:267,1,72,10|0,2:2|0:0,0:0:0:0:
434,167,184084,6,0,L|369:173|362:184|297:190,1,144,10|0,2:2|0:0,0:0:0:0:
197,201,184475,1,10,2:2:0:0:
59,111,184606,2,0,L|137:118,1,72,8|0,1:1|0:0,0:0:0:0:
253,29,184866,6,0,L|260:62|240:94,1,72,2|0,2:2|0:0,0:0:0:0:
391,43,185127,2,0,L|358:32|340:0,1,72,2|0,2:2|0:0,0:0:0:0:
309,155,185388,2,0,L|334:131|371:132,1,72,10|0,2:2|0:0,0:0:0:0:
463,184,185649,2,0,P|479:229|470:343,1,144,10|10,1:1|2:2,0:0:0:0:
229,333,186171,6,0,B|257:323|287:333|305:354|305:354|325:376|355:383|381:374,2,168.75,6|2|2,2:2|2:2|2:2,0:0:0:0:
96,380,187214,2,2,L|99:302|108:291|112:214,1,168.75,2|0,2:2|0:0,2:2:0:0:
116,118,187736,2,0,L|165:91|218:107,1,112.5,2|2,2:2|2:2,0:0:0:0:
351,154,188258,6,0,P|357:182|356:204,1,45,6|2,2:2|2:2,0:0:0:0:
351,221,188649,1,2,2:2:0:0:
244,290,189040,6,0,P|267:290|289:285,2,45,2|2|2,2:2|2:2|2:2,0:0:0:0:
167,201,189823,2,0,P|144:201|122:206,1,45,2|2,2:2|2:2,0:0:0:0:
80,313,190344,2,0,P|89:344|82:377,2,67.5,2|2|2,2:2|2:2|2:2,0:0:0:0:
0,233,191388,2,0,B|-13:203|-4:171|18:151|18:151|43:130|49:96|35:69,1,180,2|2,2:2|2:2,0:0:0:0:
331,189,196084,6,0,L|277:193,1,45,2|2,2:2|2:2,0:0:0:0:
168,110,196605,2,0,P|175:60|152:16,2,101.250003862381,2|2|2,2:2|2:2|2:2,0:0:0:0:
25,177,197649,2,0,P|18:227|70:289,1,135.000005149842,2|2,2:2|2:2,0:0:0:0:
207,258,198431,1,2,2:2:0:0:
345,228,198692,2,0,P|392:273|396:318,2,101.250003862381,2|2|2,2:2|2:2|2:2,0:0:0:0:
207,258,199736,1,2,2:2:0:0:
251,123,199997,6,0,L|235:49,2,67.5000025749208,0|2|0,0:0|2:2|0:0,0:0:0:0:
345,228,200779,1,2,2:2:0:0:
360,235,200910,1,0,0:0:0:0:
374,245,201040,2,0,L|366:282,1,33.7500012874604
300,342,201301,6,0,L|262:349,3,33.7500012874604,2|0|0|0,2:2|0:0|0:0|0:0,0:0:0:0:
181,370,201823,2,0,L|150:335,3,39.3750003755093,2|0|0|0,2:2|0:0|0:0|0:0,0:0:0:0:
97,271,202344,2,0,L|111:227,3,45,2|0|0|0,2:2|0:0|0:0|0:0,0:0:0:0:
143,138,203127,6,0,L|126:119,2,24.7500007553101,2|2|2,2:2|2:2|2:2,0:0:0:0:
211,163,203388,1,2,2:2:0:0:
267,116,203518,1,2,2:2:0:0:
335,141,203649,1,2,2:2:0:0:
391,94,203779,1,2,2:2:0:0:
459,120,203910,5,2,2:2:0:0:
403,167,204040,1,2,2:2:0:0:
347,214,204171,2,0,L|354:250,2,24.7500007553101,2|2|2,2:2|2:2|2:2,0:0:0:0:
279,189,204431,1,2,2:2:0:0:
211,163,204562,1,2,2:2:0:0:
143,138,204692,2,0,P|114:139|85:156,1,49.5000015106202,2|0,2:2|0:0,0:0:0:0:
44,314,204953,6,0,L|117:318,1,72,10|0,2:2|0:0,0:0:0:0:
214,382,205214,1,2,2:2:0:0:
125,203,205344,2,0,B|115:179|123:153|143:138|143:138|162:122|168:96|160:73,1,144,10|0,2:2|0:0,0:0:0:0:
6,10,205736,6,0,L|78:14,1,72,10|0,2:2|0:0,0:0:0:0:
231,69,205997,2,0,L|159:73,1,72,2|0,2:2|0:0,0:0:0:0:
332,25,206258,2,0,P|344:63|336:102,1,72,10|0,2:2|0:0,0:0:0:0:
255,171,206518,2,0,P|242:209|250:248,1,72,10|0,1:1|0:0,0:0:0:0:
332,316,206779,2,0,P|344:354|336:393,1,72,10|0,2:2|0:0,0:0:0:0:
512,274,207040,6,0,P|473:283|400:211,1,144,2|0,2:2|0:0,0:0:0:0:
401,219,207431,1,10,0:0:0:0:
434,40,207562,2,0,P|438:75|425:109,1,72,8|0,1:0|0:0,0:0:0:0:
253,168,207823,2,0,P|282:147|318:143,1,72,10|0,2:2|0:0,0:0:0:0:
174,297,208084,2,0,L|160:230|151:225|137:159,1,144,2|8,2:2|2:2,0:0:0:0:
138,160,208475,1,0,0:0:0:0:
253,24,208605,2,0,P|210:64|120:58,1,144,10|8,1:1|2:2,0:0:0:0:
128,62,208997,1,0,0:0:0:0:
0,0,209127,6,0,P|24:25|28:74,1,72,10|0,2:2|0:0,0:0:0:0:
0,151,209388,1,2,2:2:0:0:
97,253,209518,2,0,B|85:264|53:262|31:241|31:241|33:265|22:289|0:302,1,144,10|0,2:2|0:0,0:0:0:0:
173,330,209910,2,0,P|207:338|241:326,1,72,10|0,2:2|0:0,0:0:0:0:
233,172,210171,6,0,P|208:197|204:247,1,72,10|0,2:2|0:0,0:0:0:0:
241,326,210431,1,2,2:2:0:0:
354,342,210562,2,0,L|388:286|384:275|419:218,1,144,10|0,2:2|0:0,0:0:0:0:
326,99,210953,1,10,2:2:0:0:
338,185,211084,1,2,2:2:0:0:
419,218,211214,6,0,P|429:182|413:142,1,72,10|0,2:2|0:0,0:0:0:0:
328,32,211475,2,0,P|317:66|327:100,1,72,10|0,2:2|0:0,0:0:0:0:
482,71,211736,2,0,L|410:66,1,72,10|0,1:1|0:0,0:0:0:0:
266,190,211997,2,0,L|338:185,1,72,10|0,2:2|0:0,0:0:0:0:
178,53,212258,6,0,P|117:98|99:177,1,144,2|8,2:2|2:2,0:0:0:0:
146,315,212649,1,2,2:2:0:0:
9,264,212779,2,0,P|40:247|76:251,1,72,8|8,1:1|2:2,0:0:0:0:
234,324,213040,2,0,P|203:341|168:338,1,72,2|0,2:2|0:0,0:0:0:0:
289,181,213301,6,0,L|309:246|316:248|336:313,1,144,14|0,2:2|0:0,0:0:0:0:
472,221,213692,2,0,L|396:203,2,72,10|8|0,2:2|1:1|0:0,0:0:0:0:
365,94,214084,2,0,L|440:76,1,72,10|0,2:2|0:0,0:0:0:0:
229,47,214344,6,0,L|209:112|202:114|182:179,1,144,2|8,2:2|2:2,0:0:0:0:
181,179,214736,1,0,0:0:0:0:
121,52,214866,2,0,P|87:39|51:42,1,72,10|0,1:1|0:0,0:0:0:0:
0,201,215127,1,10,2:2:0:0:
96,242,215258,1,2,2:2:0:0:
181,179,215388,6,0,P|214:166|303:225,1,144,10|0,2:2|0:0,0:0:0:0:
238,384,215779,2,0,P|237:348|253:316,2,72,10|8|0,2:2|1:1|0:0,0:0:0:0:
428,285,216171,2,0,P|397:303|361:305,1,72,2|0,2:2|0:0,0:0:0:0:
250,169,216431,2,0,L|314:155|322:147|387:134,1,144,2|8,2:2|2:2,0:0:0:0:
387,134,216823,1,0,0:0:0:0:
486,30,216953,2,0,P|498:70|487:105,1,72,10|0,1:1|0:0,0:0:0:0:
371,162,217214,2,0,P|359:202|370:237,1,72,10|0,2:2|0:0,0:0:0:0:
461,364,217475,6,0,L|538:368,2,72,10|0|0,2:2|0:0|0:0,0:0:0:0:
388,253,217866,2,0,L|311:257,2,72,10|8|0,2:2|1:1|0:0,0:0:0:0:
262,349,218258,2,0,L|185:345,1,72,10|0,2:2|0:0,0:0:0:0:
36,338,218518,6,0,P|74:318|93:223,1,144,2|10,2:2|2:2,0:0:0:0:
0,117,218910,2,0,P|42:117|75:93,1,72,2|8,2:2|1:1,0:0:0:0:
106,16,219171,1,2,2:2:0:0:
236,87,219301,2,0,B|214:100|188:100|167:89|167:89|181:111|204:122|227:121,1,144,10|0,2:2|3:2,0:0:0:0:
389,0,219823,6,0,L|383:78,1,78.7500007510185,10|0,2:2|0:0,0:0:0:0:
321,287,220084,2,0,L|316:208,1,78.7500007510185,10|10,1:1|2:2,0:0:0:0:
236,87,220344,1,2,3:2:0:0:
311,124,220475,1,2,3:2:0:0:
161,50,220605,6,0,P|115:49|81:71,1,78.7500007510185,10|8,2:2|1:1,0:0:0:0:
24,170,220866,1,8,2:2:0:0:
24,170,220997,1,0,3:2:0:0:
185,227,221127,5,10,1:1:0:0:
54,338,221258,1,8,2:2:0:0:
87,245,221388,1,8,1:1:0:0:
152,320,221518,1,8,1:1:0:0:
248,301,221649,6,0,B|273:297|297:308|312:326|312:326|327:347|352:355|375:351,1,144,14|0,2:2|0:0,0:0:0:0:
439,222,222040,2,0,P|453:254|449:290,2,72,10|8|0,2:2|1:1|0:0,0:0:0:0:
313,180,222431,2,0,P|308:144|322:111,1,72,10|0,2:2|0:0,0:0:0:0:
512,28,222692,2,0,L|445:25|437:34|372:31,1,144,2|8,2:2|2:2,0:0:0:0:
372,31,223084,1,0,0:0:0:0:
504,124,223214,2,0,P|517:156|512:192,1,72,10|0,1:1|0:0,0:0:0:0:
362,241,223475,2,0,P|348:273|353:309,1,72,10|0,2:2|0:0,0:0:0:0:
512,384,223736,6,0,P|519:349|444:280,1,144,10|0,2:2|0:0,0:0:0:0:
244,354,224127,2,0,P|257:321|252:285,2,72,10|8|0,2:2|1:1|0:0,0:0:0:0:
64,353,224518,2,0,P|50:320|55:284,1,72,10|0,2:2|0:0,0:0:0:0:
149,170,224779,6,0,L|224:161,1,72,2|0,2:2|0:0,0:0:0:0:
342,57,225040,2,0,L|267:48,1,72,10|0,2:2|0:0,0:0:0:0:
118,176,225301,2,0,P|145:111|124:44,1,144,10|10,1:1|2:2,0:0:0:0:
124,44,225692,1,0,0:0:0:0:
0,101,225823,6,0,L|5:173,1,72,10|0,2:2|0:0,0:0:0:0:
14,269,226084,1,2,2:2:0:0:
118,176,226214,2,0,L|181:180|191:194|254:198,1,144,10|0,2:2|0:0,0:0:0:0:
385,204,226605,2,0,L|409:178,2,36,10|2|2,2:2|2:2|2:2,0:0:0:0:
292,344,226866,6,0,P|314:316|316:281,1,72,10|0,2:2|0:0,0:0:0:0:
254,198,227127,1,2,2:2:0:0:
294,102,227258,2,0,B|313:85|340:82|361:92|361:92|385:101|411:96|428:81,1,144,10|0,2:2|0:0,0:0:0:0:
512,0,227649,2,0,L|531:91,1,72,10|0,2:2|0:0,0:0:0:0:
505,220,227910,6,0,B|485:203|479:177|485:154|485:154|479:179|460:196|437:202,1,144,10|0,2:2|0:0,0:0:0:0:
346,204,228301,1,0,0:0:0:0:
317,349,228431,2,0,P|300:317|301:282,1,72,10|0,1:1|0:0,0:0:0:0:
300,125,228692,2,0,P|269:107|234:106,1,72,10|0,2:2|0:0,0:0:0:0:
93,195,228953,6,0,P|111:164|44:72,1,144,10|8,2:2|2:2,0:0:0:0:
17,229,229344,1,2,2:2:0:0:
55,361,229475,2,0,P|25:342|8:311,1,72,8|8,1:1|2:2,0:0:0:0:
193,271,229736,2,0,P|191:306|173:337,1,72,2|0,2:2|0:0,0:0:0:0:
329,384,229997,6,0,L|326:317|319:310|316:243,1,144,14|0,2:2|0:0,0:0:0:0:
447,126,230388,2,0,L|443:199,2,72,10|8|0,2:2|1:1|0:0,0:0:0:0:
307,71,230779,2,0,L|303:-2,1,72,10|0,2:2|0:0,0:0:0:0:
191,132,231040,2,0,B|170:148|143:147|123:135|123:135|102:120|74:122|55:137,1,144,2|8,2:2|2:2,0:0:0:0:
55,136,231431,1,0,0:0:0:0:
0,260,231562,2,0,L|73:251,1,72,10|0,1:1|0:0,0:0:0:0:
149,328,231823,2,0,L|222:337,1,72,10|0,2:2|0:0,0:0:0:0:
377,353,232084,6,0,P|328:309|329:235,1,144,10|0,2:2|0:0,0:0:0:0:
497,156,232475,2,0,P|470:180|436:190,2,72,10|8|0,2:2|1:1|0:0,0:0:0:0:
282,83,232866,2,0,P|315:94|341:119,1,72,10|0,2:2|0:0,0:0:0:0:
137,274,233127,6,0,B|148:279|155:289|157:301|157:301|173:102,1,216,2|0,2:2|0:0,0:0:0:0:
54,13,233649,2,0,B|60:102,1,72,10|0,1:1|0:0,0:0:0:0:
145,171,233910,2,0,B|139:242,1,72,10|0,2:2|0:0,0:0:0:0:
0,384,234171,6,0,P|43:353|134:366,1,144,10|0,2:2|0:0,0:0:0:0:
129,363,234562,1,0,0:0:0:0:
51,261,234692,2,0,B|45:189,1,72,8|0,1:1|0:0,0:0:0:0:
0,86,234953,6,0,P|37:97|77:84,1,72,10|0,2:2|0:0,0:0:0:0:
147,12,235214,2,0,P|184:1|248:78,1,144,10|0,2:2|0:0,0:0:0:0:
167,209,235605,2,0,B|161:137,2,72,10|8|0,2:2|1:1|0:0,0:0:0:0:
237,299,235997,2,0,L|303:304|311:295|377:300,1,144,10|2,2:2|3:2,0:0:0:0:
498,220,236518,6,0,P|459:212|420:225,1,78.7500007510185,10|0,2:2|0:0,0:0:0:0:
376,299,236779,1,8,1:1:0:0:
369,154,236910,6,0,P|342:183|334:224,1,78.7500007510185,10|0,2:2|3:2,0:0:0:0:
382,307,237171,1,0,3:2:0:0:
247,232,237301,6,0,P|259:269|290:297,1,78.7500007510185,10|2,2:2|2:2,0:0:0:0:
388,315,237562,1,2,2:2:0:0:
287,295,237692,1,10,2:2:0:0:
219,372,237823,6,0,P|158:381|104:350,1,112.5,10|10,1:1|2:2,0:0:0:0:
49,253,238344,2,0,L|54:183,2,67.5000025749208,2|0|0,2:2|0:0|0:0,0:0:0:0:
113,359,239127,1,2,2:2:0:0:
53,185,239388,2,0,B|74:174|99:176|116:188|116:188|137:201|161:202|180:192,2,135,2|2|2,2:2|2:2|2:2,0:0:0:0:
32,289,240431,1,2,2:2:0:0:
261,238,240692,6,0,P|275:208|236:117,1,135.000005149842,10|8,2:0|1:1,0:0:0:0:
126,78,241084,2,0,P|144:105|243:116,1,135.000005149842,10|0,2:0|0:0,0:0:0:0:
331,41,241475,2,0,P|298:43|238:123,1,135.000005149842,10|2,2:0|2:0,0:0:0:0:
261,238,241866,1,2,0:0:0:0:
261,238,241997,1,2,0:0:0:0:
