osu file format v14

[General]
AudioFilename: audio.mp3
AudioLeadIn: 0
PreviewTime: 102106
Countdown: 0
SampleSet: Soft
StackLeniency: 0.4
Mode: 0
LetterboxInBreaks: 0
WidescreenStoryboard: 1

[Editor]
Bookmarks: 116649,241997,246692
DistanceSpacing: 1.5
BeatDivisor: 8
GridSize: 8
TimelineZoom: 1.7

[Metadata]
Title:Kanashikute lulululu -Hasaka ver.-
TitleUnicode:悲しくて lulululu -ハーサカver.-
Artist:Hayasaka Ai (CV: Hanamori Yumiri)
ArtistUnicode:早坂愛 (CV: 花守ゆみり)
Creator:Heratikus
Version:Hard
Source:かぐや様は告らせたい-ウルトラロマンティック-
Tags:japanese pop jpop j-pop female vocal vocals vocalist anime kaguya-sama wa kokurasetai tensai-tachi no renai zunousen kaguya sama love is war ultra romantic season 3 aitakute 会いたくて kana nishino 西野カナ
BeatmapID:3795009
BeatmapSetID:1802471

[Difficulty]
HPDrainRate:3.7
CircleSize:3.6
OverallDifficulty:6
ApproachRate:7
SliderMultiplier:1.4
SliderTickRate:1

[Events]
//Background and Video events
0,0,"hayasakaresize.jpg",0,0
//Break Periods
2,188457,199879
//Storyboard Layer 0 (Background)
//Storyboard Layer 1 (Fail)
//Storyboard Layer 2 (Pass)
//Storyboard Layer 3 (Foreground)
//Storyboard Layer 4 (Overlay)
//Storyboard Sound Samples

[TimingPoints]
4041,535.714285714286,4,2,1,40,1,0
8327,545.454545454546,4,2,1,40,1,0
10508,571.428571428571,4,2,1,50,1,0
11079,600,4,2,1,45,1,0
11679,800,4,2,1,40,1,0
12479,1090.90909090909,4,2,1,40,1,0
13569,705.882352941176,4,2,1,40,1,0
13923,882.352941176471,4,2,1,40,1,0
14364,666.666666666667,4,2,1,40,1,0
16607,521.739130434783,4,2,1,45,1,0
17128,521.739130434783,4,2,2,50,1,0
17128,-100,4,2,2,50,0,0
25475,-100,4,2,2,55,0,0
31997,-83.3333333333333,4,2,1,70,0,1
33562,-83.3333333333333,4,2,1,70,0,0
33823,-90.9090909090909,4,2,1,70,0,1
48171,-90.9090909090909,4,2,1,70,0,0
48693,-83.3333333333333,4,2,1,70,0,1
49997,-90.9090909090909,4,2,1,60,0,0
50519,-111.111111111111,4,2,1,50,0,0
67214,-100,4,2,1,55,0,0
83910,-111.111111111111,4,2,1,55,0,0
88084,-100,4,2,1,55,0,0
96432,-100,4,2,1,60,0,0
98519,-111.111111111111,4,2,1,65,0,0
102693,521.739130434783,4,2,1,70,1,1
102693,-90.9090909090909,4,2,1,70,0,1
117040,-90.9090909090909,4,2,1,70,0,0
117301,-90.9090909090909,4,2,1,30,0,0
117562,-83.3333333333333,4,2,1,70,0,1
118866,-100,4,2,1,60,0,0
119388,-100,4,2,1,50,0,0
136084,-111.111111111111,4,2,1,50,0,0
140258,-100,4,2,1,50,0,0
148606,-100,4,2,1,60,0,0
152779,-90.9090909090909,4,2,1,65,0,0
167388,-125,4,2,1,65,0,0
168432,-90.9090909090909,4,2,1,65,0,0
169475,-83.3333333333333,4,2,1,70,0,1
186171,-100,4,2,1,60,0,0
188258,521.739130434783,4,2,2,50,1,0
201823,-100,4,2,1,60,0,0
202344,-100,4,2,1,65,0,0
202866,-100,4,2,1,5,0,0
203910,-100,4,2,1,70,0,0
204953,-90.9090909090909,4,2,1,75,0,1
219301,-90.9090909090909,4,2,1,75,0,0
219562,-90.9090909090909,4,2,1,40,0,0
219823,-90.9090909090909,4,2,1,75,0,1
221518,-57.1428571428571,4,2,1,75,0,0
221649,-90.9090909090909,4,2,1,75,0,1
235997,-100,4,2,1,75,0,0
236518,-90.9090909090909,4,2,1,75,0,1
237823,-100,4,2,1,50,0,1
238344,-100,4,2,1,40,0,0
239127,-100,4,2,1,50,0,0
240692,-90.9090909090909,4,2,1,65,0,1
241997,-100,4,2,1,50,0,0

[Colours]
Combo1 : 115,88,165
Combo2 : 244,222,94
Combo3 : 64,169,225
Combo4 : 211,148,84

[HitObjects]
0,0,16607,6,0,L|7:77,1,70,2|2,2:2|2:2,0:0:0:0:
62,158,17128,2,0,P|101:168|134:151,1,70,6|0,2:2|2:2,0:0:0:0:
166,121,17519,1,2,2:2:0:0:
280,12,17910,6,0,L|359:27,2,70,2|2|2,2:2|2:2|2:2,0:0:0:0:
234,107,18693,2,0,L|155:122,1,70,2|2,2:2|2:2,0:0:0:0:
99,202,19214,2,0,P|84:262|109:307,2,105,2|2|2,2:2|2:2|2:2,0:0:0:0:
193,249,20258,1,2,2:2:0:0:
193,249,20780,6,0,P|233:243|264:220,1,70,2|0,2:2|0:0,0:0:0:0:
256,123,21301,2,0,P|296:128|327:151,1,70,2|2,2:2|2:2,0:0:0:0:
352,186,21693,1,2,2:2:0:0:
485,103,22084,5,2,2:2:0:0:
485,103,22345,2,0,P|444:97|413:74,1,70,2|2,2:2|2:2,0:0:0:0:
389,42,22737,1,2,2:2:0:0:
445,188,23128,6,0,L|441:233,1,35,2|2,2:2|2:2,0:0:0:0:
437,275,23388,2,0,P|416:307|379:318,1,70,2|2,2:2|2:2,0:0:0:0:
305,383,23910,2,0,P|266:381|238:354,1,70,2|2,2:2|2:2,0:0:0:0:
187,272,24432,2,0,L|189:223|194:218|196:169,2,105,2|2|2,2:2|2:2|2:2,0:0:0:0:
111,344,25475,6,0,P|60:360|13:344,2,105,2|2|2,2:2|2:2|2:2,0:0:0:0:
187,272,26519,1,2,2:2:0:0:
277,82,27041,6,0,P|287:120|272:158,1,70,2|2,2:2|2:2,0:0:0:0:
239,183,27432,1,2,2:2:0:0:
239,183,27562,2,0,P|185:170|127:188,2,105,2|2|2,2:2|2:2|2:2,0:0:0:0:
289,275,28606,1,2,2:2:0:0:
389,87,29128,6,0,L|473:100,1,70,2|2,2:2|2:2,0:0:0:0:
498,194,29649,2,0,L|504:240|501:245|501:245|498:250|504:296,2,105,2|2|2,2:2|2:2|2:2,0:0:0:0:
395,217,30693,1,2,2:2:0:0:
292,240,30954,1,0,2:2:0:0:
292,240,31084,2,0,L|211:258,1,70,2|0,2:2|2:2,0:0:0:0:
178,228,31475,1,2,2:2:0:0:
316,12,31997,6,0,B|335:35|335:67|320:90|320:90|320:90|320:90|302:115|305:147|323:168,1,167.999994873047,10|2,2:2|2:2,0:0:0:0:
434,227,32780,2,0,P|421:265|371:287,1,83.9999974365235,10|10,2:2|2:2,0:0:0:0:
353,341,33171,2,0,P|313:345|271:309,1,83.9999974365235,2|8,2:2|2:2,0:0:0:0:
255,262,33562,1,10,1:1:0:0:
165,335,33823,5,14,2:2:0:0:
189,163,34214,1,10,2:2:0:0:
189,163,34345,2,0,P|162:151|111:165,1,77.0000023498536,8|10,1:1|2:2,0:0:0:0:
12,210,34867,2,0,L|7:128,1,77.0000023498536,2|8,2:2|2:2,2:2:0:0:
2,17,35388,1,10,1:1:0:0:
114,41,35649,1,10,2:2:0:0:
226,65,35910,5,10,2:2:0:0:
394,101,36302,1,10,2:2:0:0:
394,101,36432,2,0,P|417:135|412:179,1,77.0000023498536,8|10,1:1|2:2,0:0:0:0:
344,261,36954,1,2,2:2:0:0:
272,352,37214,1,8,2:2:0:0:
224,246,37475,2,0,P|183:236|142:262,1,77.0000023498536,10|8,1:1|2:2,0:0:0:0:
107,356,37997,5,10,2:2:0:0:
33,274,38258,1,2,2:2:0:0:
33,274,38388,2,0,P|18:220|52:159,1,115.50000352478,10|10,2:2|2:2,0:0:0:0:
136,101,39041,5,10,2:2:0:0:
210,183,39302,1,2,2:2:0:0:
210,183,39432,2,0,P|225:237|191:298,1,115.50000352478,10|10,2:2|2:2,0:0:0:0:
291,361,40084,6,0,P|329:374|377:364,1,77.0000023498536,10|8,2:2|2:2,0:0:0:0:
452,293,40606,1,10,1:1:0:0:
431,179,40867,1,10,2:2:0:0:
332,118,41128,2,0,P|287:116|251:143,1,77.0000023498536,10|8,2:2|2:2,0:0:0:0:
222,175,41519,2,0,P|188:193|150:190,1,77.0000023498536,2|8,2:2|2:2,0:0:0:0:
103,158,41910,1,2,2:2:0:0:
84,272,42171,5,14,2:2:0:0:
249,336,42562,1,10,2:2:0:0:
249,336,42693,2,0,P|237:299|247:262,1,77.0000023498536,8|10,1:1|2:2,0:0:0:0:
341,195,43214,2,0,P|350:158|337:122,1,77.0000023498536,2|8,2:2|2:2,0:0:0:0:
251,42,43736,1,10,1:1:0:0:
364,8,43997,1,10,2:2:0:0:
468,56,44258,6,0,P|483:82|480:140,1,77.0000023498536,10|0,2:2|0:0,0:0:0:0:
500,184,44649,2,0,P|484:210|432:237,1,77.0000023498536,10|0,2:2|0:0,0:0:0:0:
387,233,45041,1,10,2:2:0:0:
287,175,45301,6,0,P|271:201|274:259,1,77.0000023498536,2|8,2:2|2:2,0:0:0:0:
255,303,45692,2,0,P|270:329|322:356,1,77.0000023498536,2|0,2:2|0:0,0:0:0:0:
368,352,46084,1,10,2:2:0:0:
480,323,46345,2,0,B|488:292|488:292|475:197,1,115.50000352478,10|8,2:2|2:2,0:0:0:0:
469,151,46867,1,8,1:1:0:0:
451,36,47128,5,10,2:2:0:0:
357,103,47388,2,0,L|302:105|297:109|243:111,2,115.50000352478,10|10|10,2:2|2:2|2:2,0:0:0:0:
180,3,48693,6,0,L|185:100,1,83.9999974365235,10|8,0:0|1:1,0:0:0:0:
242,111,49084,2,0,L|237:208,1,83.9999974365235,10|0,2:2|3:2,0:0:0:0:
197,243,49475,2,0,L|202:340,1,83.9999974365235,10|0,2:2|3:2,0:0:0:0:
239,384,49867,1,8,2:2:0:0:
239,384,49997,2,2,P|270:357|305:351,1,77.0000023498536,2|10,1:2|2:2,2:2:0:0:
396,372,50519,5,14,2:2:0:0:
450,97,51301,2,0,L|456:63,2,31.4999990386963,2|2|2,2:2|2:2|2:2,0:0:0:0:
303,217,52084,2,0,P|266:224|236:208,1,62.9999980773926,2|10,2:2|2:2,0:0:0:0:
190,135,52606,2,0,L|194:34,2,94.499997116089,10|2|2,2:2|2:2|2:2,0:0:0:0:
110,188,53649,2,0,P|83:204|70:232,2,62.9999980773926,2|10|10,2:2|2:2|1:1,0:0:0:0:
163,267,54432,1,2,2:2:0:0:
216,346,54693,6,0,P|271:363|343:345,1,125.999996154785,10|0,2:2|0:0,0:0:0:0:
401,280,55475,1,10,2:2:0:0:
348,201,55736,2,0,P|293:218|221:200,1,125.999996154785,10|0,2:2|0:0,0:0:0:0:
163,135,56518,1,2,2:2:0:0:
229,66,56780,2,0,B|248:53|271:55|288:66|288:66|307:79|330:78|347:66,1,125.999996154785,10|0,2:2|0:0,0:0:0:0:
417,1,57562,1,2,2:2:0:0:
492,58,57823,2,0,L|491:124,1,62.9999980773926,2|8,2:2|2:2,0:0:0:0:
439,200,58345,1,8,1:1:0:0:
491,279,58606,1,2,2:2:0:0:
448,363,58867,6,0,P|410:380|352:367,2,94.499997116089,10|2|10,2:2|2:2|2:2,0:0:0:0:
396,284,59910,2,0,P|361:259|347:232,1,62.9999980773926,10|0,2:2|0:0,0:0:0:0:
348,147,60432,2,0,L|276:175,1,62.9999980773926,2|2,2:2|2:2,0:0:0:0:
201,205,60954,6,0,P|217:250|209:302,2,94.499997116089,10|2|10,2:2|2:2|2:2,0:0:0:0:
124,149,61997,2,0,L|135:72,1,62.9999980773926,2|8,2:2|2:2,0:0:0:0:
41,109,62519,1,8,1:1:0:0:
51,202,62780,2,0,L|56:237,1,31.4999990386963,2|2,2:2|2:2,0:0:0:0:
64,279,63041,6,0,B|83:292|106:292|124:282|124:282|143:270|166:272|183:284,1,125.999996154785,10|0,2:2|0:0,0:0:0:0:
270,248,63823,2,0,L|275:213,1,31.4999990386963,2|2,2:2|2:2,0:0:0:0:
283,171,64084,2,0,P|316:159|381:179,2,94.499997116089,2|2|10,2:2|2:2|2:2,0:0:0:0:
189,189,65128,2,0,B|157:173|157:173|118:85,1,125.999996154785,10|0,2:2|0:0,0:0:0:0:
84,3,65910,1,10,2:2:0:0:
177,14,66171,2,0,B|249:22,1,62.9999980773926,2|8,2:2|2:2,0:0:0:0:
332,32,66693,1,8,1:1:0:0:
424,42,66954,1,10,2:2:0:0:
367,129,67214,6,0,P|354:180|363:273,1,140,14|8,2:2|1:1,0:0:0:0:
431,344,67997,1,2,2:2:0:0:
328,367,68258,2,0,L|251:380,1,70,2|8,2:2|2:2,0:0:0:0:
157,346,68780,1,10,1:1:0:0:
56,314,69041,1,2,2:2:0:0:
31,208,69301,6,0,P|36:164|84:119,2,105,10|2|2,2:2|2:2|2:2,0:0:0:0:
66,254,70214,1,2,2:2:0:0:
66,254,70345,2,0,L|146:244,1,70,2|10,2:2|2:2,0:0:0:0:
218,310,70867,1,8,1:1:0:0:
283,227,71128,1,2,2:2:0:0:
200,162,71388,6,0,P|189:140|192:91,1,70,10|0,2:2|0:0,0:0:0:0:
224,56,71780,1,0,0:0:0:0:
224,56,71910,1,8,1:1:0:0:
321,17,72171,1,2,2:2:0:0:
403,81,72432,6,0,P|414:103|411:152,1,70,2|8,2:2|2:2,0:0:0:0:
379,187,72824,1,0,0:0:0:0:
379,187,72954,1,8,1:1:0:0:
282,226,73215,1,2,2:2:0:0:
185,265,73475,6,0,B|148:279|148:279|71:263,1,105,10|2,2:2|2:2,0:0:0:0:
76,108,74258,2,0,L|140:95|144:88|209:76,1,140,10|8,2:2|2:2,0:0:0:0:
313,55,75041,1,8,1:1:0:0:
280,156,75301,1,2,2:2:0:0:
350,235,75562,6,0,P|400:221|457:243,2,105,10|2|10,2:2|2:2|2:2,0:0:0:0:
317,336,76606,2,0,P|267:350|210:328,1,105,2|2,2:2|2:2,0:0:0:0:
90,241,77388,1,10,2:2:0:0:
140,148,77649,6,0,P|190:134|247:156,2,105,10|2|10,2:2|2:2|2:2,0:0:0:0:
90,241,78693,2,0,P|40:227|-17:249,2,105,2|2|10,2:2|2:2|2:2,0:0:0:0:
138,334,79736,6,0,L|212:328,1,70,10|0,2:2|0:0,0:0:0:0:
239,285,80128,2,0,L|313:291,1,70,2|0,2:2|0:0,0:0:0:0:
355,315,80519,1,10,2:2:0:0:
430,242,80780,6,0,P|440:207|429:172,1,70,2|8,2:2|2:2,0:0:0:0:
398,133,81171,2,0,P|388:98|399:63,1,70,2|0,2:2|0:0,0:0:0:0:
435,30,81562,1,10,2:2:0:0:
332,7,81823,6,0,B|297:1|297:1|192:22,1,140,10|8,2:2|1:1,0:0:0:0:
92,48,82606,1,8,2:2:0:0:
166,122,82867,2,0,P|177:148|167:193,1,70,2|8,2:2|2:2,0:0:0:0:
93,260,83388,2,0,P|85:293|97:326,1,70,10|8,1:1|2:2,0:0:0:0:
188,350,83910,6,0,P|239:340|282:365,2,94.499997116089,10|10|10,2:2|2:2|2:2,0:0:0:0:
97,326,84954,2,0,L|93:254,1,62.9999980773926,2|2,2:2|2:2,0:0:0:0:
91,172,85475,1,2,2:2:0:0:
91,172,85736,1,2,2:2:0:0:
87,77,85997,6,0,P|36:87|-7:62,2,94.499997116089,10|10|10,2:2|2:2|2:2,0:0:0:0:
164,22,87041,1,2,2:2:0:0:
243,72,87301,2,0,L|244:103,2,31.4999990386963,2|2|10,2:2|2:2|1:1,0:0:0:0:
318,14,87823,1,2,2:2:0:0:
406,71,88084,6,0,P|441:60|482:69,2,70,10|2|10,2:2|2:2|1:1,0:0:0:0:
356,164,88867,1,10,2:2:0:0:
306,257,89128,2,0,P|271:268|230:259,1,70,10|2,2:2|2:2,0:0:0:0:
200,235,89519,1,2,2:2:0:0:
200,235,89649,1,10,1:1:0:0:
188,130,89910,1,2,2:2:0:0:
176,25,90171,6,0,P|225:9|279:30,2,105,10|10|10,2:2|2:2|2:2,0:0:0:0:
91,88,91214,2,0,L|87:162,1,70,2|10,2:2|2:2,0:0:0:0:
152,240,91736,2,0,L|156:314,1,70,10|10,1:1|2:2,0:0:0:0:
72,375,92258,6,0,P|43:374|-1:315,2,105,10|10|10,2:2|2:2|2:2,0:0:0:0:
155,309,93301,2,0,P|190:297|227:313,1,70,2|8,2:2|2:2,0:0:0:0:
301,373,93823,2,0,P|336:385|373:369,1,70,10|2,1:1|2:2,0:0:0:0:
420,284,94345,6,0,P|471:300|527:278,2,105,10|10|10,2:2|2:2|2:2,0:0:0:0:
345,210,95388,2,0,L|340:140,2,70,2|10|8,2:2|2:2|1:1,0:0:0:0:
268,282,96171,1,8,2:2:0:0:
191,354,96432,6,0,P|151:369|89:343,1,105,10|10,2:2|2:2,0:0:0:0:
19,210,97214,1,10,2:2:0:0:
76,122,97475,2,0,P|69:70|32:35,2,105,2|2|10,2:2|2:2|2:2,0:0:0:0:
19,210,98519,5,10,2:2:0:0:
169,163,98910,1,10,2:2:0:0:
319,116,99301,1,10,2:2:0:0:
315,220,99562,5,10,2:2:0:0:
169,163,99953,1,10,2:2:0:0:
22,104,100344,1,10,2:2:0:0:
36,290,102171,5,2,2:2:0:0:
43,384,102432,1,2,2:2:0:0:
158,373,102693,2,0,L|149:286,1,77.0000023498536,14|2,2:2|2:2,0:0:0:0:
201,270,103084,2,0,L|210:183,1,77.0000023498536,10|0,2:2|0:0,0:0:0:0:
212,135,103475,2,0,P|176:123|125:141,2,77.0000023498536,10|2|10,2:2|2:2|2:2,0:0:0:0:
295,215,104258,1,10,1:1:0:0:
313,329,104519,1,10,2:2:0:0:
415,381,104779,5,10,2:2:0:0:
510,236,105171,1,10,2:2:0:0:
510,236,105301,2,0,L|493:157,1,77.0000023498536,8|10,1:0|2:2,0:0:0:0:
408,82,105823,2,0,P|367:72|333:85,1,77.0000023498536,2|8,2:2|2:2,0:0:0:0:
219,85,106345,2,0,P|247:115|253:151,1,77.0000023498536,10|8,1:1|2:2,0:0:0:0:
205,254,106866,5,10,2:2:0:0:
118,329,107127,1,2,2:2:0:0:
118,329,107258,2,0,P|81:340|45:330,1,77.0000023498536,10|0,2:2|0:0,0:0:0:0:
13,281,107649,1,10,2:2:0:0:
0,166,107910,5,10,2:2:0:0:
52,66,108171,1,2,2:2:0:0:
52,66,108302,2,0,P|89:55|125:65,1,77.0000023498536,10|0,2:2|0:0,0:0:0:0:
158,124,108693,5,10,2:2:0:0:
158,124,108823,1,2,2:2:0:0:
158,124,108953,2,0,P|188:139|230:127,1,77.0000023498536,10|10,2:2|2:2,0:0:0:0:
284,26,109475,2,0,P|320:14|354:30,1,77.0000023498536,10|10,1:1|2:2,0:0:0:0:
419,126,109997,6,0,L|413:208,1,77.0000023498536,2|8,2:2|2:2,0:0:0:0:
369,240,110388,2,0,L|375:322,1,77.0000023498536,2|8,2:2|2:2,0:0:0:0:
404,366,110779,1,2,2:2:0:0:
295,324,111040,5,14,2:2:0:0:
126,351,111432,1,10,2:2:0:0:
126,351,111562,2,0,B|133:326|133:326|120:261,1,77.0000023498536,8|10,1:1|2:2,0:0:0:0:
28,209,112084,2,0,B|21:184|21:184|34:119,1,77.0000023498536,2|8,2:2|2:2,0:0:0:0:
59,21,112606,1,10,1:1:0:0:
141,101,112866,1,10,2:2:0:0:
223,181,113127,5,10,2:2:0:0:
346,59,113519,1,10,2:2:0:0:
346,59,113649,2,0,P|383:50|421:56,1,77.0000023498536,8|10,1:1|2:2,0:0:0:0:
510,132,114171,2,0,P|517:156|510:212,1,77.0000023498536,2|8,2:2|2:2,0:0:0:0:
454,307,114693,1,10,1:1:0:0:
362,236,114953,1,10,2:2:0:0:
283,321,115214,6,0,L|229:324|222:320|168:323,1,115.50000352478,10|8,2:2|2:2,0:0:0:0:
111,329,115736,1,8,1:1:0:0:
19,258,115997,1,10,2:2:0:0:
34,142,116258,6,0,P|75:126|114:137,1,77.0000023498536,2|8,2:2|2:2,0:0:0:0:
154,164,116649,2,0,P|195:180|234:169,1,77.0000023498536,2|0,2:2|0:0,0:0:0:0:
277,145,117040,2,0,L|271:63,1,77.0000023498536,10|2,2:2|3:2,0:0:0:0:
157,12,117562,6,0,P|115:11|73:39,1,83.9999974365235,10|8,2:2|1:1,0:0:0:0:
53,89,117953,2,0,P|51:131|79:173,1,83.9999974365235,10|0,2:2|3:2,0:0:0:0:
128,197,118345,2,0,B|152:203|152:203|218:188,1,83.9999974365235,10|8,2:2|2:2,0:0:0:0:
274,176,118736,1,0,2:2:0:0:
274,176,118866,2,2,P|268:212|275:249,1,70,10|2,1:1|3:2,2:2:0:0:
308,284,119258,1,2,3:2:0:0:
308,284,119388,6,0,P|372:263|447:291,1,140,14|8,2:2|1:1,0:0:0:0:
509,376,120171,1,2,2:2:0:0:
509,376,120301,1,2,2:2:0:0:
509,376,120432,2,0,L|525:296,1,70,2|8,2:2|2:2,0:0:0:0:
508,203,120953,1,10,1:1:0:0:
493,98,121214,1,10,2:2:0:0:
410,164,121475,6,0,P|409:222|373:254,2,105,10|2|2,2:2|2:2|2:2,0:0:0:0:
311,125,122519,2,0,L|231:140,2,70,2|10|10,2:2|2:2|1:1,0:0:0:0:
395,59,123301,1,2,2:2:0:0:
493,98,123562,6,0,L|505:161|499:172|511:235,1,140,10|8,2:2|1:1,0:0:0:0:
476,334,124345,1,2,2:2:0:0:
380,289,124606,2,0,P|388:261|375:222,2,70,2|8|8,2:2|2:2|1:1,0:0:0:0:
292,347,125388,1,10,2:2:0:0:
196,302,125649,2,0,P|149:292|87:314,1,105,10|8,2:2|2:2,0:0:0:0:
64,350,126171,1,8,1:1:0:0:
46,246,126432,5,2,2:2:0:0:
28,142,126693,2,0,L|12:35,1,105,2|2,2:2|2:2,0:0:0:0:
144,123,127475,1,2,2:2:0:0:
232,178,127736,6,0,P|218:220|241:284,2,105,10|2|2,2:2|2:2|2:2,0:0:0:0:
320,121,128779,2,0,L|392:118,1,70,2|8,2:2|2:2,0:0:0:0:
502,120,129301,1,10,1:1:0:0:
502,120,129432,1,2,2:2:0:0:
502,120,129562,1,10,2:2:0:0:
444,207,129823,6,0,P|431:253|450:310,2,105,10|10|2,2:2|2:2|2:2,0:0:0:0:
502,120,130866,2,0,P|511:87|498:50,1,70,2|10,2:2|2:2,0:0:0:0:
459,19,131258,2,0,L|416:21,1,35,2|8,2:2|1:1,0:0:0:0:
319,28,131649,1,2,2:2:0:0:
261,116,131910,6,0,P|210:103|156:124,2,105,10|2|2,2:2|2:2|2:2,0:0:0:0:
326,198,132953,2,0,P|377:185|431:206,2,105,2|2|2,2:2|2:2|2:2,0:0:0:0:
263,282,133997,2,0,P|212:295|158:274,1,105,10|8,2:2|2:2,0:0:0:0:
124,243,134519,2,0,L|121:173,1,70,8|8,1:1|2:2,0:0:0:0:
81,75,135040,6,0,P|109:62|154:74,1,70,2|8,2:2|2:2,0:0:0:0:
221,144,135562,2,0,P|249:156|294:144,1,70,10|8,1:1|2:2,0:0:0:0:
357,85,136084,5,10,2:2:0:0:
357,85,136866,1,10,2:2:0:0:
357,85,137388,2,0,P|351:120|362:155,1,62.9999980773926,2|2,2:2|2:2,0:0:0:0:
433,203,137910,1,10,2:2:0:0:
510,256,138171,5,2,2:2:0:0:
510,256,138953,1,10,2:2:0:0:
510,256,139475,2,0,L|504:217,2,31.4999990386963,2|2|10,2:2|2:2|2:2,0:0:0:0:
444,324,139997,1,2,2:2:0:0:
346,285,140258,6,0,P|354:249|344:211,2,70,10|2|10,2:2|2:2|1:1,0:0:0:0:
252,333,141040,1,10,2:2:0:0:
158,380,141301,2,0,L|76:366,1,70,10|2,2:2|2:2,0:0:0:0:
40,364,141693,1,2,2:2:0:0:
40,364,141823,1,10,1:1:0:0:
23,260,142084,1,2,2:2:0:0:
6,156,142345,6,0,P|54:173|114:153,1,105,10|2,2:2|2:2,0:0:0:0:
139,120,142866,1,8,1:1:0:0:
185,25,143127,1,10,2:2:0:0:
245,111,143388,2,0,P|276:100|316:111,2,70,2|10|10,2:2|2:2|1:1,0:0:0:0:
203,207,144171,1,10,2:2:0:0:
271,286,144432,6,0,P|254:335|270:385,2,105,10|10|10,2:2|2:2|2:2,0:0:0:0:
358,228,145475,2,0,L|431:234,1,70,2|8,2:2|2:2,0:0:0:0:
511,170,145997,1,10,1:1:0:0:
448,86,146258,1,2,2:2:0:0:
385,2,146519,6,0,P|331:0|289:32,2,105,10|10|10,2:2|2:2|2:2,0:0:0:0:
448,86,147562,2,0,L|457:157,1,70,2|10,2:2|2:2,0:0:0:0:
503,180,147953,2,0,L|494:251,1,70,2|0,2:2|0:0,0:0:0:0:
486,301,148345,1,10,2:2:0:0:
394,352,148606,6,0,P|360:363|316:345,1,70,10|0,2:2|0:0,0:0:0:0:
285,323,148997,2,0,P|251:312|207:330,1,70,10|0,2:2|0:0,0:0:0:0:
183,360,149388,1,10,2:2:0:0:
89,311,149649,6,0,L|93:236,1,70,2|8,2:2|2:2,0:0:0:0:
138,214,150040,2,0,L|134:139,1,70,2|0,2:2|0:0,0:0:0:0:
110,96,150432,1,10,2:2:0:0:
188,26,150693,6,0,P|223:22|276:67,1,105,10|8,2:2|2:2,0:0:0:0:
299,109,151214,2,0,P|334:113|387:68,1,105,10|10,2:1|2:1,0:0:0:0:
395,19,151736,2,0,L|418:125,1,105,10|8,2:2|2:2,0:0:0:0:
465,142,152258,2,0,L|448:216,1,70,10|10,1:1|2:2,0:0:0:0:
439,262,152649,1,2,2:2:0:0:
439,262,152779,6,0,B|417:279|387:278|367:262|367:262|345:245|315:247|295:262,1,154.000004699707,14|10,2:2|1:1,0:0:0:0:
236,361,153562,1,10,2:2:0:0:
137,302,153823,2,0,L|100:311,2,38.5000011749268,2|2|10,2:2|2:2|2:2,0:0:0:0:
196,203,154345,1,10,1:1:0:0:
255,104,154606,5,10,2:2:0:0:
255,104,154736,1,2,2:2:0:0:
255,104,154866,2,0,P|294:95|332:112,1,77.0000023498536,10|2,2:2|2:2,0:0:0:0:
389,206,155388,2,0,P|428:215|466:198,1,77.0000023498536,10|2,1:1|2:2,0:0:0:0:
503,93,155910,1,2,2:2:0:0:
431,2,156171,1,10,2:2:0:0:
316,19,156432,1,10,1:1:0:0:
201,36,156693,1,10,2:2:0:0:
159,145,156953,6,0,L|170:216|178:222|189:293,1,154.000004699707,10|8,2:2|1:1,0:0:0:0:
277,367,157736,2,0,B|298:385|328:384|348:367|348:367|368:349|398:350|418:367,1,154.000004699707,10|10,2:2|2:2,0:0:0:0:
451,255,158519,1,10,1:1:0:0:
484,143,158779,1,10,2:2:0:0:
484,143,158910,1,2,2:2:0:0:
484,143,159040,6,0,P|490:103|471:67,1,77.0000023498536,10|2,2:2|2:2,0:0:0:0:
427,46,159432,1,8,2:2:0:0:
427,46,159562,2,0,L|345:55,1,77.0000023498536,10|2,1:1|2:2,0:0:0:0:
265,133,160084,6,0,B|259:261,1,115.50000352478,2|0,2:2|0:0,0:0:0:0:
259,306,160606,1,2,2:2:0:0:
259,306,160736,2,0,P|222:295|177:313,1,77.0000023498536,8|0,2:2|0:0,0:0:0:0:
136,336,161127,6,0,L|121:257,1,77.0000023498536,14|0,2:2|0:0,0:0:0:0:
111,202,161519,2,0,L|96:123,1,77.0000023498536,10|0,2:2|0:0,0:0:0:0:
85,69,161910,1,2,2:2:0:0:
192,112,162171,6,0,P|227:124|270:113,1,77.0000023498536,2|8,2:2|2:2,0:0:0:0:
311,80,162562,2,0,P|348:71|384:83,1,77.0000023498536
423,126,162953,1,10,2:2:0:0:
472,11,163214,6,0,L|467:88,1,77.0000023498536,10|0,2:2|0:0,0:0:0:0:
423,126,163606,2,0,L|428:203,1,77.0000023498536,10|0,2:2|0:0,0:0:0:0:
459,251,163997,1,2,2:2:0:0:
465,366,164258,6,0,P|432:375|383:360,1,77.0000023498536,2|8,2:2|2:2,0:0:0:0:
335,380,164649,2,0,P|310:355|299:305,1,77.0000023498536,2|0,2:2|0:0,0:0:0:0:
319,261,165040,1,10,2:2:0:0:
287,149,165301,6,0,L|209:156,1,77.0000023498536,10|0,2:2|0:0,0:0:0:0:
155,165,165693,1,8,2:2:0:0:
155,165,165823,2,0,P|121:154|96:109,1,77.0000023498536,8|2,1:1|2:2,0:0:0:0:
133,16,166345,1,2,2:2:0:0:
133,16,166475,1,0,0:0:0:0:
133,16,166606,1,8,2:2:0:0:
24,38,166866,1,8,1:1:0:0:
8,152,167127,6,0,L|3:194,2,38.5000011749268,10|2|2,2:2|2:2|2:2,0:0:0:0:
8,152,167910,1,2,2:2:0:0:
146,336,168432,6,0,P|184:347|220:330,1,77.0000023498536,10|0,2:2|0:0,0:0:0:0:
251,285,168823,2,0,P|289:274|325:291,1,77.0000023498536,8|0,2:2|0:0,0:0:0:0:
357,334,169214,1,10,2:2:0:0:
456,256,169475,6,0,L|468:310,2,41.9999987182618,14|0|2,2:2|2:2|2:2,0:0:0:0:
441,194,169866,2,0,B|422:182|399:182|381:193|381:193|362:205|339:204|321:192,1,125.999996154785,10|8,2:2|2:2,0:0:0:0:
282,149,170388,1,0,2:2:0:0:
282,149,170519,2,0,L|294:95,1,41.9999987182618,2|0,2:2|2:2,0:0:0:0:
198,22,170910,2,0,B|167:40|167:40|152:100,1,83.9999974365235,2|2,2:2|2:2,0:0:0:0:
140,148,171301,2,0,B|117:243,1,83.9999974365235,10|10,2:2|2:2,0:0:0:0:
89,352,171823,5,2,2:2:0:0:
205,303,172084,2,0,B|238:291|238:291|290:310,1,83.9999974365235,10|8,1:1|2:2,0:0:0:0:
346,335,172475,1,0,2:2:0:0:
346,335,172606,2,0,B|368:239,1,83.9999974365235,2|10,2:2|2:2,0:0:0:0:
255,191,173127,2,0,B|245:150,1,41.9999987182618,10|2,1:1|2:2,0:0:0:0:
228,89,173388,2,0,P|221:63|218:48,2,41.9999987182618,10|2|0,2:2|2:2|0:0,0:0:0:0:
338,149,173910,6,0,B|364:161|364:161|424:147,1,83.9999974365235,2|10,2:2|1:1,0:0:0:0:
479,132,174301,1,2,2:2:0:0:
413,24,174562,1,2,2:2:0:0:
413,24,174693,2,0,B|387:12|387:12|327:26,1,83.9999974365235,10|2,2:2|2:2,0:0:0:0:
276,47,175084,1,8,2:2:0:0:
276,47,175214,2,0,L|222:59|207:53|153:65,1,125.999996154785,10|0,1:1|0:0,0:0:0:0:
92,81,175736,5,10,2:2:0:0:
38,197,175997,1,10,2:2:0:0:
111,301,176258,2,0,B|131:310|131:310|197:294,1,83.9999974365235,10|10,1:1|2:2,0:0:0:0:
253,281,176649,1,0,2:2:0:0:
253,281,176779,6,0,L|350:256,1,83.9999974365235,2|10,2:2|2:2,0:0:0:0:
400,248,177171,1,2,2:2:0:0:
400,248,177301,1,10,1:1:0:0:
359,139,177562,1,2,2:2:0:0:
359,139,177693,1,10,1:1:0:0:
359,139,177823,6,0,B|339:148|339:148|234:123,1,125.999996154785,14|8,2:2|2:2,0:0:0:0:
175,110,178345,1,8,1:1:0:0:
52,79,178606,2,0,L|58:169,1,83.9999974365235,10|2,2:2|2:2,0:0:0:0:
68,229,178997,1,2,2:2:0:0:
68,229,179127,2,0,L|114:233,1,41.9999987182618,10|2,2:2|2:2,0:0:0:0:
172,238,179388,2,0,B|185:259|185:259|175:332,1,83.9999974365235,10|10,1:0|0:0,0:0:0:0:
167,379,179779,1,0,0:0:0:0:
167,379,179910,6,0,L|255:370,1,83.9999974365235,10|2,2:2|2:2,0:0:0:0:
313,360,180301,1,10,2:2:0:0:
313,360,180432,2,0,B|326:338|326:338|316:265,1,83.9999974365235,10|10,1:1|2:2,0:0:0:0:
310,218,180823,2,0,L|396:231,1,83.9999974365235,2|2,2:2|2:2,0:0:0:0:
463,246,181214,1,10,2:2:0:0:
463,246,181345,1,2,2:2:0:0:
463,246,181475,2,0,B|449:224|449:224|459:151,1,83.9999974365235,10|8,1:1|2:2,0:0:0:0:
477,41,181997,6,0,L|419:51|415:58|357:68,1,125.999996154785,10|8,2:2|2:2,0:0:0:0:
295,82,182519,1,8,1:1:0:0:
197,11,182779,1,2,2:2:0:0:
197,11,182910,2,0,L|187:99,1,83.9999974365235,2|2,2:2|2:2,0:0:0:0:
129,118,183301,2,0,L|139:206,2,83.9999974365235,10|8|10,2:2|1:1|2:2,0:0:0:0:
197,11,184084,6,0,P|227:-3|322:17,1,125.999996154785,10|10,2:2|2:2,0:0:0:0:
353,62,184606,1,8,1:1:0:0:
434,157,184866,2,0,L|529:148,2,83.9999974365235,2|2|10,2:2|2:2|2:2,0:0:0:0:
370,266,185649,2,0,L|275:257,1,83.9999974365235,10|10,1:1|2:2,0:0:0:0:
181,253,186171,6,0,P|204:302|195:351,2,105,6|2|2,2:2|2:2|2:2,0:0:0:0:
76,246,187214,2,2,L|55:184|58:175|37:113,2,140,2|2|6,2:2|2:2|2:2,2:2:0:0:
256,192,200779,12,0,202866,0:0:0:0:
342,0,203910,5,2,2:2:0:0:
427,192,204431,5,2,2:2:0:0:
512,384,204953,6,0,L|424:378,1,77.0000023498536,10|2,2:2|2:2,0:0:0:0:
386,347,205344,2,0,P|374:314|386:268,1,77.0000023498536,10|0,2:2|0:0,0:0:0:0:
426,235,205736,2,0,L|514:229,2,77.0000023498536,10|2|10,2:2|2:2|2:2,0:0:0:0:
310,241,206518,1,10,1:1:0:0:
194,251,206779,1,10,2:2:0:0:
78,259,207040,5,2,2:2:0:0:
42,94,207431,1,10,2:2:0:0:
42,94,207562,2,0,P|77:107|119:93,1,77.0000023498536,8|10,1:0|2:2,0:0:0:0:
200,19,208084,2,0,P|235:6|277:20,1,77.0000023498536,2|8,2:2|2:2,0:0:0:0:
345,106,208605,1,10,1:1:0:0:
418,195,208866,1,8,2:2:0:0:
491,284,209127,5,10,2:2:0:0:
402,357,209388,1,2,2:2:0:0:
402,357,209518,2,0,P|357:369|321:356,1,77.0000023498536,10|0,2:2|0:0,0:0:0:0:
291,315,209910,1,10,2:2:0:0:
218,226,210171,5,10,2:2:0:0:
145,137,210432,1,2,2:2:0:0:
145,137,210562,2,0,P|100:125|64:138,1,77.0000023498536,10|0,2:2|0:0,0:0:0:0:
27,167,210953,1,10,2:2:0:0:
27,167,211084,1,2,2:2:0:0:
27,167,211214,6,0,L|19:247,1,77.0000023498536,10|10,2:2|2:2,0:0:0:0:
114,310,211736,2,0,L|122:230,1,77.0000023498536,10|10,1:1|2:2,0:0:0:0:
225,180,212258,2,0,P|264:168|309:185,1,77.0000023498536,2|8,2:2|2:2,0:0:0:0:
337,219,212649,2,0,P|376:231|421:214,1,77.0000023498536,2|8,2:2|2:2,0:0:0:0:
449,179,213040,1,2,2:2:0:0:
502,281,213301,5,14,2:2:0:0:
365,384,213693,1,10,2:2:0:0:
365,384,213823,2,0,P|374:347|362:310,1,77.0000023498536,8|10,1:1|2:2,0:0:0:0:
263,250,214344,2,0,P|253:213|265:176,1,77.0000023498536,2|8,2:2|2:2,0:0:0:0:
362,112,214866,1,10,1:1:0:0:
298,15,215127,5,10,2:2:0:0:
298,15,215258,1,2,2:2:0:0:
298,15,215388,1,10,0:0:0:0:
128,9,215779,1,10,0:0:0:0:
128,9,215910,2,0,P|89:8|56:27,1,77.0000023498536,8|10,1:0|0:0,0:0:0:0:
6,131,216431,2,0,L|-1:211,1,77.0000023498536,2|8,2:2|2:2,0:0:0:0:
39,316,216953,1,10,1:1:0:0:
150,345,217214,1,10,2:2:0:0:
260,374,217475,6,0,P|272:332|259:299,1,77.0000023498536,10|0,2:2|0:0,0:0:0:0:
226,255,217866,2,0,P|214:213|227:180,1,77.0000023498536,10|0,2:2|0:0,0:0:0:0:
269,144,218258,1,10,2:2:0:0:
358,72,218518,1,2,2:2:0:0:
466,114,218779,1,10,2:2:0:0:
466,114,218910,1,2,2:2:0:0:
376,185,219171,1,2,2:2:0:0:
376,185,219301,1,10,2:2:0:0:
503,377,219823,5,10,2:2:0:0:
389,357,220084,1,10,1:1:0:0:
275,337,220344,1,2,3:2:0:0:
275,337,220475,1,2,3:2:0:0:
275,337,220605,2,0,L|264:243,1,77.0000023498536,10|8,2:2|2:2,0:0:0:0:
357,187,221127,5,10,1:1:0:0:
357,187,221258,1,8,2:2:0:0:
357,187,221388,1,8,1:1:0:0:
357,187,221518,1,8,1:1:0:0:
357,187,221649,5,14,2:2:0:0:
236,70,222040,1,10,2:2:0:0:
236,70,222171,2,0,L|154:82,1,77.0000023498536,8|10,1:1|2:2,0:0:0:0:
59,139,222692,2,0,P|47:177|63:223,1,77.0000023498536,2|8,2:2|2:2,0:0:0:0:
141,289,223214,1,10,1:1:0:0:
227,366,223475,1,10,2:2:0:0:
304,280,223736,5,10,2:2:0:0:
141,289,224127,1,10,2:2:0:0:
141,289,224258,2,0,P|129:251|145:205,1,77.0000023498536,8|10,1:1|2:2,0:0:0:0:
220,135,224779,1,2,2:2:0:0:
140,52,225040,1,10,2:2:0:0:
57,132,225301,1,10,1:1:0:0:
137,215,225562,1,10,2:2:0:0:
220,135,225823,6,0,L|302:148,1,77.0000023498536,10|2,2:2|2:2,0:0:0:0:
340,184,226214,2,0,P|352:214|339:261,1,77.0000023498536,10|0,2:2|0:0,0:0:0:0:
299,294,226605,1,10,2:2:0:0:
372,383,226866,6,0,L|454:370,1,77.0000023498536,10|2,2:2|2:2,0:0:0:0:
492,334,227257,2,0,P|505:304|492:257,1,77.0000023498536,10|0,2:2|0:0,0:0:0:0:
451,224,227648,1,10,2:2:0:0:
341,262,227910,6,0,L|247:252,1,77.0000023498536,10|0,2:2|0:0,0:0:0:0:
194,162,228431,1,10,1:1:0:0:
228,52,228692,1,10,2:2:0:0:
121,4,228953,6,0,P|158:-6|200:11,1,77.0000023498536,10|8,2:2|2:2,0:0:0:0:
228,52,229344,2,0,P|265:62|307:45,1,77.0000023498536,2|8,2:2|2:2,0:0:0:0:
334,2,229736,1,2,2:2:0:0:
406,59,229997,5,14,2:2:0:0:
441,233,230388,1,10,2:2:0:0:
441,233,230518,2,0,L|435:315,1,77.0000023498536,8|10,1:1|2:2,0:0:0:0:
333,364,231040,2,0,P|293:374|255:362,1,77.0000023498536,2|8,2:2|2:2,0:0:0:0:
183,276,231562,1,10,1:1:0:0:
221,167,231823,1,10,2:2:0:0:
259,58,232084,6,0,P|217:47|174:61,1,77.0000023498536,10|0,2:2|0:0,0:0:0:0:
136,22,232475,2,0,P|105:52|96:97,1,77.0000023498536,10|0,2:2|0:0,0:0:0:0:
115,138,232866,1,10,2:2:0:0:
168,240,233127,6,0,P|220:224|287:248,1,115.50000352478,2|0,2:2|0:0,0:0:0:0:
318,281,233649,1,10,1:1:0:0:
393,368,233910,1,10,2:2:0:0:
480,293,234171,6,0,L|479:238|474:234|473:179,1,115.50000352478,10|0,2:2|0:0,0:0:0:0:
472,122,234692,1,8,1:1:0:0:
465,6,234953,1,10,2:2:0:0:
369,71,235214,2,0,P|332:83|291:69,1,77.0000023498536,10|0,2:2|0:0,0:0:0:0:
250,37,235605,2,0,P|213:25|172:39,1,77.0000023498536,10|0,2:2|0:0,0:0:0:0:
140,73,235997,1,10,2:2:0:0:
140,73,236518,6,0,L|144:162,1,77.0000023498536,10|8,2:2|1:1,0:0:0:0:
148,208,236910,2,0,L|152:297,1,77.0000023498536,10|0,2:2|3:2,0:0:0:0:
157,342,237301,2,0,P|180:366|261:364,1,115.50000352478,10|10,2:2|2:2,0:0:0:0:
293,327,237823,5,10,1:1:0:0:
300,222,238084,1,10,2:2:0:0:
307,117,238344,1,2,2:2:0:0:
307,117,239127,5,2,2:2:0:0:
314,222,239388,2,0,P|363:201|416:221,2,105,2|2|2,2:2|2:2|2:2,0:0:0:0:
321,327,240692,6,0,P|290:350|238:345,1,77.0000023498536,10|8,2:0|1:1,0:0:0:0:
204,383,241084,2,0,P|168:367|146:320,1,77.0000023498536,10|0,2:0|0:0,0:0:0:0:
97,309,241475,2,0,P|92:270|122:228,1,77.0000023498536,10|2,2:0|2:0,0:0:0:0:
162,209,241866,1,2,0:0:0:0:
162,209,241997,1,2,0:0:0:0:
