osu file format v14

[General]
AudioFilename: audio.mp3
AudioLeadIn: 0
PreviewTime: 55080
Countdown: 0
SampleSet: Soft
StackLeniency: 0.7
Mode: 0
LetterboxInBreaks: 0
WidescreenStoryboard: 0

[Editor]
Bookmarks: 62330
DistanceSpacing: 1.2
BeatDivisor: 4
GridSize: 4
TimelineZoom: 1.4

[Metadata]
Title:Odoriko (TV Size)
TitleUnicode:踊り子 (TV Size)
Artist:Hayami Saori & Takagaki Ayahi
ArtistUnicode:早見 沙織 & 高垣 彩陽
Creator:DvxNL
Version:Lost love
Source:Sora no Otoshimono: Forte
Tags:ending vintage jpop nymph
BeatmapID:1240074
BeatmapSetID:584525

[Difficulty]
HPDrainRate:6
CircleSize:4
OverallDifficulty:7
ApproachRate:8.3
SliderMultiplier:1.8
SliderTickRate:1

[Events]
//Background and Video events
0,0,"Nymph_by_a_takagi-d4mbmzf.png",0,0
//Break Periods
//Storyboard Layer 0 (Background)
//Storyboard Layer 1 (Fail)
//Storyboard Layer 2 (Pass)
//Storyboard Layer 3 (Foreground)
//Storyboard Sound Samples

[TimingPoints]
80,500,4,2,1,50,1,0
8080,-83.3333333333333,4,2,1,55,0,0
16080,-76.9230769230769,4,2,1,60,0,0
24080,-83.3333333333333,4,2,2,60,0,0
54330,-76.9230769230769,4,2,2,60,0,0
55330,-66.6666666666667,4,2,2,70,0,0
56080,-66.6666666666667,4,2,2,70,0,1
70705,-80,4,2,2,60,0,0
71330,-66.6666666666667,4,2,1,70,0,0
72080,-66.6666666666667,4,2,1,80,0,1
85080,-66.6666666666667,4,2,1,60,0,1
86080,-66.6666666666667,4,2,1,40,0,0
87830,-66.6666666666667,4,2,1,5,0,0

[Colours]
Combo1 : 225,162,247
Combo2 : 170,255,170
Combo3 : 166,172,255
Combo4 : 253,87,112

[HitObjects]
72,72,80,5,2,0:0:0:0:
184,264,330,2,0,P|224:240|244:196,1,90,0|2,0:0|0:0,0:0:0:0:
413,71,830,5,0,0:0:0:0:
301,263,1080,2,0,P|261:239|241:195,1,90,2|0,0:0|0:0,0:0:0:0:
232,64,1580,2,0,P|272:44|316:52,1,90,2|0,0:0|0:0,0:0:0:0:
408,152,2080,5,2,0:0:0:0:
334,296,2330,2,0,P|270:272|256:240,1,90,0|2,0:0|0:0,0:0:0:0:
184,100,2830,1,0,0:0:0:0:
328,208,3080,2,0,P|288:252|256:256,1,90,2|0,0:0|0:0,0:0:0:0:
100,224,3580,1,2,0:0:0:0:
216,176,3705,1,0,0:0:0:0:
104,124,3830,1,0,0:0:0:0:
216,68,4080,6,0,P|264:72|296:112,1,90,2|0,0:0|0:0,0:0:0:0:
304,264,4580,2,0,P|252:256|228:224,1,90,2|0,0:0|0:0,0:0:0:0:
348,132,5080,2,0,P|396:136|428:176,1,90,2|0,0:0|0:0,0:0:0:0:
432,328,5580,2,0,P|380:320|356:288,1,90,2|0,0:0|0:0,0:0:0:0:
336,88,6080,5,2,0:0:0:0:
256,228,6330,2,0,P|200:212|172:160,1,90
192,48,6830,1,0,0:0:0:0:
56,120,7080,2,0,P|96:164|160:160,1,90
272,152,7580,1,2,0:0:0:0:
220,272,7705,1,0,0:0:0:0:
352,244,7830,1,0,0:0:0:0:
424,152,8080,6,0,P|368:132|320:140,1,107.999996704102,2|0,0:0|0:0,0:0:0:0:
96,224,8580,2,0,P|164:248|200:236,1,107.999996704102,8|0,0:0|0:0,0:0:0:0:
381,73,9080,2,0,P|322:84|285:114,1,107.999996704102,2|0,0:0|0:0,0:0:0:0:
133,299,9580,2,0,P|204:286|229:258,1,107.999996704102,8|0,0:0|0:0,0:0:0:0:
305,26,10080,6,0,P|260:65|242:110,1,107.999996704102,2|0,0:0|0:0,0:0:0:0:
203,346,10580,2,0,P|258:299|272:264,1,107.999996704102,8|0,0:0|0:0,0:0:0:0:
336,120,11080,1,2,0:0:0:0:
224,224,11330,1,0,0:0:0:0:
88,132,11580,1,8,0:0:0:0:
112,28,11705,1,0,0:0:0:0:
208,76,11830,1,0,0:0:0:0:
396,176,12080,6,0,P|360:236|312:244,1,107.999996704102,2|0,0:0|0:0,0:0:0:0:
180,272,12580,1,8,0:0:0:0:
260,76,12830,1,0,0:0:0:0:
80,56,13080,2,0,P|96:120|128:160,1,107.999996704102,2|0,0:0|0:0,0:0:0:0:
240,296,13580,1,8,0:0:0:0:
32,292,13830,1,0,0:0:0:0:
204,196,14080,6,0,L|308:136,1,107.999996704102,6|0,0:0|0:0,0:0:0:0:
424,48,14580,2,0,P|384:80|296:56,1,107.999996704102,8|0,0:0|0:0,0:0:0:0:
152,40,15080,1,6,0:0:0:0:
304,136,15330,1,0,0:0:0:0:
152,192,15580,1,8,0:0:0:0:
272,260,15705,1,0,0:0:0:0:
152,312,15830,1,0,0:0:0:0:
312,360,16080,5,2,0:0:0:0:
452,288,16330,1,0,0:0:0:0:
256,260,16580,1,8,0:0:0:0:
440,156,16830,1,0,0:0:0:0:
268,156,17080,2,0,P|231:217|233:267,1,116.999994644165,0|0,0:0|0:0,0:0:0:0:
231,105,17580,2,0,P|175:139|149:204,1,116.999994644165,8|0,0:0|0:0,0:0:0:0:
203,43,18080,2,0,P|134:65|73:118,1,116.999994644165,2|0,0:0|0:0,0:0:0:0:
16,224,18580,5,8,0:0:0:0:
172,340,18830,1,0,0:0:0:0:
148,152,19080,1,0,0:0:0:0:
56,328,19330,1,0,0:0:0:0:
216,228,19580,1,8,0:0:0:0:
272,192,19705,1,0,0:0:0:0:
316,144,19830,1,0,0:0:0:0:
460,68,20080,6,0,L|460:188,1,116.999994644165,2|2,0:0|0:0,0:0:0:0:
380,316,20580,2,0,L|380:184,1,116.999994644165,8|0,0:0|0:0,0:0:0:0:
300,72,21080,2,0,L|300:192,1,116.999994644165,2|2,0:0|0:0,0:0:0:0:
220,320,21580,2,0,L|220:188,1,116.999994644165,8|0,0:0|0:0,0:0:0:0:
168,68,22080,5,2,0:0:0:0:
16,148,22330,1,2,0:0:0:0:
264,152,22580,1,8,0:0:0:0:
64,264,22830,1,2,0:0:0:0:
284,304,23080,5,2,0:0:0:0:
204,148,23330,1,2,0:0:0:0:
400,268,23580,1,10,0:0:0:0:
344,168,23705,1,2,0:0:0:0:
296,76,23830,1,2,0:0:0:0:
96,72,24080,5,2,0:0:0:0:
124,276,24330,2,0,P|192:300|256:292,1,107.999996704102,2|8,0:0|0:0,0:0:0:0:
404,280,24830,1,2,0:0:0:0:
192,184,25080,1,0,0:0:0:0:
404,160,25330,2,0,P|356:108|308:112,1,107.999996704102,2|8,0:0|0:0,0:0:0:0:
176,172,25830,1,0,0:0:0:0:
216,48,26080,2,0,P|332:28|444:60,1,215.999993408203,0|8,0:0|0:0,0:0:0:0:
484,156,26830,6,0,P|468:236|416:252,1,107.999996704102,2|0,0:0|0:0,0:0:0:0:
280,324,27330,1,2,0:0:0:0:
360,188,27580,1,8,0:0:0:0:
204,232,27830,1,0,0:0:0:0:
60,188,28080,2,0,P|120:48|276:80,1,323.999990112305,2|0,0:0|0:0,0:0:0:0:
332,220,29080,6,0,P|404:232|428:184,1,107.999996704102,2|2,0:0|0:0,0:0:0:0:
472,96,29580,1,8,0:0:0:0:
328,52,29830,1,0,0:0:0:0:
384,196,30080,2,0,P|232:240|136:208,1,215.999993408203,2|8,0:0|0:0,0:0:0:0:
396,188,30830,5,2,0:0:0:0:
288,308,31080,2,0,P|352:332|400:308,1,107.999996704102,2|2,0:0|0:0,0:0:0:0:
464,208,31580,1,10,0:0:0:0:
392,48,31830,1,0,0:0:0:0:
316,208,32080,2,0,P|200:260|176:200,1,215.999993408203,2|8,0:0|0:0,0:0:0:0:
128,60,32830,6,0,P|88:96|72:148,1,107.999996704102,2|2,0:0|0:0,0:0:0:0:
60,304,33330,1,2,0:0:0:0:
228,360,33580,1,8,0:0:0:0:
132,196,33830,1,0,0:0:0:0:
276,268,34080,2,0,P|384:208|320:148,1,215.999993408203,2|8,0:0|0:0,0:0:0:0:
216,56,34830,5,2,0:0:0:0:
60,132,35080,2,0,P|120:196|156:204,1,107.999996704102,0|2,0:0|0:0,0:0:0:0:
340,220,35580,2,0,P|284:148|224:132,1,107.999996704102,8|0,0:0|0:0,0:0:0:0:
176,72,36080,2,0,B|132:32|132:32|308:44,1,215.999993408203,2|8,0:0|0:0,0:0:0:0:
472,100,36830,5,2,0:0:0:0:
364,188,37080,2,0,P|284:196|244:172,1,107.999996704102,0|2,0:0|0:0,0:0:0:0:
108,104,37580,2,0,P|84:156|92:212,1,107.999996704102,8|2,0:0|0:0,0:0:0:0:
216,324,38080,1,2,0:0:0:0:
248,168,38330,6,0,P|280:120|332:108,1,107.999996704102,4|0,0:0|0:0,0:0:0:0:
380,132,38705,2,0,P|404:196|376:240,1,107.999996704102,4|0,0:0|0:0,0:0:0:0:
340,264,39080,2,0,P|280:248|252:208,1,107.999996704102,2|4,0:0|0:0,0:0:0:0:
232,160,39455,1,0,0:0:0:0:
204,56,39705,1,4,0:0:0:0:
44,192,40080,1,2,0:0:0:0:
164,328,40330,6,0,P|224:288|244:248,1,107.999996704102,0|8,0:0|0:0,0:0:0:0:
296,132,40830,1,2,0:0:0:0:
120,200,41080,1,0,0:0:0:0:
172,56,41330,2,0,P|272:32|320:36,1,107.999996704102,2|8,0:0|0:0,0:0:0:0:
444,72,41830,1,0,0:0:0:0:
368,192,42080,2,0,P|264:136|160:128,1,215.999993408203,2|8,0:0|0:0,0:0:0:0:
68,196,42830,6,0,B|148:204|160:300|204:308|288:316,1,215.999993408203,2|2,0:0|0:0,0:0:0:0:
396,336,43580,1,8,0:0:0:0:
268,236,43830,1,0,0:0:0:0:
136,144,44080,2,0,P|240:68|320:152,1,215.999993408203,0|8,0:0|0:0,0:0:0:0:
324,276,44830,5,2,0:0:0:0:
212,140,45080,1,0,0:0:0:0:
196,316,45330,1,2,0:0:0:0:
80,184,45580,2,0,P|96:116|132:104,1,107.999996704102,8|0,0:0|0:0,0:0:0:0:
244,88,46080,2,0,B|312:80|312:80|196:204,1,215.999993408203,2|8,0:0|0:0,0:0:0:0:
124,276,46830,5,2,0:0:0:0:
280,312,47080,2,0,P|344:276|360:236,1,107.999996704102,0|2,0:0|0:0,0:0:0:0:
384,96,47580,2,0,P|324:124|312:168,1,107.999996704102,8|0,0:0|0:0,0:0:0:0:
368,324,48080,2,0,P|452:288|404:160,1,215.999993408203,2|8,0:0|0:0,0:0:0:0:
312,64,48830,6,0,P|244:40|196:48,1,107.999996704102,2|0,0:0|0:0,0:0:0:0:
68,100,49330,5,2,0:0:0:0:
212,196,49580,1,8,0:0:0:0:
68,240,49830,1,0,0:0:0:0:
184,96,50080,2,0,P|280:80|392:136,1,215.999993408203,2|8,0:0|0:0,0:0:0:0:
432,272,50830,5,2,0:0:0:0:
276,336,51080,2,0,P|224:272|232:228,1,107.999996704102,0|2,0:0|0:0,0:0:0:0:
304,96,51580,2,0,P|352:160|344:212,1,107.999996704102,8|0,0:0|0:0,0:0:0:0:
220,296,52080,2,0,P|92:264|36:196,1,215.999993408203,2|8,0:0|0:0,0:0:0:0:
52,80,52830,1,2,0:0:0:0:
176,52,53080,6,0,P|316:44|460:172,1,323.999990112305,0|2,0:0|0:0,0:0:0:0:
464,264,54080,2,0,B|248:280|332:124|144:68|36:156,1,431.999986816407,2|4,0:0|0:0,0:0:0:0:
28,216,55330,6,0,P|56:296|124:308,1,135.000005149842,2|2,0:0|0:0,0:0:0:0:
260,304,55830,1,2,0:0:0:0:
188,152,56080,2,0,P|292:36|396:116,1,270.000010299683,2|8,0:0|0:0,0:0:0:0:
384,216,56830,5,0,0:0:0:0:
152,228,57080,1,2,0:0:0:0:
388,336,57330,1,0,0:0:0:0:
172,352,57580,1,8,0:0:0:0:
84,216,57830,2,0,P|172:136|244:132,1,135.000005149842,2|2,0:0|0:0,0:0:0:0:
364,176,58330,2,0,P|300:216|228:216,1,135.000005149842,0|8,0:0|0:0,0:0:0:0:
44,208,58830,5,0,0:0:0:0:
112,44,59080,1,0,0:0:0:0:
184,184,59330,2,0,P|264:208|328:136,1,135.000005149842,2|10,0:0|0:0,0:0:0:0:
384,76,59830,1,2,0:0:0:0:
444,188,60080,2,0,P|392:260|336:288,1,135.000005149842,2|0,0:0|0:0,0:0:0:0:
120,260,60580,2,0,P|160:192|216:160,1,135.000005149842,10|0,0:0|0:0,0:0:0:0:
384,104,61080,2,0,P|332:176|276:204,1,135.000005149842,2|0,0:0|0:0,0:0:0:0:
60,176,61580,2,0,P|100:108|156:76,1,135.000005149842,10|0,0:0|0:0,0:0:0:0:
360,56,62080,5,2,0:0:0:0:
208,160,62330,1,0,0:0:0:0:
432,176,62580,1,8,0:0:0:0:
284,280,62830,2,0,P|184:308|104:296,1,135.000005149842,0|0,0:0|0:0,0:0:0:0:
36,180,63330,2,0,P|88:68|124:48,1,135.000005149842,2|2,0:0|0:0,0:0:0:0:
320,32,63830,2,0,P|312:108|256:172,1,135.000005149842,2|0,0:0|0:0,0:0:0:0:
128,272,64330,5,0,0:0:0:0:
372,272,64580,1,8,0:0:0:0:
128,168,64830,1,0,0:0:0:0:
372,168,65080,1,2,0:0:0:0:
200,340,65330,1,2,0:0:0:0:
304,96,65580,1,10,0:0:0:0:
304,340,65830,1,0,0:0:0:0:
200,96,66080,1,0,0:0:0:0:
400,288,66330,1,0,0:0:0:0:
448,128,66580,2,0,P|352:32|248:88,1,270.000010299683,8|0,0:0|0:0,0:0:0:0:
164,324,67330,6,0,P|264:316|304:276,1,135.000005149842,2|10,0:0|0:0,0:0:0:0:
404,208,67830,1,2,0:0:0:0:
136,224,68080,1,4,0:0:0:0:
232,64,68330,1,0,0:0:0:0:
392,64,68580,2,0,P|436:128|408:192,1,135.000005149842,8|0,0:0|0:0,0:0:0:0:
252,316,69080,2,0,P|196:256|220:208,1,135.000005149842,4|0,0:0|0:0,0:0:0:0:
280,80,69580,2,0,P|220:28|164:36,1,135.000005149842,8|0,0:0|0:0,0:0:0:0:
20,164,70080,2,0,B|140:464|276:-84|268:456|500:168,1,540.000020599366,0|2,0:0|0:0,0:0:0:0:
476,48,71330,6,0,P|396:44|352:88,1,135.000005149842,0|2,0:0|0:0,0:0:0:0:
428,256,71830,2,0,P|344:280|300:240,1,135.000005149842,2|4,0:0|0:0,0:0:0:0:
228,56,72330,1,0,0:0:0:0:
176,276,72580,1,8,0:0:0:0:
24,112,72830,1,0,0:0:0:0:
20,280,73080,2,0,P|96:332|140:304,1,135.000005149842,0|2,0:0|0:0,0:0:0:0:
304,244,73580,5,10,0:0:0:0:
160,160,73830,1,2,0:0:0:0:
388,88,74080,1,0,0:0:0:0:
232,32,74330,2,0,P|144:56|120:100,1,135.000005149842,0|8,0:0|0:0,0:0:0:0:
96,296,74830,1,0,0:0:0:0:
304,180,75080,1,0,0:0:0:0:
280,344,75330,5,2,0:0:0:0:
184,148,75580,1,10,0:0:0:0:
416,168,75830,1,2,0:0:0:0:
160,292,76080,1,2,0:0:0:0:
292,72,76330,1,0,0:0:0:0:
412,308,76580,1,8,0:0:0:0:
128,180,76830,1,0,0:0:0:0:
396,56,77080,1,2,0:0:0:0:
368,328,77330,1,0,0:0:0:0:
272,136,77580,6,0,P|180:92|108:120,1,135.000005149842,8|0,0:0|0:0,0:0:0:0:
16,236,78080,1,2,0:0:0:0:
164,352,78330,1,0,0:0:0:0:
336,276,78580,2,0,P|376:164|240:56,1,270.000010299683,8|0,0:0|0:0,0:0:0:0:
68,108,79330,2,0,P|60:196|104:232,1,135.000005149842,2|2,0:0|0:0,0:0:0:0:
260,300,79830,1,2,0:0:0:0:
220,144,80080,2,0,P|272:48|404:96,1,270.000010299683,0|8,0:0|0:0,0:0:0:0:
336,272,80830,6,0,P|268:312|208:288,1,135.000005149842,2|2,0:0|0:0,0:0:0:0:
76,228,81330,1,2,0:0:0:0:
304,172,81580,1,8,0:0:0:0:
116,120,81830,1,0,0:0:0:0:
316,56,82080,2,0,P|220:40|160:64,1,135.000005149842,2|0,0:0|0:0,0:0:0:0:
32,180,82580,2,0,P|112:300|248:348,1,270.000010299683,8|0,0:0|0:0,0:0:0:0:
352,332,83330,6,0,P|432:272|448:216,1,135.000005149842,2|10,0:0|0:0,0:0:0:0:
440,104,83830,1,2,0:0:0:0:
296,212,84080,2,0,P|232:232|164:216,1,135.000005149842,4|0,0:0|0:0,0:0:0:0:
44,80,84580,2,0,P|120:128|184:144,1,135.000005149842,8|0,0:0|0:0,0:0:0:0:
320,136,85080,1,4,0:0:0:0:
436,36,85330,1,0,0:0:0:0:
288,64,85580,2,0,P|204:80|144:76,1,135.000005149842,8|0,0:0|0:0,0:0:0:0:
32,100,86080,2,0,B|52:224|108:308|224:336|364:352|420:300|512:300,1,540.000020599366,4|0,0:0|0:0,0:0:0:0:
