osu file format v14

[General]
AudioFilename: audio.mp3
AudioLeadIn: 0
PreviewTime: 51084
Countdown: 0
SampleSet: Soft
StackLeniency: 0.4
Mode: 0
LetterboxInBreaks: 0
WidescreenStoryboard: 1

[Editor]
DistanceSpacing: 0.9
BeatDivisor: 4
GridSize: 16
TimelineZoom: 2.4

[Metadata]
Title:Yasashii Kibou (TV Size)
TitleUnicode:やさしい希望 (TV Size)
Artist:Hayami Saori
ArtistUnicode:早見沙織
Creator:Vararaup
Version:TheShadow's Normal
Source:赤髪の白雪姫
Tags:Akagami no Shirayukihime red haired princess snow white Zen Shirayuki TheShadowOfDark anime japanese jpop j-pop pop tv edit
BeatmapID:2680577
BeatmapSetID:1267439

[Difficulty]
HPDrainRate:4
CircleSize:3.4
OverallDifficulty:4
ApproachRate:5
SliderMultiplier:1.2
SliderTickRate:1

[Events]
//Background and Video events
0,0,"wallhaven-r2r28j.jpg",0,0
//Break Periods
2,52027,56875
//Storyboard Layer 0 (Background)
//Storyboard Layer 1 (Fail)
//Storyboard Layer 2 (Pass)
//Storyboard Layer 3 (Foreground)
//Storyboard Layer 4 (Overlay)
//Storyboard Sound Samples

[TimingPoints]
717,377.358490566038,4,2,1,40,1,0
717,-111.111111111111,4,2,1,40,0,0
5056,-100,4,2,1,70,0,0
6754,-100,4,2,1,70,0,0
11660,-100,4,2,1,50,0,0
12792,-111.111111111111,4,2,1,50,0,0
24867,-105.263157894737,4,2,1,60,0,0
36754,-142.857142857143,4,2,1,40,0,0
42226,-105.263157894737,4,2,1,60,0,0
45811,-100,4,2,1,70,0,0
50339,-100,4,2,1,70,0,0
52037,-125,4,2,1,50,0,0
58075,-111.111111111111,4,2,1,60,0,0
64113,-100,4,2,1,70,0,1
70150,-100,4,2,1,60,0,0
73169,-100,4,2,1,70,0,1
76188,-105.263157894737,4,2,1,60,0,0
89584,-111.111111111111,4,2,1,5,0,0

[Colours]
Combo1 : 120,192,235
Combo2 : 235,68,44
Combo3 : 160,223,66
Combo4 : 241,213,99

[HitObjects]
5,7,717,6,0,P|22:62|63:100,1,107.999996704102,2|2,0:0|0:0,0:0:0:0:
100,119,1283,1,2,0:0:0:0:
177,60,1660,1,2,0:0:0:0:
260,109,2037,2,0,P|273:56|256:2,2,107.999996704102,2|2|2,0:0|0:0|0:0,0:0:0:0:
227,200,3169,1,2,0:0:0:0:
364,150,3735,6,0,P|401:150|467:191,1,107.999996704102,2|2,0:0|0:0,0:0:0:0:
491,222,4301,2,0,L|471:345,1,107.999996704102,2|10,0:0|0:3,0:0:0:0:
379,276,5056,2,0,P|324:274|263:306,1,120,14|8,0:0|3:0,0:0:0:0:
230,342,5622,1,10,0:0:0:0:
122,330,6000,1,10,0:0:0:0:
103,223,6377,1,10,0:0:0:0:
202,182,6754,6,0,L|245:227,2,60,14|2|10,0:0|1:0|0:0,0:0:0:0:
167,139,7320,2,0,P|103:121|49:131,1,120,2|2,1:0|1:0,0:0:0:0:
103,223,8075,1,2,1:0:0:0:
184,294,8452,2,0,P|246:276|291:243,1,120,2|2,1:0|1:0,0:0:0:0:
336,146,9207,1,2,1:0:0:0:
444,178,9584,1,2,0:0:0:0:
444,178,9773,6,0,P|455:240|470:299,1,120,10|2,0:0|1:0,0:0:0:0:
484,347,10339,1,10,0:0:0:0:
376,333,10717,1,10,0:0:0:0:
275,371,11094,2,0,P|213:340|161:328,1,120,14|0,0:0|1:0,0:0:0:0:
109,328,11660,1,6,1:0:0:0:
109,328,12792,6,0,B|84:263|99:195|99:195|133:207,1,161.999995056153,2|2,0:0|0:0,0:0:0:0:
221,208,13735,1,2,0:0:0:0:
260,118,14113,2,0,P|323:111|369:94,1,107.999996704102,2|0,0:0|0:0,0:0:0:0:
405,68,14679,1,2,0:0:0:0:
490,114,15056,2,0,P|496:70|497:32,2,80.9999975280763,2|2|2,0:0|0:0|0:0,0:0:0:0:
486,162,15811,6,0,P|476:250|476:326,1,161.999995056153,2|2,0:0|0:0,0:0:0:0:
378,320,16754,1,2,0:0:0:0:
294,369,17132,2,0,L|258:262,1,107.999996704102,2|0,0:0|0:0,0:0:0:0:
220,248,17698,1,2,0:0:0:0:
220,248,17886,2,0,L|183:138,1,107.999996704102,2|0,0:0|0:0,0:0:0:0:
167,100,18452,1,2,0:0:0:0:
240,36,18830,6,0,B|322:21|310:95|388:82,1,161.999995056153,2|2,0:0|0:0,0:0:0:0:
477,119,19773,1,2,0:0:0:0:
473,216,20150,2,0,P|415:190|366:196,1,107.999996704102,2|0,0:0|0:0,0:0:0:0:
329,218,20717,1,2,0:0:0:0:
259,286,21094,2,0,P|250:330|242:371,2,80.9999975280763,2|2|2,0:0|0:0|0:0,0:0:0:0:
221,255,21849,6,0,P|236:172|247:93,1,161.999995056153,2|2,0:0|0:0,0:0:0:0:
181,23,22792,1,2,0:0:0:0:
89,45,23169,1,2,0:3:0:0:
89,45,23358,2,0,L|104:108,1,53.9999983520508,14|2,0:0|1:0,0:0:0:0:
43,175,23924,2,0,P|55:230|69:282,1,107.999996704102,2|2,1:0|1:0,0:0:0:0:
80,327,24490,1,10,0:0:0:0:
164,268,24867,6,0,P|221:250|291:261,1,113.999996955872,6|8,0:0|0:0,0:0:0:0:
320,277,25433,1,2,1:0:0:0:
397,344,25811,1,2,0:0:0:0:
485,292,26188,2,0,P|478:241|464:178,1,113.999996955872,2|0,1:0|1:0,0:0:0:0:
450,130,26754,1,10,0:0:0:0:
368,67,27132,2,0,P|408:47|443:20,2,85.4999977169037,2|2|2,0:0|0:0|1:0,0:0:0:0:
317,73,27886,6,0,P|248:68|204:45,1,113.999996955872,2|10,1:0|0:0,0:0:0:0:
161,28,28452,1,2,1:0:0:0:
64,62,28830,1,2,1:0:0:0:
57,164,29207,2,0,P|62:224|55:278,1,113.999996955872,6|0,1:0|1:0,0:0:0:0:
44,330,29773,1,8,0:0:0:0:
44,330,29962,1,0,1:0:0:0:
150,325,30339,1,0,1:0:0:0:
150,325,30528,2,0,P|182:322|216:327,1,56.9999984779358,10|2,0:0|0:0,0:0:0:0:
253,345,30905,6,0,P|239:275|226:228,1,113.999996955872,4|8,1:0|0:0,0:0:0:0:
211,185,31471,1,0,1:0:0:0:
115,146,31849,2,0,L|51:179,2,56.9999984779358,2|10|2,1:0|0:0|0:0,0:0:0:0:
139,100,32415,2,0,L|247:48,1,113.999996955872,0|8,1:0|0:0,0:0:0:0:
286,25,32981,1,2,1:0:0:0:
368,85,33358,2,0,L|425:60,1,56.9999984779358,0|8,1:0|0:0,0:0:0:0:
468,45,33735,6,0,P|463:100|470:165,1,113.999996955872,6|2,1:0|1:0,0:0:0:0:
484,207,34301,1,8,0:0:0:0:
403,271,34679,1,8,0:0:0:0:
312,235,35056,1,8,0:0:0:0:
312,235,35245,2,0,P|310:293|340:349,1,113.999996955872,4|0,1:0|1:0,0:0:0:0:
372,376,35811,2,0,L|491:348,1,113.999996955872,8|2,0:0|0:0,0:0:0:0:
497,251,36566,1,10,0:0:0:0:
497,251,36754,6,0,B|502:176|459:106|459:106|405:227|290:258|201:242,1,461.999985900879,6|0,1:0|0:0,0:0:0:0:
34,321,39773,6,0,B|76:266|36:199|36:199|66:163|66:163|-5:83|44:0|148:21|127:102,1,419.999987182618,2|12,0:0|0:0,0:0:0:0:
129,93,42226,6,0,L|191:79,1,56.9999984779358,10|2,0:0|1:0,0:0:0:0:
229,54,42603,2,0,L|291:44,1,56.9999984779358,10|2,0:0|1:0,0:0:0:0:
334,30,42981,6,0,P|332:91|344:143,1,113.999996955872,6|8,1:0|0:0,0:0:0:0:
365,188,43547,1,2,1:0:0:0:
302,269,43924,1,2,1:0:0:0:
360,352,44301,2,0,P|416:349|472:327,1,113.999996955872,6|0,1:0|1:0,0:0:0:0:
505,291,44867,2,0,L|490:230,1,56.9999984779358,8|0,0:0|1:0,0:0:0:0:
461,193,45245,2,0,L|430:81,1,113.999996955872,2|10,0:0|0:0,0:0:0:0:
412,31,45811,5,6,1:0:0:0:
327,96,46188,1,0,1:0:0:0:
327,96,46377,2,0,P|264:95|206:74,1,120,10|10,0:0|0:0,0:0:0:0:
190,185,47132,1,8,0:0:0:0:
190,185,47320,2,0,P|253:186|312:208,1,120,2|2,1:0|1:0,0:0:0:0:
344,243,47886,1,10,0:0:0:0:
271,323,48264,1,10,0:0:0:0:
271,323,48452,2,0,L|204:333,1,60,2|8,1:0|0:0,0:0:0:0:
162,354,48830,6,0,P|147:294|126:239,1,120,6|0,1:0|1:0,0:0:0:0:
79,212,49396,1,10,0:0:0:0:
47,114,49773,1,10,0:0:0:0:
47,114,49962,2,0,L|115:97,1,60,2|10,1:0|0:0,0:0:0:0:
157,84,50339,1,2,1:0:0:0:
162,40,58075,6,0,P|124:33|52:17,2,107.999996704102,6|2|8,1:0|1:0|0:0,0:0:0:0:
263,39,59207,1,0,1:0:0:0:
263,39,59396,2,0,P|232:113|199:139,1,107.999996704102,2|0,1:0|0:0,0:0:0:0:
171,156,59962,1,2,1:0:0:0:
106,228,60339,2,0,P|157:241|211:258,1,107.999996704102,8|0,0:0|1:0,0:0:0:0:
257,283,60905,1,2,0:0:0:0:
257,283,61094,6,0,L|242:346,2,53.9999983520508,2|8|8,1:0|0:3|0:3,0:0:0:0:
344,240,61849,2,0,P|375:235|401:232,1,53.9999983520508,8|0,0:0|1:0,0:0:0:0:
449,226,62226,1,0,0:0:0:0:
449,226,62415,2,0,P|444:160|435:113,1,107.999996704102,14|0,0:0|1:0,0:0:0:0:
418,73,62981,2,0,P|354:78|304:87,1,107.999996704102,8|10,0:3|0:0,0:0:0:0:
216,108,63735,1,10,0:0:0:0:
139,31,64113,6,0,P|107:85|107:142,1,120,6|10,1:0|0:0,0:0:0:0:
133,187,64679,2,0,P|160:231|163:299,1,120,2|0,1:0|1:0,0:0:0:0:
147,352,65245,1,8,0:0:0:0:
147,352,65433,2,0,P|206:321|258:291,1,120,2|2,1:0|1:0,0:0:0:0:
299,267,66000,1,8,0:0:0:0:
220,193,66377,2,0,L|160:225,2,60,2|2|10,0:0|0:0|0:0,0:0:0:0:
221,142,66943,1,2,1:0:0:0:
221,142,67132,6,0,L|329:81,1,120,6|10,1:0|0:0,0:0:0:0:
367,47,67698,1,6,1:0:0:0:
474,43,68075,2,0,P|485:79|499:105,1,60,2|8,1:0|0:0,0:0:0:0:
504,152,68452,2,0,P|483:213|478:271,1,120,6|2,1:0|1:0,0:0:0:0:
470,324,69018,1,8,0:0:0:0:
470,324,69207,2,0,P|419:281|367:254,1,120,6|2,1:0|1:0,0:0:0:0:
320,240,69773,1,8,0:0:0:0:
240,313,70150,6,0,P|223:262|218:189,1,120,6|0,1:0|0:0,0:0:0:0:
176,170,70717,1,2,1:0:0:0:
176,170,70905,2,0,L|53:139,1,120,10|2,0:0|0:0,0:0:0:0:
6,131,71471,1,2,1:0:0:0:
64,41,71849,1,10,0:0:0:0:
64,41,72037,2,0,L|127:54,1,60,2|0,1:0|0:0,0:0:0:0:
175,67,72415,1,8,0:0:0:0:
272,19,72792,2,0,L|296:74,1,60,10|2,0:0|1:0,0:0:0:0:
308,126,73169,6,0,P|242:142|195:173,1,120,6|10,1:0|0:0,0:0:0:0:
165,212,73735,1,2,1:0:0:0:
62,178,74113,2,0,P|48:216|35:241,1,60,2|8,1:0|0:0,0:0:0:0:
17,282,74490,2,0,L|133:335,1,120,6|0,1:0|1:0,0:0:0:0:
175,353,75056,1,8,0:0:0:0:
276,316,75433,2,0,L|341:338,1,60,10|8,0:3|0:3,0:0:0:0:
385,350,75811,1,8,0:0:0:0:
447,268,76188,6,0,L|506:290,2,56.9999984779358,6|0|10,1:0|0:0|0:0,0:0:0:0:
404,239,76754,2,0,P|384:197|381:130,1,113.999996955872,2|2,1:0|1:0,0:0:0:0:
436,44,77509,1,2,1:0:0:0:
337,16,77886,2,0,P|279:43|230:52,1,113.999996955872,2|2,1:0|1:0,0:0:0:0:
127,44,78641,2,0,P|146:96|137:152,1,113.999996955872,2|2,1:0|1:0,0:0:0:0:
97,184,79207,6,0,L|41:169,2,56.9999984779358,6|0|10,1:0|0:0|0:0,0:0:0:0:
113,232,79773,1,2,1:0:0:0:
214,218,80150,1,2,1:0:0:0:
198,319,80528,2,0,L|94:367,1,113.999996955872,6|0,1:0|1:0,0:0:0:0:
44,355,81094,2,0,P|45:300|24:244,1,113.999996955872,10|2,0:0|1:0,0:0:0:0:
6,202,81660,1,0,1:0:0:0:
6,202,81849,1,10,0:0:0:0:
59,114,82226,6,0,L|38:58,2,56.9999984779358,6|0|10,1:0|0:0|0:0,0:0:0:0:
106,135,82792,2,0,L|224:158,1,113.999996955872,2|2,1:0|1:0,0:0:0:0:
287,232,83547,1,2,1:0:0:0:
388,218,83924,2,0,P|399:275|428:328,2,113.999996955872,2|2|2,1:0|1:0|1:0,0:0:0:0:
475,162,85056,1,2,1:0:0:0:
475,162,85245,6,0,P|459:117|403:73,1,113.999996955872,10|10,0:0|0:3,0:0:0:0:
359,63,85811,1,10,0:0:0:0:
281,129,86188,1,10,0:3:0:0:
190,79,86566,2,0,L|74:101,1,113.999996955872,6|0,1:0|1:0,0:0:0:0:
28,113,87132,2,0,P|48:167|42:222,1,113.999996955872,6|8,1:0|0:3,0:0:0:0:
8,321,87886,1,8,0:0:0:0:
8,321,88075,1,8,0:3:0:0:
256,192,88264,12,0,89584,0:0:0:0:
