osu file format v14

[General]
AudioFilename: audio.mp3
AudioLeadIn: 0
PreviewTime: 51084
Countdown: 0
SampleSet: Soft
StackLeniency: 0.4
Mode: 0
LetterboxInBreaks: 0
WidescreenStoryboard: 1

[Editor]
DistanceSpacing: 1.1
BeatDivisor: 4
GridSize: 16
TimelineZoom: 2.6

[Metadata]
Title:Yasashii Kibou (TV Size)
TitleUnicode:やさしい希望 (TV Size)
Artist:Hayami Saori
ArtistUnicode:早見沙織
Creator:Vararaup
Version:Hard
Source:赤髪の白雪姫
Tags:Akagami no Shirayukihime red haired princess snow white Zen Shirayuki TheShadowOfDark anime japanese jpop j-pop pop tv edit
BeatmapID:2670864
BeatmapSetID:1267439

[Difficulty]
HPDrainRate:5
CircleSize:3.8
OverallDifficulty:6
ApproachRate:7.2
SliderMultiplier:1.6
SliderTickRate:1

[Events]
//Background and Video events
0,0,"wallhaven-r2r28j.jpg",0,0
//Break Periods
//Storyboard Layer 0 (Background)
//Storyboard Layer 1 (Fail)
//Storyboard Layer 2 (Pass)
//Storyboard Layer 3 (Foreground)
//Storyboard Layer 4 (Overlay)
//Storyboard Sound Samples

[TimingPoints]
717,377.358490566038,4,2,1,40,1,0
717,-142.857142857143,4,2,1,40,0,0
5056,-100,4,2,1,70,0,0
11660,-142.857142857143,4,2,1,50,0,0
12792,-125,4,2,1,50,0,0
24867,-111.111111111111,4,2,1,60,0,0
36754,-142.857142857143,4,2,1,40,0,0
42226,-111.111111111111,4,2,1,60,0,0
45811,-100,4,2,1,70,0,1
50339,-100,4,2,1,70,0,0
52037,-125,4,2,1,50,0,0
58075,-125,4,2,1,60,0,0
61094,-111.111111111111,4,2,1,60,0,0
64113,-100,4,2,1,70,0,1
70150,-111.111111111111,4,2,1,60,0,0
73169,-100,4,2,1,70,0,1
76188,-111.111111111111,4,2,1,60,0,0
89584,-111.111111111111,4,2,1,5,0,0

[Colours]
Combo1 : 120,192,235
Combo2 : 235,68,44
Combo3 : 160,223,66
Combo4 : 241,213,99

[HitObjects]
37,282,717,6,0,L|31:357,2,55.9999982910157,2|2|2,0:0|0:0|0:0,0:0:0:0:
113,246,1283,2,0,L|179:253,1,55.9999982910157,2|0,0:0|0:0,0:0:0:0:
230,329,1660,2,0,L|175:336,1,55.9999982910157,2|0,0:0|0:0,0:0:0:0:
251,248,2037,6,0,P|251:219|257:192,1,55.9999982910157,2|0,0:0|0:0,0:0:0:0:
312,313,2415,2,0,P|312:342|305:368,1,55.9999982910157,2|0,0:0|0:0,0:0:0:0:
395,357,2792,2,0,L|450:350,1,55.9999982910157,2|0,0:0|0:0,0:0:0:0:
501,269,3169,1,2,0:0:0:0:
501,269,3358,2,0,L|445:262,1,55.9999982910157,0|0,0:0|0:0,0:0:0:0:
358,279,3735,6,0,L|363:220,2,55.9999982910157,2|2|2,0:0|0:0|0:0,0:0:0:0:
307,346,4301,2,0,P|278:351|251:349,1,55.9999982910157,2|8,0:0|0:0,0:0:0:0:
216,272,4679,1,10,0:3:0:0:
169,341,4867,1,10,0:3:0:0:
43,277,5056,6,0,P|9:206|44:139,1,160,14|8,0:0|3:0,0:0:0:0:
175,202,5622,2,0,P|137:214|97:209,1,80,10|0,0:0|0:0,0:0:0:0:
78,60,6000,2,0,P|115:47|155:52,1,80,10|0,0:0|0:0,0:0:0:0:
269,13,6377,2,0,B|232:27|231:81|259:123,1,120,10|0,0:0|0:0,0:0:0:0:
298,127,6754,6,0,L|386:119,1,80,14|2,0:0|1:0,0:0:0:0:
456,76,7132,1,10,0:0:0:0:
456,76,7320,2,0,P|469:113|464:153,1,80,2|8,1:0|0:0,0:0:0:0:
394,207,7698,2,0,P|389:246|402:283,1,80,2|8,1:0|0:0,0:0:0:0:
441,374,8075,6,0,L|337:364,1,80,2|8,1:0|0:0,0:0:0:0:
311,294,8452,2,0,L|231:300,1,80,2|8,1:0|0:0,0:0:0:0:
176,230,8830,5,2,1:0:0:0:
146,312,9018,1,8,0:0:0:0:
90,243,9207,1,2,1:0:0:0:
57,324,9395,1,8,0:0:0:0:
17,197,9584,5,2,0:0:0:0:
17,197,9679,1,2,0:0:0:0:
17,197,9773,2,0,P|4:160|9:120,1,80,10|10,0:0|0:0,0:0:0:0:
78,65,10150,1,2,1:0:0:0:
94,151,10339,2,0,L|174:157,1,80,10|0,0:0|1:0,0:0:0:0:
236,238,10717,2,0,L|156:244,1,80,10|0,0:0|1:0,0:0:0:0:
310,191,11094,6,0,P|323:228|318:268,1,80,14|0,0:0|0:0,0:0:0:0:
249,323,11471,1,0,1:0:0:0:
351,363,11660,6,0,B|373:385|408:394|444:389|475:366|488:334|486:299|472:270|447:251|447:251|453:195,1,279.999991455078,6|0,1:0|0:0,0:0:0:0:
512,97,12792,6,0,P|450:117|384:84,1,128,2|0,0:0|0:0,0:0:0:0:
317,63,13358,2,0,L|322:0,1,64,2|0,0:0|0:0,0:0:0:0:
235,33,13735,2,0,L|229:96,1,64,2|0,0:0|0:0,0:0:0:0:
291,152,14113,6,0,P|233:177|173:160,1,128,2|0,0:0|0:0,0:0:0:0:
113,95,14679,2,0,L|28:102,1,64,2|0,0:0|0:0,0:0:0:0:
41,183,15056,2,0,P|37:231|31:295,2,96,2|2|2,0:0|0:0|0:0,0:0:0:0:
124,223,15811,6,0,P|184:207|241:233,1,128,2|0,0:0|0:0,0:0:0:0:
177,288,16377,2,0,L|171:351,1,64,2|0,0:0|0:0,0:0:0:0:
254,384,16754,2,0,L|259:321,1,64,2|0,0:0|0:0,0:0:0:0:
342,328,17132,6,0,P|401:350|460:330,1,128,2|0,0:0|0:0,0:0:0:0:
487,251,17698,1,2,0:0:0:0:
402,268,17886,2,0,P|409:199|413:137,1,128,2|0,0:0|0:0,0:0:0:0:
400,58,18452,1,2,0:0:0:0:
334,109,18641,1,2,0:0:0:0:
280,45,18830,6,0,P|222:18|162:34,1,128,2|0,0:0|0:0,0:0:0:0:
85,73,19396,2,0,L|79:10,1,64,2|0,0:0|0:0,0:0:0:0:
0,62,19773,2,0,L|6:125,1,64,2|0,0:0|0:0,0:0:0:0:
50,196,20150,6,0,P|107:169|167:185,1,128,2|0,0:0|0:0,0:0:0:0:
116,251,20717,2,0,L|122:314,1,64,2|0,0:0|0:0,0:0:0:0:
194,356,21094,2,0,P|241:353|289:348,2,96,2|2|2,0:0|0:0|0:0,0:0:0:0:
238,270,21849,6,0,P|264:213|248:153,1,128,2|0,0:0|0:0,0:0:0:0:
184,206,22415,2,0,L|121:200,1,64,2|0,0:0|0:0,0:0:0:0:
53,119,22792,2,0,L|116:113,1,64,2|0,0:0|0:0,0:0:0:0:
159,41,23169,1,2,0:3:0:0:
225,123,23358,6,0,P|257:131|286:129,1,64,14|2,0:0|1:0,0:0:0:0:
330,118,23641,1,0,1:0:0:0:
330,118,23735,1,0,1:0:0:0:
373,31,23924,2,0,P|430:5|490:21,1,128,2|2,1:0|1:0,0:0:0:0:
438,86,24490,1,10,0:0:0:0:
478,158,24679,1,2,0:0:0:0:
361,187,24867,6,0,P|350:221|355:256,1,71.9999978027344,6|0,0:0|0:0,0:0:0:0:
440,290,25245,1,8,0:0:0:0:
440,290,25433,2,0,L|511:296,1,71.9999978027344,2|0,1:0|0:0,0:0:0:0:
466,378,25811,2,0,L|394:384,1,71.9999978027344,2|8,0:0|0:0,0:0:0:0:
319,328,26188,6,0,P|254:361|189:339,1,143.999995605469,2|0,1:0|1:0,0:0:0:0:
249,277,26754,2,0,L|243:205,1,71.9999978027344,10|0,0:0|1:0,0:0:0:0:
163,266,27132,2,0,P|105:273|33:277,2,107.999996704102,2|2|2,0:0|0:0|1:0,0:0:0:0:
112,187,27886,6,0,P|123:153|118:118,1,71.9999978027344,2|0,1:0|0:0,0:0:0:0:
66,47,28264,1,10,0:0:0:0:
151,37,28452,2,0,L|222:30,1,71.9999978027344,2|0,1:0|0:0,0:0:0:0:
295,77,28830,1,2,1:0:0:0:
355,15,29018,1,10,0:0:0:0:
359,136,29207,6,0,P|354:208|347:282,1,143.999995605469,6|0,1:0|1:0,0:0:0:0:
437,346,29773,2,0,P|432:310|443:277,1,71.9999978027344,8|0,0:0|1:0,0:0:0:0:
491,207,30150,1,0,1:0:0:0:
491,207,30245,1,8,0:0:0:0:
491,207,30339,1,0,1:0:0:0:
436,130,30528,1,10,0:0:0:0:
480,47,30717,1,2,0:0:0:0:
370,71,30905,6,0,P|334:76|301:65,1,71.9999978027344,4|0,1:0|0:0,0:0:0:0:
231,12,31283,1,8,0:0:0:0:
180,81,31471,2,0,P|200:147|168:210,1,143.999995605469,0|2,1:0|1:0,0:0:0:0:
115,141,32037,1,10,0:0:0:0:
49,84,32226,6,0,L|42:13,2,71.9999978027344,2|0|0,0:0|1:0|1:0,0:0:0:0:
2,156,32792,1,8,0:0:0:0:
66,213,32981,2,0,P|44:279|75:342,1,143.999995605469,2|0,1:0|1:0,0:0:0:0:
152,382,33547,1,8,0:0:0:0:
132,272,33735,6,0,P|203:267|275:259,1,143.999995605469,6|2,1:0|1:0,0:0:0:0:
342,324,34301,1,8,0:0:0:0:
390,243,34490,1,0,1:0:0:0:
454,311,34679,1,8,0:0:0:0:
504,232,34867,2,0,L|498:159,1,71.9999978027344,0|8,1:0|0:0,0:0:0:0:
508,19,35245,6,0,P|445:51|378:31,1,143.999995605469,4|0,1:0|1:0,0:0:0:0:
291,23,35811,2,0,L|204:30,1,71.9999978027344,8|0,0:0|1:0,0:0:0:0:
112,43,36188,1,2,0:0:0:0:
112,43,36283,1,2,0:0:0:0:
112,43,36377,1,0,1:0:0:0:
173,114,36566,1,10,0:0:0:0:
141,205,36754,1,6,1:0:0:0:
256,192,36943,12,0,38830,0:0:0:0:
396,270,39207,6,0,L|472:276,2,55.9999982910157,2|2|2,0:0|0:0|0:0,0:0:0:0:
326,215,39773,1,2,0:0:0:0:
256,192,39962,12,12,41660,0:0:0:0:
23,147,42226,5,10,0:0:0:0:
61,224,42415,1,2,1:0:0:0:
10,293,42603,1,10,0:0:0:0:
45,372,42792,1,2,1:0:0:0:
118,288,42981,6,0,P|154:283|187:294,1,71.9999978027344,6|0,1:0|0:0,0:0:0:0:
238,363,43358,1,8,0:0:0:0:
276,285,43547,2,0,L|283:201,1,71.9999978027344,2|0,1:0|0:0,0:0:0:0:
363,285,43924,2,0,L|356:356,1,71.9999978027344,2|8,1:0|0:0,0:0:0:0:
466,263,44301,6,0,P|497:200|475:133,1,143.999995605469,6|0,1:0|1:0,0:0:0:0:
412,193,44867,2,0,L|332:186,1,71.9999978027344,8|0,0:0|1:0,0:0:0:0:
258,215,45245,2,0,P|252:179|264:145,1,71.9999978027344,2|0,0:0|1:0,0:0:0:0:
333,94,45622,1,10,0:0:0:0:
191,17,45811,6,0,P|105:26|26:31,1,160,6|0,1:0|1:0,0:0:0:0:
80,113,46377,2,0,L|72:196,1,80,10|0,0:0|1:0,0:0:0:0:
146,253,46754,1,10,0:0:0:0:
58,292,46943,1,2,1:0:0:0:
96,380,47132,1,8,0:0:0:0:
194,347,47320,6,0,P|280:356|359:361,1,160,2|2,1:0|1:0,0:0:0:0:
367,257,47886,2,0,L|359:177,1,80,10|0,0:0|1:0,0:0:0:0:
352,72,48264,1,10,0:0:0:0:
265,128,48452,1,2,1:0:0:0:
213,37,48641,1,8,0:0:0:0:
176,179,48830,6,0,P|107:214|37:180,1,160,6|0,1:0|1:0,0:0:0:0:
17,87,49396,1,10,0:0:0:0:
17,87,49490,1,8,0:0:0:0:
17,87,49584,1,0,1:0:0:0:
106,128,49773,5,10,0:0:0:0:
123,25,49962,1,2,1:0:0:0:
225,10,50150,1,10,0:0:0:0:
273,102,50339,1,2,1:0:0:0:
512,300,52037,6,0,P|454:325|394:308,1,128,6|0,0:0|0:0,0:0:0:0:
332,251,52603,1,2,0:0:0:0:
307,330,52792,2,0,P|249:355|189:338,1,128,2|0,0:0|0:0,0:0:0:0:
109,312,53358,6,0,L|102:381,1,64,2|0,0:0|0:0,0:0:0:0:
22,327,53735,2,0,L|28:257,1,64,2|0,0:0|0:0,0:0:0:0:
96,216,54113,1,2,0:0:0:0:
96,216,54301,2,0,P|104:184|102:155,1,64,2|2,0:0|0:0,0:0:0:0:
35,102,54679,2,0,P|27:70|29:41,1,64,2|2,0:0|0:0,0:0:0:0:
109,63,55056,6,0,P|169:80|227:55,1,128,2|0,0:0|0:0,0:0:0:0:
304,24,55622,2,0,L|367:30,1,64,2|0,0:0|0:0,0:0:0:0:
419,118,55999,2,0,L|355:112,1,64,2|0,0:0|0:0,0:0:0:0:
272,124,56377,6,0,P|246:181|263:242,1,128,2|0,0:0|0:0,0:0:0:0:
242,322,56943,2,0,P|273:324|304:316,1,64,2|0,0:0|0:0,0:0:0:0:
350,246,57320,1,2,0:0:0:0:
430,294,57509,1,0,0:0:0:0:
430,294,57603,1,0,0:0:0:0:
430,294,57698,2,0,P|438:263|436:231,1,64,2|0,0:0|0:0,0:0:0:0:
492,153,58075,6,0,L|410:145,1,64,6|0,1:0|0:0,0:0:0:0:
376,58,58452,2,0,L|439:63,1,64,2|0,1:0|0:0,0:0:0:0:
344,134,58830,1,8,0:0:0:0:
344,134,59018,2,0,P|313:142|281:140,1,64,2|0,0:0|1:0,0:0:0:0:
225,77,59396,6,0,P|199:134|216:195,1,128,2|0,1:0|0:0,0:0:0:0:
293,223,59962,1,2,1:0:0:0:
347,291,60150,1,2,0:0:0:0:
347,291,60339,2,0,L|340:372,2,64,8|0|0,0:0|0:0|1:0,0:0:0:0:
406,233,60905,1,2,0:0:0:0:
483,195,61094,6,0,L|490:123,1,71.9999978027344,2|8,1:0|0:3,0:0:0:0:
475,87,61377,1,8,0:3:0:0:
475,87,61471,2,0,L|478:46,3,35.9999989013672,8|8|8|8,0:3|0:3|0:3|0:3,0:0:0:0:
444,24,61849,2,0,P|386:30|330:33,1,107.999996704102,8|8,0:0|0:0,0:0:0:0:
134,12,62415,6,0,P|167:77|145:142,1,143.999995605469,14|0,0:0|1:0,0:0:0:0:
54,161,62981,1,8,0:3:0:0:
116,230,63169,1,8,0:3:0:0:
71,312,63358,2,0,L|158:319,1,71.9999978027344,10|0,0:0|1:0,0:0:0:0:
219,371,63735,2,0,L|290:364,1,71.9999978027344,10|0,0:0|1:0,0:0:0:0:
422,379,64113,6,0,P|410:338|416:302,1,80,6|0,1:0|0:0,0:0:0:0:
460,216,64490,1,10,0:0:0:0:
366,193,64679,2,0,P|295:231|225:205,1,160,2|0,1:0|1:0,0:0:0:0:
213,117,65245,1,8,0:0:0:0:
287,70,65433,6,0,P|298:110|292:146,1,80,2|0,1:0|0:0,0:0:0:0:
138,161,65811,2,0,P|126:120|132:84,1,80,2|8,1:0|0:0,0:0:0:0:
205,22,66188,1,2,1:0:0:0:
287,70,66377,1,2,0:0:0:0:
365,29,66566,1,2,0:0:0:0:
437,78,66754,1,10,0:0:0:0:
360,121,66943,1,2,1:0:0:0:
487,183,67132,6,0,P|525:254|499:324,1,160,6|10,1:0|0:0,0:0:0:0:
437,260,67698,2,0,P|397:254|359:265,1,80,6|0,1:0|0:0,0:0:0:0:
274,287,68075,1,2,1:0:0:0:
309,367,68264,1,8,0:0:0:0:
171,350,68452,6,0,P|133:361|93:355,1,80,6|0,1:0|0:0,0:0:0:0:
28,294,68830,1,2,1:0:0:0:
109,262,69018,1,8,0:0:0:0:
28,175,69207,2,0,P|16:137|22:97,1,80,6|0,1:0|0:0,0:0:0:0:
112,128,69584,1,2,1:0:0:0:
207,120,69773,2,0,L|246:116,3,40,8|8|8|8,0:0|0:3|0:3|0:0,0:0:0:0:
285,111,70150,6,0,P|318:176|296:241,1,143.999995605469,6|0,1:0|0:0,0:0:0:0:
210,250,70717,1,2,1:0:0:0:
172,328,70905,2,0,L|79:337,2,71.9999978027344,10|0|2,0:0|0:0|0:0,0:0:0:0:
258,323,71471,6,0,P|291:334|327:329,1,71.9999978027344,2|0,1:0|0:0,0:0:0:0:
409,370,71849,1,10,0:0:0:0:
409,370,72037,2,0,P|420:336|415:300,1,71.9999978027344,2|0,1:0|0:0,0:0:0:0:
349,243,72415,2,0,L|356:171,1,71.9999978027344,8|2,0:0|1:0,0:0:0:0:
451,112,72792,2,0,L|443:183,1,71.9999978027344,10|2,0:0|1:0,0:0:0:0:
323,64,73169,6,0,P|255:26|181:52,1,160,6|10,1:0|0:0,0:0:0:0:
99,19,73735,2,0,P|92:58|103:96,1,80,2|0,1:0|0:0,0:0:0:0:
179,141,74113,2,0,P|189:179|183:218,1,80,2|8,1:0|0:0,0:0:0:0:
130,341,74490,6,0,P|197:304|271:329,1,160,6|0,1:0|1:0,0:0:0:0:
271,329,74962,1,8,0:0:0:0:
271,329,75056,1,8,0:0:0:0:
351,277,75245,1,8,0:3:0:0:
444,297,75433,2,0,L|451:214,1,80,10|8,0:3|0:3,0:0:0:0:
485,127,75811,1,8,0:0:0:0:
387,109,76000,5,10,0:3:0:0:
387,109,76094,1,8,0:0:0:0:
387,109,76188,2,0,L|313:115,1,71.9999978027344,6|0,1:0|0:0,0:0:0:0:
244,73,76566,1,10,0:0:0:0:
244,73,76754,2,0,P|233:108|238:143,1,71.9999978027344,2|0,1:0|0:0,0:0:0:0:
300,203,77132,2,0,P|304:238|293:272,1,71.9999978027344,2|8,1:0|0:0,0:0:0:0:
242,342,77509,6,0,L|168:348,1,71.9999978027344,2|0,1:0|0:0,0:0:0:0:
156,262,77886,2,0,L|84:255,1,71.9999978027344,2|8,1:0|0:0,0:0:0:0:
0,281,78264,2,0,P|-3:245|7:211,1,71.9999978027344,2|0,1:0|0:0,0:0:0:0:
82,168,78641,2,0,P|93:134|89:98,1,71.9999978027344,2|8,1:0|0:0,0:0:0:0:
69,14,79018,5,2,1:0:0:0:
69,14,79113,1,2,0:0:0:0:
69,14,79207,2,0,L|150:21,1,71.9999978027344,6|0,1:0|0:0,0:0:0:0:
177,98,79584,1,10,0:0:0:0:
177,98,79773,2,0,P|210:109|246:105,1,71.9999978027344,2|0,1:0|0:0,0:0:0:0:
300,37,80150,2,0,P|335:32|369:43,1,71.9999978027344,2|8,1:0|0:0,0:0:0:0:
461,10,80528,6,0,P|453:77|448:156,1,143.999995605469,6|0,1:0|1:0,0:0:0:0:
364,229,81094,2,0,L|357:157,1,71.9999978027344,10|0,0:0|1:0,0:0:0:0:
447,238,81471,2,0,L|453:309,1,71.9999978027344,2|0,1:0|1:0,0:0:0:0:
380,356,81849,2,0,P|347:367|311:363,1,71.9999978027344,10|0,0:0|1:0,0:0:0:0:
273,340,82132,5,8,0:0:0:0:
273,340,82226,2,0,L|202:346,1,71.9999978027344,6|0,1:0|0:0,0:0:0:0:
115,354,82603,1,10,0:0:0:0:
115,354,82792,2,0,P|104:319|109:284,1,71.9999978027344,2|0,1:0|0:0,0:0:0:0:
171,224,83170,2,0,P|175:189|164:155,1,71.9999978027344,2|8,1:0|0:0,0:0:0:0:
151,68,83547,6,0,L|225:74,1,71.9999978027344,2|0,1:0|0:0,0:0:0:0:
257,153,83924,2,0,L|329:146,1,71.9999978027344,2|8,1:0|0:0,0:0:0:0:
404,104,84301,2,0,P|414:138|411:174,1,71.9999978027344,2|0,1:0|0:0,0:0:0:0:
346,231,84679,2,0,P|342:266|353:301,1,71.9999978027344,2|8,1:0|0:0,0:0:0:0:
425,365,85056,5,2,1:0:0:0:
425,365,85150,1,2,0:0:0:0:
425,365,85245,2,0,L|460:362,3,35.9999989013672,10|8|8|8,0:0|0:3|0:3|0:3,0:0:0:0:
503,358,85622,1,10,0:3:0:0:
469,278,85811,2,0,L|476:193,1,71.9999978027344,10|0,0:0|0:0,0:0:0:0:
394,119,86188,2,0,L|387:190,1,71.9999978027344,10|8,0:3|0:0,0:0:0:0:
464,64,86566,6,0,P|399:31|334:53,1,143.999995605469,6|0,1:0|1:0,0:0:0:0:
297,129,87132,2,0,L|261:132,3,35.9999989013672,6|8|8|8,1:0|0:3|0:3|0:3,0:0:0:0:
219,142,87509,2,0,P|208:176|212:211,1,71.9999978027344,8|8,0:3|0:3,0:0:0:0:
282,262,87886,1,8,0:0:0:0:
262,346,88075,1,8,0:3:0:0:
256,192,88264,12,0,89584,0:0:0:0:
