osu file format v14

[General]
AudioFilename: audio.mp3
AudioLeadIn: 0
PreviewTime: 51084
Countdown: 0
SampleSet: Soft
StackLeniency: 0.4
Mode: 0
LetterboxInBreaks: 0
WidescreenStoryboard: 1

[Editor]
DistanceSpacing: 1
BeatDivisor: 4
GridSize: 16
TimelineZoom: 2.6

[Metadata]
Title:Yasashii Kibou (TV Size)
TitleUnicode:やさしい希望 (TV Size)
Artist:Hayami Saori
ArtistUnicode:早見沙織
Creator:Vararaup
Version:Easy
Source:赤髪の白雪姫
Tags:Akagami no Shirayukihime red haired princess snow white Zen Shirayuki TheShadowOfDark anime japanese jpop j-pop pop tv edit
BeatmapID:2672289
BeatmapSetID:1267439

[Difficulty]
HPDrainRate:2
CircleSize:3
OverallDifficulty:2
ApproachRate:3
SliderMultiplier:1
SliderTickRate:1

[Events]
//Background and Video events
0,0,"wallhaven-r2r28j.jpg",0,0
//Break Periods
2,36954,40220
2,52027,56635
//Storyboard Layer 0 (Background)
//Storyboard Layer 1 (Fail)
//Storyboard Layer 2 (Pass)
//Storyboard Layer 3 (Foreground)
//Storyboard Layer 4 (Overlay)
//Storyboard Sound Samples

[TimingPoints]
717,377.358490566038,4,2,1,40,1,0
717,-100,4,2,1,40,0,0
5056,-100,4,2,1,70,0,0
11660,-100,4,2,1,50,0,0
12792,-100,4,2,1,50,0,0
24867,-100,4,2,1,60,0,0
36754,-100,4,2,1,40,0,0
42226,-100,4,2,1,60,0,0
45811,-100,4,2,1,70,0,0
50339,-100,4,2,1,70,0,0
52037,-100,4,2,1,50,0,0
58075,-100,4,2,1,60,0,0
61094,-100,4,2,1,60,0,0
64113,-100,4,2,1,70,0,1
70150,-100,4,2,1,60,0,0
73169,-100,4,2,1,70,0,1
76188,-100,4,2,1,60,0,0
89584,-100,4,2,1,5,0,0

[Colours]
Combo1 : 120,192,235
Combo2 : 235,68,44
Combo3 : 160,223,66
Combo4 : 241,213,99

[HitObjects]
499,98,717,6,0,P|418:66|358:85,1,150,2|2,0:0|0:0,0:0:0:0:
290,153,1660,1,2,0:0:0:0:
192,129,2037,2,0,P|200:82|187:33,2,100,2|2|2,0:0|0:0|0:0,0:0:0:0:
110,187,3169,1,2,0:0:0:0:
113,336,3735,6,0,B|190:331|174:377|259:374,1,150,2|2,0:0|0:0,0:0:0:0:
304,286,4679,1,10,0:3:0:0:
402,271,5056,2,0,L|433:108,1,150,14|10,0:0|0:0,0:0:0:0:
411,25,6000,2,0,P|364:42|314:39,1,100,2|2,1:0|1:0,0:0:0:0:
215,50,6754,6,0,L|194:201,1,150,14|2,0:0|1:0,0:0:0:0:
231,291,7698,1,2,1:0:0:0:
154,355,8075,2,0,P|106:368|57:361,1,100,2|2,1:0|1:0,0:0:0:0:
16,269,8830,2,0,B|31:161,1,100,2|2,1:0|1:0,0:0:0:0:
116,47,9773,6,0,P|173:90|247:82,1,150,10|10,0:0|0:0,0:0:0:0:
336,35,10717,1,10,0:0:0:0:
422,83,11094,2,0,B|448:160|448:160|427:194|427:228,1,150,14|6,0:0|1:0,0:0:0:0:
428,225,12792,6,0,P|361:193|289:210,1,150,2|2,0:0|0:0,0:0:0:0:
261,305,13735,1,2,0:0:0:0:
171,350,14113,2,0,B|130:367|130:367|85:334|30:342,1,150,2|2,0:0|0:0,0:0:0:0:
37,242,15056,2,0,L|50:142,1,100,2|0,0:0|0:0,0:0:0:0:
30,44,15811,6,0,B|84:38|124:77|124:77|171:65,1,150,2|2,0:0|0:0,0:0:0:0:
261,104,16754,1,2,0:0:0:0:
213,192,17132,2,0,P|219:244|246:284,1,100,2|0,0:0|0:0,0:0:0:0:
260,381,17886,2,0,B|290:376|320:350|320:350|400:363,1,150,2|2,0:0|0:0,0:0:0:0:
453,278,18830,6,0,P|484:211|467:140,1,150,2|2,0:0|0:0,0:0:0:0:
368,123,19773,1,2,0:0:0:0:
287,182,20150,2,0,L|134:153,1,150,2|2,0:0|0:0,0:0:0:0:
42,129,21094,2,0,P|48:178|35:225,1,100,2|0,0:0|0:0,0:0:0:0:
84,312,21849,6,0,B|118:335|118:335|231:324,2,150,2|2|0,0:0|0:0|0:0,0:0:0:0:
34,226,23358,1,14,0:0:0:0:
60,78,23924,2,0,B|116:96|116:96|150:66|199:59,1,150,2|10,1:0|0:0,0:0:0:0:
296,41,24867,6,0,P|302:114|354:167,1,150,6|2,0:0|1:0,0:0:0:0:
451,192,25811,1,2,0:0:0:0:
447,291,26188,2,0,B|370:286|386:332|301:329,1,150,2|10,1:0|0:0,0:0:0:0:
205,336,27132,2,0,L|217:236,1,100,2|8,0:0|0:0,0:0:0:0:
196,139,27886,6,0,B|165:143|135:169|135:169|55:156,1,150,2|2,1:0|1:0,0:0:0:0:
35,254,28830,1,2,1:0:0:0:
66,350,29207,2,0,P|137:367|204:336,1,150,6|8,1:0|0:0,0:0:0:0:
251,247,30150,2,0,P|300:251|344:274,1,100,0|10,1:0|0:0,0:0:0:0:
444,267,30905,6,0,B|472:237|472:237|480:127,2,150,4|0|10,1:0|1:0|0:0,0:0:0:0:
344,274,32415,1,0,1:0:0:0:
319,126,32981,2,0,B|313:71|313:71|234:105|175:63,1,200,2|6,1:0|1:0,0:0:0:0:
25,77,34301,5,8,0:0:0:0:
41,175,34679,2,0,P|19:252|49:313,2,150,8|4|8,0:0|1:0|0:0,0:0:0:0:
117,239,36188,2,0,L|272:229,1,150,2|6,0:0|1:0,0:0:0:0:
362,38,41660,5,12,0:0:0:0:
464,147,42226,2,0,L|441:247,1,100,10|10,0:0|0:0,0:0:0:0:
474,338,42981,2,0,B|421:353|375:321|375:321|331:341,1,150,6|2,1:0|1:0,0:0:0:0:
235,362,43924,1,2,1:0:0:0:
139,333,44301,2,0,P|155:262|124:195,1,150,6|8,1:0|0:0,0:0:0:0:
65,112,45245,2,0,L|215:93,1,150,2|6,0:0|1:0,0:0:0:0:
348,28,46377,5,10,0:0:0:0:
436,73,46754,2,0,P|422:120|429:169,1,100,10|8,0:0|0:0,0:0:0:0:
472,259,47509,2,0,P|478:308|465:355,1,100,8|10,0:0|0:0,0:0:0:0:
364,345,48264,2,0,P|284:320|220:334,1,150,10|6,0:0|1:0,0:0:0:0:
72,309,49396,5,10,0:0:0:0:
76,209,49773,2,0,B|89:54,1,150,10|2,0:0|1:0,0:0:0:0:
118,310,58075,6,0,B|61:332|20:309,2,100,6|2|8,1:0|1:0|0:0,0:0:0:0:
262,349,59396,2,0,P|257:275|300:214,1,150,2|2,1:0|1:0,0:0:0:0:
391,175,60339,1,8,0:0:0:0:
225,63,61094,6,0,B|181:99|181:99|113:54|46:88,1,200,2|8,1:0|0:0,0:0:0:0:
23,236,62415,2,0,P|45:305|106:346,1,150,14|8,0:0|0:3,0:0:0:0:
205,329,63358,2,0,P|235:289|244:241,1,100,10|10,0:0|0:0,0:0:0:0:
250,140,64113,6,0,P|260:91|290:52,1,100,6|10,1:0|0:0,0:0:0:0:
353,131,64867,2,0,P|424:147|491:116,2,150,2|2|10,0:0|1:0|0:0,0:0:0:0:
290,53,66377,2,0,P|240:45|193:59,1,100,2|10,0:0|0:0,0:0:0:0:
94,74,67132,6,0,B|98:105|124:135|124:135|111:215,1,150,6|6,1:0|1:0,0:0:0:0:
88,312,68075,1,2,1:0:0:0:
177,357,68452,2,0,P|221:332|271:328,1,100,6|2,1:0|1:0,0:0:0:0:
369,341,69207,2,0,L|358:241,1,100,6|2,1:0|1:0,0:0:0:0:
394,96,70150,6,0,P|349:71|301:66,1,100,6|0,1:0|0:0,0:0:0:0:
206,34,70905,2,0,L|228:183,1,150,10|2,0:0|1:0,0:0:0:0:
217,281,71849,2,0,B|294:286|278:240|363:243,1,150,10|8,0:0|0:0,0:0:0:0:
447,289,72792,1,10,0:0:0:0:
490,199,73169,6,0,P|506:127|475:60,1,150,6|2,1:0|1:0,0:0:0:0:
378,33,74113,1,2,1:0:0:0:
303,99,74490,2,0,L|154:76,1,150,6|8,1:0|0:0,0:0:0:0:
58,103,75433,2,0,P|44:150|51:199,1,100,10|8,0:3|0:0,0:0:0:0:
18,294,76188,6,0,B|71:309|117:277|117:277|161:297,1,150,6|2,1:0|1:0,0:0:0:0:
247,342,77132,1,2,1:0:0:0:
345,328,77509,2,0,P|338:278|351:231,1,100,2|2,1:0|1:0,0:0:0:0:
438,182,78264,2,0,P|451:134|444:84,1,100,2|2,1:0|1:0,0:0:0:0:
301,39,79207,6,0,B|224:34|240:80|155:77,1,150,6|2,1:0|1:0,0:0:0:0:
59,74,80150,1,2,1:0:0:0:
28,169,80528,2,0,P|27:242|72:300,1,150,6|10,1:0|0:0,0:0:0:0:
171,313,81471,2,0,P|214:289|244:249,1,100,2|10,1:0|0:0,0:0:0:0:
223,151,82226,6,0,B|253:143|290:157|290:157|360:116,1,150,6|2,1:0|1:0,0:0:0:0:
438,54,83169,1,2,1:0:0:0:
507,126,83547,2,0,P|511:175|498:223,1,100,2|2,1:0|1:0,0:0:0:0:
412,275,84301,2,0,P|397:322|402:372,1,100,2|2,1:0|1:0,0:0:0:0:
254,347,85245,6,0,P|201:296|128:290,1,150,10|10,0:0|0:0,0:0:0:0:
35,328,86188,1,10,0:3:0:0:
0,234,86566,2,0,L|13:85,1,150,6|6,1:0|1:0,0:0:0:0:
98,34,87509,2,0,P|136:65|184:78,1,100,8|8,0:3|0:0,0:0:0:0:
284,64,88264,5,2,0:0:0:0:
