osu file format v14

[General]
AudioFilename: audio.mp3
AudioLeadIn: 0
PreviewTime: 57400
Countdown: 1
SampleSet: Normal
StackLeniency: 0.4
Mode: 0
LetterboxInBreaks: 0
WidescreenStoryboard: 1

[Editor]
DistanceSpacing: 1
BeatDivisor: 4
GridSize: 16
TimelineZoom: 2.4

[Metadata]
Title:Sono Koe ga Chizu ni Naru (TV Size)
TitleUnicode:その声が地図になる (TV Size)
Artist:Hayami Saori
ArtistUnicode:早見沙織
Creator:hertepi_dr
Version:Hard
Source:赤髪の白雪姫
Tags:akagami no shirayukihime Snow White season 2 opening
BeatmapID:1837925
BeatmapSetID:877924

[Difficulty]
HPDrainRate:5
CircleSize:3.3
OverallDifficulty:7
ApproachRate:7.7
SliderMultiplier:1.4
SliderTickRate:1

[Events]
//Background and Video events
Video,0,"snowwhite-op.avi"
0,0,"BG.jpg",0,0
//Break Periods
//Storyboard Layer 0 (Background)
//Storyboard Layer 1 (Fail)
//Storyboard Layer 2 (Pass)
//Storyboard Layer 3 (Foreground)
//Storyboard Sound Samples

[TimingPoints]
9,372.670807453416,4,1,1,100,1,0
1500,-133.333333333333,4,1,1,100,0,0
7090,-100,4,1,1,100,0,0
7462,-111.111111111111,4,1,1,100,0,0
13425,-100,4,1,1,100,0,0
17152,-90.9090909090909,4,1,1,100,0,0
20878,-90.9090909090909,4,1,1,100,0,0
29822,-83.3333333333333,4,1,1,100,0,0
34295,-133.333333333333,4,1,1,100,0,0
36531,-83.3333333333333,4,1,1,100,0,0
38767,-133.333333333333,4,1,1,100,0,0
57400,-90.9090909090909,4,1,1,100,0,0
58145,-76.9230769230769,4,1,1,100,0,1
61127,-83.3333333333333,4,1,1,100,0,1
64108,-76.9230769230769,4,1,1,100,0,1
67090,-83.3333333333333,4,1,1,100,0,1
70071,-76.9230769230769,4,1,1,100,0,1
73052,-71.4285714285714,4,1,1,100,0,1
76034,-76.9230769230769,4,1,1,100,0,1
79015,-83.3333333333333,4,1,1,100,0,1
81996,-133.333333333333,4,1,1,100,0,0

[Colours]
Combo1 : 0,0,160
Combo2 : 0,202,0
Combo3 : 18,124,255
Combo4 : 242,24,57
Combo5 : 255,192,0
Combo6 : 255,255,0

[HitObjects]
112,64,754,5,2,0:0:0:0:
112,64,940,1,2,0:0:0:0:
240,64,1127,1,2,0:0:0:0:
240,64,1313,1,0,0:0:0:0:
240,64,1500,2,0,P|224:192|333:248,1,262.500010013581,4|0,0:0|0:0,0:0:0:0:
432,272,2618,1,0,0:0:0:0:
432,272,2804,1,0,0:0:0:0:
128,272,3363,6,0,L|128:208,1,52.5000020027161,2|0,0:0|0:0,0:0:0:0:
224,272,3736,2,0,L|224:336,1,52.5000020027161
320,272,4108,2,0,L|320:208,1,52.5000020027161,2|0,0:0|0:0,0:0:0:0:
400,160,4481,2,0,L|400:96,1,52.5000020027161
320,48,4854,2,0,L|256:48,1,52.5000020027161,2|0,0:0|0:0,0:0:0:0:
192,112,5226,2,0,L|128:112,1,52.5000020027161
80,192,5599,2,0,L|80:256,1,52.5000020027161,2|0,0:0|0:0,0:0:0:0:
128,64,7090,6,0,P|144:144|160:144,1,105,2|0,0:0|0:0,0:0:0:0:
208,160,7462,2,4,L|208:224,1,62.9999980773926
304,304,7835,1,0,0:0:0:0:
416,240,8208,1,0,0:0:0:0:
304,192,8580,2,0,L|224:144,1,62.9999980773926,2|0,0:0|0:0,0:0:0:0:
160,96,8953,2,0,P|128:128|144:144,1,62.9999980773926
128,240,9326,6,0,B|214:288|215:239|320:272,1,188.999994232178
384,240,10071,2,0,L|384:176,1,62.9999980773926,4|0,0:0|0:0,0:0:0:0:
336,96,10444,6,0,P|256:64|128:224,1,314.999990386963,2|0,0:0|0:0,0:0:0:0:
224,272,11562,1,0,0:0:0:0:
224,272,11748,1,0,0:0:0:0:
256,192,11934,12,0,13239,0:0:0:0:
128,96,13425,5,2,0:0:0:0:
128,96,13611,2,0,P|160:144|192:160,1,70,4|0,0:0|0:0,0:0:0:0:
288,192,13984,1,0,0:0:0:0:
288,192,14170,2,0,P|272:240|256:256,1,70
144,224,14543,2,0,L|64:224,1,70,2|0,0:0|0:0,0:0:0:0:
176,304,14916,2,0,L|256:304,1,70,2|0,0:0|0:0,0:0:0:0:
384,256,15288,5,2,0:0:0:0:
384,160,15475,2,0,L|384:80,1,70,4|0,0:0|0:0,0:0:0:0:
288,48,15847,1,0,0:0:0:0:
192,32,16034,2,0,L|122:32,1,70
80,128,16406,5,2,0:0:0:0:
80,128,16593,1,2,0:0:0:0:
160,192,16779,1,2,0:0:0:0:
160,192,16965,1,2,0:0:0:0:
272,192,17152,5,2,0:0:0:0:
272,192,17338,2,0,P|288:160|336:144,1,77.0000023498536,4|0,0:0|0:0,0:0:0:0:
432,144,17711,1,0,0:0:0:0:
432,144,17897,1,0,0:0:0:0:
384,256,18270,2,0,P|352:272|304:256,1,77.0000023498536,2|0,0:0|0:0,0:0:0:0:
192,192,18642,2,0,P|160:176|112:192,1,77.0000023498536
112,80,19015,5,2,0:0:0:0:
208,80,19201,2,0,L|288:80,1,77.0000023498536,4|0,0:0|0:0,0:0:0:0:
384,80,19574,1,0,0:0:0:0:
384,176,19760,2,0,L|384:256,1,77.0000023498536
256,192,20133,2,0,P|224:144|176:128,1,77.0000023498536
176,256,20506,2,0,P|192:288|236:304,1,77.0000023498536
352,240,20878,5,0,0:0:0:0:
352,240,21065,2,0,P|384:208|320:128,1,154.000004699707
240,80,21624,1,0,0:0:0:0:
144,272,21996,1,0,0:0:0:0:
368,256,22369,2,0,P|416:224|416:208,1,77.0000023498536,2|0,0:0|0:0,0:0:0:0:
288,176,22742,2,0,P|300:141|336:131,1,77.0000023498536,2|0,0:0|0:0,0:0:0:0:
224,64,23114,6,0,P|176:64|144:80,2,77.0000023498536
74,157,23673,2,0,P|55:205|110:296,1,154.000004699707
208,224,24232,1,4,0:0:0:0:
416,176,24605,2,0,L|416:96,1,77.0000023498536,2|0,0:0|0:0,0:0:0:0:
288,96,24978,2,0,L|288:192,1,77.0000023498536,2|0,0:0|0:0,0:0:0:0:
160,96,25350,5,2,0:0:0:0:
160,192,25537,2,0,L|224:240,1,77.0000023498536,4|0,0:0|0:0,0:0:0:0:
336,192,25909,1,0,0:0:0:0:
336,192,26096,1,0,0:0:0:0:
176,48,26468,2,0,P|128:48|112:80,1,77.0000023498536,2|0,0:0|0:0,0:0:0:0:
208,144,26841,2,0,P|160:144|144:176,1,77.0000023498536
256,240,27214,2,0,P|208:240|192:272,1,77.0000023498536,2|0,0:0|0:0,0:0:0:0:
384,240,27586,2,0,B|434:142|434:142|336:64,1,231.000007049561
160,96,28891,5,0,0:0:0:0:
160,96,28984,1,0,0:0:0:0:
160,96,29077,1,0,0:0:0:0:
272,112,29263,1,0,0:0:0:0:
272,112,29356,1,0,0:0:0:0:
272,112,29449,1,0,0:0:0:0:
384,160,29822,6,0,P|336:256|272:272,1,167.999994873047,4|0,0:0|0:0,0:0:0:0:
208,192,30381,2,0,P|208:128|240:128,1,83.9999974365235
368,48,30940,2,0,L|448:96,1,83.9999974365235,2|0,0:0|0:0,0:0:0:0:
352,144,31313,2,0,L|256:80,1,83.9999974365235
224,176,31686,1,4,0:0:0:0:
128,96,32059,6,2,P|112:208|144:224,1,167.999994873047,0|0,0:0|0:0,0:0:0:0:
272,240,32618,1,0,0:0:0:0:
384,176,32804,1,0,0:0:0:0:
240,64,33177,2,2,P|176:32|160:32,1,83.9999974365235
112,128,33549,2,0,P|144:224|224:240,1,167.999994873047,4|0,0:0|0:0,0:0:0:0:
352,128,34295,6,0,P|384:96|352:32,1,105.000004005432
272,192,34854,2,0,P|256:239|290:277,1,105.000004005432
160,128,35413,2,0,P|192:96|160:32,1,105.000004005432
80,192,35972,2,0,P|64:239|98:277,1,105.000004005432
256,272,36531,6,0,B|338:291|338:291|432:272,1,167.999994873047
448,176,37090,1,0,0:0:0:0:
384,112,37276,1,0,0:0:0:0:
288,112,37462,1,0,0:0:0:0:
208,160,37649,2,0,P|240:224|336:240,1,167.999994873047
160,320,38394,1,0,0:0:0:0:
144,144,38767,5,4,0:0:0:0:
320,64,39139,1,2,0:0:0:0:
368,192,39326,1,2,0:0:0:0:
304,304,39512,1,2,0:0:0:0:
176,320,39698,1,2,0:0:0:0:
80,240,39885,2,0,P|64:208|80:192,1,52.5000020027161,4|0,0:0|0:0,0:0:0:0:
160,112,40257,2,0,P|224:96|272:96,1,105.000004005432
368,208,41003,5,4,0:0:0:0:
224,80,41375,1,2,0:0:0:0:
128,160,41562,1,2,0:0:0:0:
176,272,41748,1,2,0:0:0:0:
304,304,41934,1,2,0:0:0:0:
416,240,42121,2,0,L|416:176,1,52.5000020027161,4|0,0:0|0:0,0:0:0:0:
304,96,42493,2,0,L|240:96,1,52.5000020027161
144,160,42866,2,0,L|144:224,1,52.5000020027161,4|0,0:0|0:0,0:0:0:0:
224,272,43239,5,4,0:0:0:0:
304,112,43611,2,0,L|368:80,1,52.5000020027161,2|0,0:0|0:0,0:0:0:0:
352,192,43984,2,0,L|305:215,1,52.5000020027161
304,320,44357,2,0,L|350:296,1,52.5000020027161,2|0,0:0|0:0,0:0:0:0:
208,320,44729,2,0,L|161:296,1,52.5000020027161
160,192,45102,2,0,L|206:215,1,52.5000020027161,2|0,0:0|0:0,0:0:0:0:
176,96,45475,6,0,P|240:64|272:80,1,105.000004005432
368,160,46034,1,0,0:0:0:0:
288,272,46220,2,0,P|246:300|196:287,1,105.000004005432
96,224,46779,5,0,0:0:0:0:
96,224,46872,1,0,0:0:0:0:
96,224,46965,2,0,L|96:160,1,52.5000020027161
192,96,47338,2,0,L|192:160,1,52.5000020027161
288,240,47711,1,2,0:0:0:0:
384,144,47897,2,2,P|416:96|368:64,1,105.000004005432
320,224,48456,2,2,P|287:260|313:302,1,105.000004005432
432,256,49015,1,0,0:0:0:0:
384,144,49201,6,0,L|320:112,1,52.5000020027161
272,240,49574,2,0,L|208:208,1,52.5000020027161
160,96,49947,2,2,P|128:144|128:192,1,105.000004005432
240,272,50506,1,2,0:0:0:0:
352,192,50692,2,2,P|349:140|319:98,1,105.000004005432
224,0,51251,1,0,0:0:0:0:
112,80,51437,6,4,L|112:144,1,52.5000020027161
240,144,51810,2,4,L|240:208,1,52.5000020027161
368,128,52183,2,2,P|400:192|400:224,1,105.000004005432
336,336,52742,1,2,0:0:0:0:
208,288,52928,2,2,P|144:272|112:240,1,105.000004005432
240,64,53673,1,0,0:0:0:0:
400,176,54046,6,0,L|400:240,1,52.5000020027161
304,160,54419,2,0,L|304:96,1,52.5000020027161
208,176,54791,2,0,L|208:240,1,52.5000020027161
336,256,55164,5,0,0:0:0:0:
432,224,55350,1,0,0:0:0:0:
352,160,55537,1,0,0:0:0:0:
448,128,55723,1,0,0:0:0:0:
352,64,55909,1,0,0:0:0:0:
400,160,56096,5,0,0:0:0:0:
400,160,56189,1,0,0:0:0:0:
400,160,56282,1,0,0:0:0:0:
400,160,56375,1,0,0:0:0:0:
400,160,56468,2,0,L|352:208,1,52.5000020027161
256,112,56841,1,0,0:0:0:0:
144,192,57027,1,0,0:0:0:0:
208,304,57400,5,4,0:0:0:0:
208,304,57586,1,4,0:0:0:0:
352,304,57773,1,4,0:0:0:0:
352,304,57959,1,4,0:0:0:0:
352,304,58145,6,0,P|400:224|352:144,1,181.999991668702,0|8,0:0|0:0,0:0:0:0:
272,224,58704,1,0,0:0:0:0:
224,128,58891,1,0,0:0:0:0:
176,224,59077,1,0,0:0:0:0:
112,128,59263,1,8,0:0:0:0:
112,128,59450,1,0,0:0:0:0:
240,224,60009,6,0,L|336:224,1,90.9999958343508,8|0,0:0|0:0,0:0:0:0:
240,128,60381,2,0,L|336:128,1,90.9999958343508,2|0,0:0|0:0,0:0:0:0:
240,32,60754,2,0,L|336:32,1,90.9999958343508,8|0,0:0|0:0,0:0:0:0:
144,112,61127,2,0,P|112:176|128:208,1,83.9999974365235
192,288,61499,2,0,P|263:292|286:265,1,83.9999974365235,8|0,0:0|0:0,0:0:0:0:
384,208,61872,2,0,P|371:137|339:121,1,83.9999974365235,2|0,0:0|0:0,0:0:0:0:
272,48,62245,2,0,P|200:51|180:80,1,83.9999974365235,8|0,0:0|0:0,0:0:0:0:
128,144,62804,1,0,0:0:0:0:
128,144,62990,2,0,P|128:208|144:224,1,83.9999974365235,8|0,0:0|0:0,0:0:0:0:
256,240,63363,5,4,0:0:0:0:
320,160,63549,1,4,0:0:0:0:
288,64,63736,1,8,0:0:0:0:
192,32,63922,1,4,0:0:0:0:
96,64,64108,6,0,P|80:128|186:197,1,181.999991668702,4|8,0:0|0:0,0:0:0:0:
203,69,64667,1,0,0:0:0:0:
256,192,64854,1,0,0:0:0:0:
304,64,65040,1,0,0:0:0:0:
416,112,65226,1,8,0:0:0:0:
416,112,65413,1,2,0:0:0:0:
304,288,65972,2,0,L|208:288,1,90.9999958343508,8|0,0:0|0:0,0:0:0:0:
96,208,66344,2,0,L|192:208,1,90.9999958343508,2|0,0:0|0:0,0:0:0:0:
304,128,66717,2,0,L|208:128,1,90.9999958343508,8|0,0:0|0:0,0:0:0:0:
96,48,67090,6,0,L|192:48,1,83.9999974365235,2|0,0:0|0:0,0:0:0:0:
336,80,67462,1,8,0:0:0:0:
336,80,67649,1,2,0:0:0:0:
352,208,67835,1,2,0:0:0:0:
352,208,68021,1,2,0:0:0:0:
352,208,68208,2,0,B|230:242|272:288|147:353,1,251.999992309571,8|0,0:0|0:0,0:0:0:0:
144,112,69139,5,4,0:0:0:0:
144,112,69232,1,4,0:0:0:0:
144,112,69326,2,0,L|208:176,1,83.9999974365235,2|0,0:0|0:0,0:0:0:0:
368,176,69698,6,0,P|368:240|352:256,1,83.9999974365235,10|0,0:0|0:0,0:0:0:0:
224,272,70071,2,0,P|176:288|128:240,1,90.9999958343508,2|0,0:0|0:0,0:0:0:0:
144,160,70444,2,0,P|208:144|256:176,1,90.9999958343508,8|0,0:0|0:0,0:0:0:0:
352,112,70816,2,0,P|400:160|384:208,1,90.9999958343508,2|0,0:0|0:0,0:0:0:0:
320,256,71189,1,8,0:0:0:0:
208,272,71375,2,0,P|160:224|176:96,1,181.999991668702
272,64,71934,6,0,L|368:80,1,90.9999958343508,8|0,0:0|0:0,0:0:0:0:
256,160,72307,2,0,L|352:176,1,90.9999958343508,2|0,0:0|0:0,0:0:0:0:
240,256,72680,2,0,L|336:272,1,90.9999958343508,8|0,0:0|0:0,0:0:0:0:
144,176,73052,6,0,P|128:128|160:96,1,97.9999970092774
240,208,73425,2,0,P|270:243|253:287,1,97.9999970092774,8|0,0:0|0:0,0:0:0:0:
368,160,73797,2,0,P|385:116|355:80,1,97.9999970092774
240,32,74170,1,8,0:0:0:0:
160,128,74356,6,0,P|129:163|147:207,1,97.9999970092774
272,256,74729,1,0,0:0:0:0:
272,256,74916,1,8,0:0:0:0:
384,224,75102,1,0,0:0:0:0:
384,224,75288,2,0,P|400:176|368:128,1,97.9999970092774
272,64,75661,6,8,L|160:96,1,97.9999970092774,8|0,0:0|0:0,0:0:0:0:
96,176,76034,2,0,L|96:272,1,90.9999958343508,2|0,0:0|0:0,0:0:0:0:
208,272,76406,2,0,L|208:160,1,90.9999958343508,8|0,0:0|0:0,0:0:0:0:
320,176,76779,2,0,L|320:288,1,90.9999958343508,2|0,0:0|0:0,0:0:0:0:
432,272,77152,2,0,L|432:176,1,90.9999958343508,8|0,0:0|0:0,0:0:0:0:
302,132,77524,1,4,0:0:0:0:
208,64,77711,5,2,0:0:0:0:
208,64,77804,1,2,0:0:0:0:
208,64,77897,2,0,P|96:160|160:288,1,272.999987503052,8|0,0:0|0:0,0:0:0:0:
240,272,78642,2,0,L|336:272,1,90.9999958343508,8|0,0:0|0:0,0:0:0:0:
336,144,79015,6,0,P|352:96|336:48,1,83.9999974365235,2|0,0:0|0:0,0:0:0:0:
217,64,79388,2,0,P|223:105|208:144,1,83.9999974365235,8|0,0:0|0:0,0:0:0:0:
80,144,79760,2,0,P|95:105|89:64,1,83.9999974365235,2|0,0:0|0:0,0:0:0:0:
176,224,80133,2,0,L|224:224,2,41.9999987182618,8|0|0,0:0|0:0|0:0,0:0:0:0:
352,256,80506,5,0,0:0:0:0:
352,256,80692,1,4,0:0:0:0:
416,128,80878,1,0,0:0:0:0:
416,128,81065,1,4,0:0:0:0:
304,48,81251,1,0,0:0:0:0:
304,48,81437,1,4,0:0:0:0:
192,128,81624,1,0,0:0:0:0:
192,128,81810,1,4,0:0:0:0:
144,256,81996,5,2,0:0:0:0:
272,256,82183,2,0,L|336:256,1,52.5000020027161,4|0,0:0|0:0,0:0:0:0:
416,160,82555,1,0,0:0:0:0:
416,160,82742,1,0,0:0:0:0:
288,64,83114,2,0,L|224:96,1,52.5000020027161
256,176,83487,2,0,L|304:144,1,52.5000020027161
176,144,83860,5,2,0:0:0:0:
176,144,84046,2,0,L|176:80,1,52.5000020027161,4|0,0:0|0:0,0:0:0:0:
80,32,84419,1,0,0:0:0:0:
80,32,84605,1,0,0:0:0:0:
96,176,84978,5,4,0:0:0:0:
96,176,85164,1,4,0:0:0:0:
224,176,85350,1,4,0:0:0:0:
224,176,85537,1,4,0:0:0:0:
304,96,85723,5,2,0:0:0:0:
400,160,85909,2,0,P|416:192|400:208,1,52.5000020027161,4|0,0:0|0:0,0:0:0:0:
320,272,86282,1,0,0:0:0:0:
320,272,86468,1,0,0:0:0:0:
208,208,86841,2,0,P|176:192|144:208,1,52.5000020027161
208,112,87214,2,0,P|176:96|144:112,1,52.5000020027161
96,160,87586,5,2,0:0:0:0:
96,160,87773,2,0,L|96:224,1,52.5000020027161,4|0,0:0|0:0,0:0:0:0:
256,256,88145,1,0,0:0:0:0:
256,256,88332,1,0,0:0:0:0:
400,48,88704,5,8,0:0:0:0:
160,272,89077,1,8,0:0:0:0:
