osu file format v14

[General]
AudioFilename: audio.mp3
AudioLeadIn: 0
PreviewTime: 53485
Countdown: 0
SampleSet: Soft
StackLeniency: 0.7
Mode: 0
LetterboxInBreaks: 0
WidescreenStoryboard: 1

[Editor]
Bookmarks: 10511,20511,30511,40511,50511,64261,79261
DistanceSpacing: 0.7
BeatDivisor: 8
GridSize: 32
TimelineZoom: 2.5

[Metadata]
Title:Guide (TV Size)
TitleUnicode:Guide (TV Size)
Artist:Hayami Saori
ArtistUnicode:早見沙織
Creator:- Ex -
Version:Hard
Source:ダンジョンに出会いを求めるのは間違っているだろうかⅣ 新章 迷宮篇
Tags:Danmachi Is It Wrong to Try Pick Up Girls in a Dungeon ni Deai wo Motomeru no wa Machigatteiru Darou ka shin fumi meikyuu hen IV New Chapter: The Labyrinth ダンまち myth familia anime japanese JPop J-Pop Pop ed ending Hestia Ryuu Lion -_Ex_- Maot Leominexd Leomine Wanpachi Cycopton Erisu Lanzhu Mayuzumi Fuyuko Gorou
BeatmapID:3846024
BeatmapSetID:1841114

[Difficulty]
HPDrainRate:5
CircleSize:4
OverallDifficulty:6
ApproachRate:7
SliderMultiplier:2.4
SliderTickRate:1

[Events]
//Background and Video events
Video,400,"video.mp4"
0,0,"bg.jpg",0,0
//Break Periods
//Storyboard Layer 0 (Background)
//Storyboard Layer 1 (Fail)
//Storyboard Layer 2 (Pass)
//Storyboard Layer 3 (Foreground)
//Storyboard Layer 4 (Overlay)
//Storyboard Sound Samples

[TimingPoints]
517,625,4,2,1,35,1,0
517,-200,4,2,1,35,0,0
10517,-200,4,2,1,40,0,0
20517,-200,4,2,1,45,0,0
30517,-166.666666666667,4,2,1,50,0,0
40517,-142.857142857143,4,2,1,55,0,0
48017,-142.857142857143,4,2,1,60,0,0
50517,-125,4,2,1,60,0,0
50829,-117.647058823529,4,2,1,35,0,0
51142,-111.111111111111,4,2,1,40,0,0
51454,-105.263157894737,4,2,1,45,0,0
51767,-100,4,2,1,50,0,0
52079,-100,4,2,1,55,0,0
52392,-100,4,2,1,70,0,0
52704,-125,4,2,1,75,0,0
53017,-125,4,2,1,70,0,0
54267,625,4,2,1,80,1,0
58642,-125,4,2,1,80,0,0
59267,-100,4,2,1,80,0,0
74267,-100,4,2,1,75,0,0
79267,-142.857142857143,4,2,1,55,0,0
81142,652.173913043478,4,2,1,35,1,0
81142,-142.857142857143,4,2,1,35,0,0
81794,625,4,2,1,35,1,0
81794,-142.857142857143,4,2,1,40,0,0
82106,646.551724137931,4,2,1,35,1,0
82106,-142.857142857143,4,2,1,35,0,0
83399,674.157303370787,4,2,1,35,1,0
83399,-142.857142857143,4,2,1,35,0,0
84073,718.562874251497,4,2,1,35,1,0
84073,-142.857142857143,4,2,1,35,0,0
84791,821.917808219178,4,2,1,35,1,0
84791,-142.857142857143,4,2,1,35,0,0
85201,875.912408759124,4,2,1,35,1,0
85201,-142.857142857143,4,2,1,35,0,0
85638,1132.07547169811,4,2,1,35,1,0
85638,-142.857142857143,4,2,1,35,0,0

[Colours]
Combo1 : 240,140,140
Combo2 : 200,180,220
Combo3 : 240,200,155
Combo4 : 150,185,220

[HitObjects]
351,114,517,6,0,P|406:96|476:117,2,120,2|2|2,2:2|2:2|2:2,0:0:0:0:
236,237,2392,2,0,P|224:281|228:311,1,60,2|2,2:2|2:2,0:0:0:0:
129,360,3017,6,0,P|127:330|117:302,1,60,2|2,2:2|2:2,0:0:0:0:
51,256,3642,2,0,P|13:249|-14:245,1,60,2|2,2:2|2:2,0:0:0:0:
111,185,4267,1,2,2:2:0:0:
43,122,4579,1,2,2:2:0:0:
124,46,4892,1,2,2:2:0:0:
180,101,5204,1,2,2:2:0:0:
275,8,5517,6,0,B|255:75|293:67|270:153,1,120,2|2,2:2|2:2,0:0:0:0:
440,23,6767,2,0,P|505:65|505:171,1,180,2|0,2:2|0:0,0:0:0:0:
457,253,8017,6,0,P|418:259|377:265,1,60,2|2,2:2|2:2,0:0:0:0:
322,214,8642,2,0,P|283:208|242:202,1,60,2|2,2:2|2:2,0:0:0:0:
184,256,9267,1,2,2:2:0:0:
29,34,10204,5,2,2:2:0:0:
72,115,10517,2,0,P|80:148|73:191,1,60,4|2,2:2|2:2,0:0:0:0:
41,194,10985,2,0,P|33:227|40:270,1,60,2|2,2:2|2:2,0:0:0:0:
64,371,11610,1,2,2:2:0:0:
177,289,11923,1,2,2:2:0:0:
206,318,12079,2,0,P|246:328|290:339,1,60,2|2,2:2|2:2,0:0:0:0:
378,297,12704,1,2,2:2:0:0:
478,368,13017,6,0,P|501:325|488:239,2,120,2|2|2,2:2|2:2|2:2,0:0:0:0:
369,209,14892,2,0,P|415:197|452:188,1,60,4|0,0:1|0:0,0:0:0:0:
501,113,15517,6,0,P|455:101|418:92,1,60,2|2,2:2|2:2,0:0:0:0:
413,68,15985,2,0,P|367:80|330:89,1,60,2|2,2:2|2:2,0:0:0:0:
253,14,16610,1,2,2:2:0:0:
165,96,16923,1,2,2:2:0:0:
135,66,17079,1,2,2:2:0:0:
19,125,17392,2,0,P|23:161|40:191,1,60,2|0,2:2|0:0,0:0:0:0:
119,260,18017,6,0,P|131:232|133:202,1,60,2|2,2:2|2:2,0:0:0:0:
122,162,18485,1,2,2:2:0:0:
257,194,18798,1,2,2:2:0:0:
295,72,19110,1,2,2:2:0:0:
324,42,19267,2,0,L|395:33,1,60,2|2,2:2|2:2,0:0:0:0:
450,127,19892,2,0,L|521:136,1,60,8|2,0:3|2:2,0:0:0:0:
410,210,20517,6,0,P|402:243|410:285,1,60,4|2,2:2|2:2,0:0:0:0:
412,309,20985,2,0,P|371:317|342:323,1,60,2|2,2:2|2:2,0:0:0:0:
236,251,21610,1,2,2:2:0:0:
154,338,21923,1,2,2:2:0:0:
112,336,22079,2,0,P|74:331|44:328,1,60,2|8,2:2|0:3,0:0:0:0:
0,213,22704,1,2,2:2:0:0:
114,161,23017,6,0,P|172:175|203:240,2,120,2|2|2,2:2|2:2|2:2,0:0:0:0:
303,52,24892,2,0,P|297:105|294:137,1,60,4|0,0:1|0:0,0:0:0:0:
279,221,25517,5,2,2:2:0:0:
279,221,26142,2,0,B|352:235|320:268|401:284,1,120,2|2,2:2|2:2,0:0:0:0:
266,321,27079,1,2,2:2:0:0:
178,281,27392,2,0,B|169:314|169:314|179:356,1,60,8|2,0:3|2:2,0:0:0:0:
287,222,28017,6,0,B|296:189|296:189|286:147,1,60,2|0,2:2|0:0,0:0:0:0:
224,58,28642,2,0,P|235:12|241:-15,1,60,2|0,2:2|0:0,0:0:0:0:
127,92,29267,2,0,P|81:103|54:109,1,60,2|0,2:2|0:0,0:0:0:0:
169,197,29892,1,8,0:3:0:0:
94,300,30204,1,2,2:2:0:0:
13,196,30517,6,0,P|4:152|-1:122,1,71.9999978027344,4|0,1:2|0:0,0:0:0:0:
102,80,31142,2,0,P|111:36|116:6,1,71.9999978027344,2|0,1:2|0:0,0:0:0:0:
197,122,31767,1,2,1:2:0:0:
278,47,32079,2,0,P|346:22|435:47,1,143.999995605469,2|2,2:2|2:2,0:0:0:0:
483,121,33017,6,0,B|489:207|442:181|448:277,1,143.999995605469,0|2,1:1|1:2,0:0:0:0:
386,141,33954,1,0,0:0:0:0:
312,217,34267,1,2,1:2:0:0:
228,143,34579,1,2,2:2:0:0:
131,192,34892,2,0,B|119:159|119:159|126:109,1,71.9999978027344,8|2,2:2|2:2,0:0:0:0:
206,248,35517,6,0,P|130:233|65:266,1,143.999995605469,0|2,1:1|1:2,0:0:0:0:
2,345,36454,1,0,0:0:0:0:
109,373,36767,1,2,1:2:0:0:
211,333,37079,2,0,P|281:344|357:377,1,143.999995605469,2|2,2:2|2:2,0:0:0:0:
402,284,38017,6,0,P|462:274|527:246,2,107.999996704102,2|2|2,1:2|2:2|2:2,0:0:0:0:
306,225,39267,2,0,P|298:182|292:142,1,71.9999978027344,0|2,1:1|2:2,0:0:0:0:
311,136,39735,1,2,2:2:0:0:
328,118,39892,1,10,2:2:0:0:
232,25,40204,1,0,3:3:0:0:
214,42,40360,1,0,3:0:0:0:
193,62,40517,6,0,P|144:55|97:49,1,83.9999974365235,4|0,1:2|0:0,0:0:0:0:
34,142,41142,2,0,P|83:149|130:155,1,83.9999974365235,2|0,1:2|0:0,0:0:0:0:
227,180,41767,1,2,1:2:0:0:
139,253,42079,2,0,P|194:288|294:276,1,167.999994873047,2|2,2:2|2:2,0:0:0:0:
321,374,43017,6,0,B|331:242|366:317|370:187,1,167.999994873047,0|2,1:1|1:2,0:0:0:0:
338,104,43954,1,0,0:0:0:0:
446,150,44267,1,2,1:2:0:0:
506,51,44579,1,2,2:2:0:0:
397,12,44892,2,0,P|345:22|287:33,1,83.9999974365235,8|2,2:2|2:2,0:0:0:0:
178,39,45517,6,0,P|175:98|240:150,1,125.999996154785,4|2,1:2|2:2,0:0:0:0:
247,137,46142,1,0,1:1:0:0:
350,279,46454,2,0,P|298:298|175:318,1,167.999994873047,6|0,2:2|0:0,0:0:0:0:
75,263,47392,2,0,P|49:253|-12:243,2,55.9999982910157,2|2|2,1:2|2:2|2:2,0:0:0:0:
176,215,48017,5,4,1:2:0:0:
98,95,48329,2,0,P|160:82|249:63,1,125.999996154785,2|0,2:2|0:0,0:0:0:0:
291,109,48954,2,0,P|322:115|366:125,1,41.9999987182618,2|2,2:2|2:2,0:0:0:0:
400,73,49267,2,0,P|475:78|514:141,1,125.999996154785,2|2,1:2|2:2,0:0:0:0:
505,194,49892,2,0,P|491:235|484:253,1,41.9999987182618,8|0,2:2|3:3,0:0:0:0:
457,331,50204,1,2,3:2:0:0:
389,177,50517,6,0,P|379:222|377:234,1,48,4|0,1:2|0:0,0:0:0:0:
309,292,50829,2,0,P|304:264|297:235,1,51.0000009727478,10|0,2:2|0:0,0:0:0:0:
191,207,51142,2,0,P|185:238|179:268,1,53.9999983520508,10|0,2:2|0:0,0:0:0:0:
71,322,51454,2,0,P|65:288|57:254,1,56.9999984779358,10|0,2:2|0:0,0:0:0:0:
93,161,51767,6,0,P|47:152|0:168,1,90,10|0,2:2|0:0,0:0:0:0:
1,192,52079,1,10,2:2:0:0:
152,75,52392,6,0,P|199:87|249:67,1,90,10|0,2:2|0:0,0:0:0:0:
244,48,52704,1,8,2:2:0:0:
360,161,53017,5,8,2:2:0:0:
360,161,53173,1,0,3:3:0:0:
236,230,53485,1,8,2:2:0:0:
201,225,53642,2,0,P|177:220|153:215,1,48,10|8,2:2|2:2,0:0:0:0:
84,308,53954,2,0,P|107:303|131:298,1,48,0|2,3:3|2:2,0:0:0:0:
226,326,54267,6,0,P|271:350|366:334,1,120,4|0,1:2|0:0,0:0:0:0:
338,347,54735,1,2,1:2:0:0:
435,307,54892,2,0,B|447:338|447:338|433:395,1,60,8|2,2:2|2:2,0:0:0:0:
360,252,55204,1,2,2:2:0:0:
360,252,55360,1,10,2:2:0:0:
433,170,55517,6,0,P|446:108|460:29,1,120,0|0,1:1|1:1,0:0:0:0:
456,52,55985,1,2,2:2:0:0:
353,32,56142,2,0,P|304:59|297:85,1,60,8|2,2:2|2:2,0:0:0:0:
204,40,56454,1,2,2:2:0:0:
204,40,56610,1,2,3:2:0:0:
247,152,56767,6,0,P|217:204|145:212,1,120,0|0,1:1|0:0,0:0:0:0:
74,159,57235,2,0,P|61:98|58:85,1,60,2|8,1:2|2:2,0:0:0:0:
4,232,57548,1,2,2:2:0:0:
4,232,57704,1,2,2:2:0:0:
78,309,57860,5,2,3:2:0:0:
78,309,57938,1,0,3:3:0:0:
78,309,58017,2,0,P|81:349|87:383,1,60,2|8,1:2|2:2,0:0:0:0:
181,291,58329,2,0,P|221:288|255:282,1,60,2|0,1:2|0:0,0:0:0:0:
136,187,58642,2,0,P|124:136|121:116,1,48,10|0,2:2|0:0,0:0:0:0:
102,46,58954,1,2,0:0:0:0:
208,15,59110,5,10,2:2:0:0:
208,15,59188,1,0,3:3:0:0:
208,15,59267,2,0,P|281:21|353:33,1,120,4|0,1:2|0:0,0:0:0:0:
327,27,59735,1,2,1:2:0:0:
425,74,59892,2,0,B|437:43|437:43|423:-14,1,60,8|2,2:2|2:2,0:0:0:0:
338,126,60204,1,2,2:2:0:0:
338,126,60360,1,10,2:2:0:0:
415,182,60517,6,0,P|476:193|501:199,2,60,0|8|0,1:1|2:2|1:1,0:0:0:0:
332,237,60985,1,2,2:2:0:0:
426,296,61142,2,0,P|436:345|441:374,1,60,8|2,2:2|2:2,0:0:0:0:
335,374,61454,1,2,2:2:0:0:
335,374,61610,1,10,2:2:0:0:
243,316,61767,6,0,P|229:350|232:388,1,60,0|8,1:1|2:2,0:0:0:0:
324,278,62079,2,0,P|322:248|309:221,1,60,2|0,2:2|1:1,0:0:0:0:
238,143,62392,2,0,P|166:127|117:116,1,120,10|10,2:2|2:2,0:0:0:0:
120,116,62860,1,2,2:2:0:0:
22,143,63017,6,0,P|33:179|61:202,1,60,2|8,1:2|2:2,0:0:0:0:
2,296,63329,2,0,P|35:313|71:310,1,60,2|0,3:2|3:3,0:0:0:0:
82,304,63563,1,0,3:3:0:0:
82,304,63642,2,0,P|115:287|151:290,1,60,10|8,2:2|2:2,0:0:0:0:
219,359,63954,1,0,3:3:0:0:
298,271,64110,5,2,1:2:0:0:
298,271,64188,1,0,1:1:0:0:
298,271,64267,2,0,P|286:210|273:151,1,120,4|0,1:2|0:0,0:0:0:0:
273,153,64735,1,2,1:2:0:0:
359,98,64892,2,0,P|401:106|443:115,1,60,8|2,2:2|2:2,0:0:0:0:
270,30,65204,1,2,2:2:0:0:
270,30,65360,1,10,2:2:0:0:
154,20,65517,6,0,B|160:97|184:61|187:161,1,120,0|0,1:1|1:1,0:0:0:0:
79,172,65985,2,0,P|24:163|-4:159,1,60,2|8,2:2|2:2,0:0:0:0:
11,270,66298,1,2,2:2:0:0:
114,273,66454,2,0,P|169:264|197:260,1,60,2|2,2:2|3:2,0:0:0:0:
267,215,66767,6,0,P|338:230|413:247,1,120,0|0,1:1|0:0,0:0:0:0:
472,275,67235,2,0,B|484:244|484:244|470:187,1,60,2|8,1:2|2:2,0:0:0:0:
425,133,67548,1,2,2:2:0:0:
425,133,67704,1,2,2:2:0:0:
477,36,67860,5,2,3:2:0:0:
477,36,67938,1,0,3:3:0:0:
477,36,68017,2,0,P|445:23|411:16,1,60,2|8,1:2|2:2,0:0:0:0:
325,57,68329,2,0,P|293:70|259:77,1,60,2|0,1:2|0:0,0:0:0:0:
176,19,68642,2,0,P|159:89|194:149,1,120,10|2,2:2|3:2,0:0:0:0:
176,131,69110,1,2,3:2:0:0:
267,215,69267,6,0,B|337:209|314:243|402:237,1,120,4|2,1:2|2:2,0:0:0:0:
383,237,69735,1,2,1:2:0:0:
284,306,69892,2,0,P|271:373|268:392,1,60,10|0,2:2|0:0,0:0:0:0:
190,268,70204,2,0,P|123:255|104:252,1,60,2|8,2:2|2:2,0:0:0:0:
28,267,70517,6,0,P|-5:201|11:142,1,120,0|2,1:1|1:2,0:0:0:0:
2,157,70985,1,2,2:2:0:0:
86,87,71142,2,0,P|96:26|99:2,1,60,10|0,2:2|0:0,0:0:0:0:
182,124,71454,1,2,2:2:0:0:
267,53,71610,5,0,3:3:0:0:
267,53,71688,1,0,3:3:0:0:
267,53,71767,2,0,P|300:40|334:33,1,60,4|8,1:2|2:2,0:0:0:0:
391,122,72079,2,0,P|358:134|324:141,1,60,2|2,2:2|1:2,0:0:0:0:
238,171,72392,1,10,2:2:0:0:
394,250,72704,6,0,P|423:255|450:266,1,60,10|2,2:2|3:2,0:0:0:0:
512,350,73017,1,0,1:1:0:0:
407,369,73173,1,8,2:2:0:0:
318,313,73329,2,0,P|306:341|301:371,1,60,0|0,3:3|1:1,0:0:0:0:
227,289,73642,1,8,2:2:0:0:
148,350,73798,1,0,3:3:0:0:
72,295,73954,2,0,L|7:285,1,60,0|0,1:1|3:3,0:0:0:0:
2,162,74267,5,4,1:2:0:0:
2,162,74423,2,0,P|64:150|88:141,1,60,2|0,1:2|0:0,0:0:0:0:
147,92,74735,2,0,P|206:92|264:146,1,120,2|0,1:2|0:0,0:0:0:0:
402,33,75360,1,8,2:2:0:0:
466,93,75517,5,2,1:2:0:0:
466,93,75673,2,0,L|453:174,1,60,10|0,2:2|0:0,0:0:0:0:
499,250,75985,2,0,P|451:269|382:313,1,120,2|0,2:2|0:0,0:0:0:0:
243,371,76610,1,0,1:1:0:0:
147,369,76767,5,2,1:2:0:0:
147,369,76923,2,0,P|134:314|128:285,1,60,2|0,1:2|0:0,0:0:0:0:
46,255,77235,2,0,P|30:208|52:136,1,120,2|0,1:2|0:0,0:0:0:0:
100,69,77704,1,14,2:2:0:0:
262,142,78017,6,0,P|267:184|270:215,1,60,2|8,1:2|2:2,0:0:0:0:
214,284,78329,1,2,1:2:0:0:
294,344,78485,2,0,L|292:378,2,30,2|0|8,3:2|3:3|2:2,0:0:0:0:
360,271,78798,1,0,3:3:0:0:
445,328,78954,1,0,1:1:0:0:
507,241,79110,1,0,1:0:0:0:
507,241,79188,1,0,1:0:0:0:
507,241,79267,1,4,1:2:0:0:
507,241,80204,6,0,P|499:194|497:181,1,41.9999987182618,2|2,2:2|2:2,0:0:0:0:
472,113,80517,1,4,2:2:0:0:
284,322,81142,2,0,P|224:334|106:354,1,167.999994873047,2|2,2:2|2:2,0:0:0:0:
24,253,82106,5,2,2:2:0:0:
98,138,82429,1,2,2:2:0:0:
231,185,82752,2,0,B|261:121|239:55|239:55|211:76,1,167.999994873047,2|2,2:2|2:2,2:2:0:0:
211,76,84073,1,2,2:2:0:0:
366,52,84432,6,0,P|410:42|461:24,1,83.9999974365235,2|2,0:2|0:2,0:0:0:0:
509,192,85201,2,0,P|498:236|474:292,1,83.9999974365235,2|2,2:2|2:2,2:2:0:0:
277,368,86204,5,2,2:2:0:0:
