osu file format v14

[General]
AudioFilename: audio.mp3
AudioLeadIn: 0
PreviewTime: 56243
Countdown: 0
SampleSet: Soft
StackLeniency: 0.7
Mode: 2
LetterboxInBreaks: 0
EpilepsyWarning: 1
WidescreenStoryboard: 1

[Editor]
Bookmarks: 1113,16697,41632,47866,57217,69684,82152,88386,97736
DistanceSpacing: 1.6
BeatDivisor: 2
GridSize: 8
TimelineZoom: 3.199999

[Metadata]
Title:Everyday World
TitleUnicode:エブリデイワールド
Artist:Hayami Saori & Touyama Nao
ArtistUnicode:早見沙織 & 東山奈央
Creator:Vanillas
Version:Salad
Source:やはりこのキャラソンはまちがっている。続
Tags:雪ノ下雪乃 Yukinoshita Yukino 由比ヶ浜結衣 Yuigahama Yui yahari ore no seishun love come wa machigatteiru. zoku ed ending tv size
BeatmapID:1232685
BeatmapSetID:582085

[Difficulty]
HPDrainRate:4
CircleSize:3
OverallDifficulty:7
ApproachRate:7
SliderMultiplier:1.45
SliderTickRate:2

[Events]
//Background and Video events
0,0,"bg.jpg",0,0
//Break Periods
//Storyboard Layer 0 (Background)
//Storyboard Layer 1 (Fail)
//Storyboard Layer 2 (Pass)
//Storyboard Layer 3 (Foreground)
//Storyboard Sound Samples

[TimingPoints]
-445,389.61038961039,4,2,1,100,1,0
1113,-100,4,2,1,70,0,0
7347,-100,4,2,1,80,0,0
16697,-100,4,2,1,70,0,0
47866,-100,4,2,1,75,0,0
57217,-100,4,2,1,85,0,1
75918,-100,4,2,1,85,0,0
82152,-100,4,2,1,85,0,1
88386,-100,4,2,1,85,0,0
94619,-100,4,2,1,85,0,1
106697,-100,4,2,1,85,0,0

[Colours]
Combo1 : 0,219,0
Combo2 : 255,109,79
Combo3 : 0,116,232

[HitObjects]
336,192,1113,6,0,L|432:192,2,72.5,8|0|8,0:0|0:0|0:0,0:0:0:0:
224,192,1697,2,0,P|128:176|64:192,1,145
184,136,2282,2,0,L|264:136,1,72.5,8|0,0:0|0:0,0:0:0:0:
144,136,2671,6,0,P|103:192|131:256,1,145,8|8,0:0|0:0,0:0:0:0:
240,256,3256,1,0,0:0:0:0:
152,184,3451,2,0,P|215:154|277:187,1,145,8|8,0:0|0:0,0:0:0:0:
368,248,4035,1,0,0:0:0:0:
208,285,4230,6,0,L|135:285,2,72.5,8|0|8,0:0|0:0|0:0,0:0:0:0:
104,248,4814,2,0,P|64:184|104:112,1,145
192,112,5399,2,0,L|264:112,1,72.5,8|0,0:0|0:0,0:0:0:0:
368,144,5788,6,0,L|208:144,1,145,8|8,0:0|0:0,0:0:0:0:
112,168,6373,1,0,0:0:0:0:
32,240,6567,2,0,P|64:296|144:280,1,145,8|8,0:0|0:0,0:0:0:0:
232,232,7152,1,0,0:0:0:0:
392,200,7347,6,0,L|472:200,2,72.5,8|0|8,0:0|0:0|0:0,0:0:0:0:
480,136,7931,2,0,P|408:129|340:153,1,145
248,240,8516,2,0,L|176:240,1,72.5,8|0,0:0|0:0,0:0:0:0:
64,192,8905,6,0,L|208:192,1,145,8|8,0:0|0:0,0:0:0:0:
320,192,9490,2,0,L|400:160,1,72.5,0|8,0:0|0:0,0:0:0:0:
288,112,9879,2,0,L|208:136,2,72.5,0|8|0,0:0|0:0|0:0,0:0:0:0:
472,160,10464,6,0,P|424:224|352:240,1,145,0|0,1:0|0:0,0:0:0:0:
264,200,11048,2,0,P|197:163|120:160,1,145,0|0,1:0|0:0,0:0:0:0:
320,208,11632,2,0,P|392:185|464:144,1,145,0|0,1:0|0:0,0:0:0:0:
368,216,12217,6,0,P|302:188|232:216,1,145,0|0,1:0|0:0,0:0:0:0:
144,160,12801,2,0,P|104:96|152:32,1,145,0|0,1:0|0:0,0:0:0:0:
264,24,13386,1,4,0:0:0:0:
256,192,13580,12,0,14749,0:0:0:0:
256,192,14944,12,0,16308,0:0:0:0:
448,192,16697,6,0,P|384:176|304:192,1,145,8|8,0:0|0:0,0:0:0:0:
112,288,17477,2,0,P|176:320|240:280,1,145,8|8,0:0|0:0,0:0:0:0:
312,208,18061,2,0,L|96:176,1,217.5,0|8,0:0|0:0,0:0:0:0:
328,176,19035,2,0,L|176:192,1,145,8|8,0:0|0:0,0:0:0:0:
72,184,19619,1,0,0:0:0:0:
176,144,19814,6,0,P|240:96|312:96,1,145,8|8,0:0|0:0,0:0:0:0:
464,240,20593,2,0,P|388:241|304:216,1,145,8|8,0:0|0:0,0:0:0:0:
408,160,21178,2,0,P|256:112|200:136,1,217.5,0|8,0:0|0:0,0:0:0:0:
352,296,22152,1,8,0:0:0:0:
248,256,22347,2,0,P|200:192|224:128,1,145
320,112,22931,6,0,P|248:96|152:112,1,145,8|8,0:0|0:0,0:0:0:0:
40,272,23710,2,0,P|112:287|200:272,1,145,8|8,0:0|0:0,0:0:0:0:
360,280,24490,2,0,P|400:216|352:160,1,145,8|8,0:0|0:0,0:0:0:0:
192,136,25269,2,0,L|336:120,1,145,8|8,0:0|0:0,0:0:0:0:
144,232,26048,6,0,L|71:224,2,72.5,8|0|8,0:0|0:0|0:0,0:0:0:0:
296,240,26632,2,0,P|368:192|488:248,1,217.5
248,256,27606,1,8,0:0:0:0:
360,264,27801,2,0,L|440:256,2,72.5,2|10|2,0:0|0:0|0:0,0:0:0:0:
240,208,28386,2,0,P|165:236|112:288,1,145,10|0,0:0|1:0,0:0:0:0:
440,296,29165,6,0,P|431:208|408:152,1,145,8|8,0:0|0:0,0:0:0:0:
216,136,29944,2,0,P|137:118|56:136,1,145,8|8,0:0|0:0,0:0:0:0:
0,216,30529,1,0,0:0:0:0:
112,224,30723,2,0,P|192:184|248:168,1,145,8|8,0:0|0:0,0:0:0:0:
424,200,31503,2,0,L|280:160,1,145,8|2,0:0|0:0,0:0:0:0:
56,80,32282,6,0,P|129:94|216:88,1,145,8|8,0:0|0:0,0:0:0:0:
112,168,32866,1,0,0:0:0:0:
216,120,33061,2,0,L|288:88,1,72.5,8|0,0:0|0:0,0:0:0:0:
384,120,33451,2,0,L|405:191,1,72.5,8|0,0:0|0:0,0:0:0:0:
304,232,33840,6,0,P|232:272|168:240,1,145,8|8,0:0|0:0,0:0:0:0:
72,256,34425,1,0,0:0:0:0:
136,168,34619,2,0,P|214:139|288:136,1,145,8|2,0:0|0:0,0:0:0:0:
384,176,35204,1,0,0:0:0:0:
240,200,35399,6,0,P|163:188|88:152,1,145,8|8,0:0|0:0,0:0:0:0:
320,136,36178,2,0,P|248:112|160:112,1,145,8|8,0:0|0:0,0:0:0:0:
80,160,36762,1,0,0:0:0:0:
192,168,36957,2,0,L|336:152,1,145,8|8,0:0|0:0,0:0:0:0:
120,296,37736,2,0,L|192:296,1,72.5,8|0,0:0|0:0,0:0:0:0:
352,296,38126,1,2,0:0:0:0:
160,184,38516,6,0,P|93:159|31:191,1,145,8|8,0:0|0:0,0:0:0:0:
264,184,39295,2,0,P|330:159|393:191,1,145,8|8,0:0|0:0,0:0:0:0:
280,184,39879,1,0,0:0:0:0:
168,216,40074,2,0,P|136:264|288:304,1,290,8|0,0:0|1:0,0:0:0:0:
192,240,41048,1,8,0:0:0:0:
112,152,41243,1,8,0:0:0:0:
192,240,41438,1,8,0:0:0:0:
288,184,41632,6,0,P|368:160|440:176,1,145,2|0,0:0|0:0,0:0:0:0:
224,320,42412,2,0,P|149:327|80:304,1,145,0|2,0:0|0:0,0:0:0:0:
168,240,42996,1,8,0:0:0:0:
272,200,43191,2,0,P|199:172|120:184,1,145,8|0,0:0|0:0,0:0:0:0:
312,296,43970,2,0,P|396:283|448:256,1,145
240,200,44749,6,0,P|168:200|104:160,1,145,2|0,0:0|0:0,0:0:0:0:
200,96,45334,2,0,L|344:104,1,145
448,296,46113,2,0,P|376:248|176:272,1,290,8|0,0:0|0:0,0:0:0:0:
440,128,47282,2,0,L|512:128,2,72.5,0|4|8,1:0|3:0|0:0,0:0:0:0:
256,128,47866,6,0,P|184:128|112:160,1,145,0|0,1:0|0:0,0:0:0:0:
232,184,48451,2,0,P|309:200|384:192,1,145,0|0,1:0|0:0,0:0:0:0:
472,128,49035,2,0,L|416:80,1,72.5,0|0,1:0|0:0,0:0:0:0:
232,88,49425,6,0,P|192:32|120:40,1,145,0|0,1:0|0:0,0:0:0:0:
232,64,50009,2,0,P|297:87|376:72,1,145,0|0,1:0|0:0,0:0:0:0:
304,168,50593,2,0,L|233:152,1,72.5,0|0,1:0|0:0,0:0:0:0:
48,168,50983,6,0,P|120:216|200:184,1,145,4|0,0:0|1:0,0:0:0:0:
392,128,51762,2,0,L|320:120,2,72.5,8|8|0,0:0|0:0|1:0,0:0:0:0:
40,144,52542,6,0,P|144:208|176:200,1,145,8|0,0:0|1:0,0:0:0:0:
392,176,53321,2,0,L|464:184,2,72.5,8|8|0,0:0|0:0|1:0,0:0:0:0:
72,192,54100,6,0,P|134:152|208:144,1,145,4|8,0:0|0:0,0:0:0:0:
280,232,54684,2,0,P|365:222|424:192,1,145,8|8,0:0|0:0,0:0:0:0:
328,136,55269,2,0,L|240:136,1,72.5,8|8,0:0|0:0,0:0:0:0:
144,176,55658,2,0,L|304:176,1,145,8|8,0:0|0:0,0:0:0:0:
488,176,56438,2,0,P|424:146|344:152,1,145,8|8,0:0|0:0,0:0:0:0:
72,216,57217,6,0,P|152:232|224:208,1,145,4|0,0:0|1:0,0:0:0:0:
104,88,57996,2,0,L|31:88,2,72.5,8|0|0,0:0|0:0|1:0,0:0:0:0:
224,88,58580,2,0,P|312:64|384:160,1,217.5,0|0,0:0|1:0,0:0:0:0:
288,224,59360,1,0,0:0:0:0:
384,192,59555,6,0,L|472:168,2,72.5,8|8|0,0:0|0:0|1:0,0:0:0:0:
208,256,60334,2,0,P|104:232|72:192,1,145,8|0,0:0|1:0,0:0:0:0:
336,144,61113,2,0,L|416:136,2,72.5,8|8|0,0:0|0:0|1:0,0:0:0:0:
128,88,61892,6,0,P|48:144|32:200,1,145,8|0,0:0|1:0,0:0:0:0:
248,232,62671,2,0,P|325:231|400:200,1,145,8|0,0:0|1:0,0:0:0:0:
480,136,63256,1,0,0:0:0:0:
336,128,63451,6,0,L|184:112,1,145,8|0,0:0|1:0,0:0:0:0:
256,200,64035,2,0,P|341:190|400:160,1,145,8|0,0:0|0:0,0:0:0:0:
144,112,64814,2,0,P|208:56|304:160,1,217.5,8|0,0:0|1:0,0:0:0:0:
208,168,65593,2,0,P|281:184|352:168,2,145
64,176,66567,6,0,P|128:120|240:248,1,290,8|8,0:0|0:0,0:0:0:0:
328,312,67542,2,0,L|416:304,2,72.5,0|0|0,0:0|1:0|0:0,0:0:0:0:
176,320,68126,2,0,L|94:297,2,72.5,8|0|4,0:0|1:0|0:3,0:0:0:0:
376,200,68905,2,0,L|456:200,2,72.5,8|0|0,0:0|0:0|1:0,0:0:0:0:
112,200,69684,6,0,P|200:160|264:176,1,145,4|0,0:0|1:0,0:0:0:0:
96,328,70464,2,0,L|16:336,2,72.5,8|0|0,0:0|0:0|1:0,0:0:0:0:
200,352,71048,2,0,P|280:376|368:280,1,217.5,0|0,0:0|1:0,0:0:0:0:
136,192,72022,2,0,P|216:152|272:152,1,145,8|0,0:0|1:0,0:0:0:0:
384,168,72606,1,0,0:0:0:0:
224,192,72801,6,0,P|248:264|320:304,1,145,8|0,0:0|1:0,0:0:0:0:
424,304,73386,2,0,P|360:240|360:384,1,290
408,312,74360,2,0,P|335:281|264:288,1,145,8|0,0:0|1:0,0:0:0:0:
160,264,74944,1,8,0:0:0:0:
232,168,75139,2,0,L|160:176,2,72.5,8|4|8,0:0|3:0|0:0,0:0:0:0:
368,288,75918,6,0,P|304:244|224:240,1,145,4|0,0:0|0:0,0:0:0:0:
40,144,76697,2,0,P|129:134|184:104,1,145,0|0,1:0|0:0,0:0:0:0:
296,96,77282,1,8,0:0:0:0:
360,192,77477,2,0,L|440:200,2,72.5,8|8|8,0:0|0:0|0:0,0:0:0:0:
136,184,78256,2,0,L|64:176,2,72.5,0|4|8,1:0|3:0|0:0,0:0:0:0:
352,144,79035,6,0,P|278:123|200:128,1,145,4|0,0:0|0:0,0:0:0:0:
104,152,79619,1,0,0:0:0:0:
216,104,79814,2,0,L|296:104,2,72.5,0|0|0,1:0|0:0|0:0,0:0:0:0:
112,144,80399,2,0,P|192:256|272:256,1,217.5
480,232,81373,2,0,P|432:168|368:136,1,145,0|0,1:0|0:0,0:0:0:0:
128,224,82152,6,0,P|216:200|272:200,1,145,12|0,0:0|1:0,0:0:0:0:
376,216,82736,1,0,0:0:0:0:
456,144,82931,2,0,P|408:64|344:40,1,145,8|0,0:0|1:0,0:0:0:0:
128,144,83710,2,0,P|205:165|272:160,1,145,8|0,0:0|1:0,0:0:0:0:
480,208,84490,2,0,P|426:191|328:184,1,145,8|0,0:0|1:0,0:0:0:0:
232,192,85074,1,0,0:0:0:0:
336,136,85269,6,0,P|261:105|192:96,1,145,8|0,0:0|1:0,0:0:0:0:
80,96,85853,1,0,0:0:0:0:
184,144,86048,2,0,L|256:144,2,72.5,8|8|0,0:0|0:0|1:0,0:0:0:0:
432,152,86827,2,0,L|328:192,2,96.6666666666667,0|0|0,1:0|1:0|1:0,0:0:0:0:
296,80,87606,2,0,P|219:48|152:64,1,145,4|8,3:0|0:0,0:0:0:0:
296,248,88386,5,2,0:0:0:0:
296,248,89944,5,2,0:0:0:0:
160,240,91503,5,2,0:0:0:0:
272,240,92282,1,2,0:0:0:0:
384,240,93061,1,2,0:0:0:0:
96,192,94619,6,0,P|184:144|248:144,1,145,4|8,0:0|0:0,0:0:0:0:
424,240,95399,2,0,P|366:203|280:216,1,145,8|8,0:0|0:0,0:0:0:0:
80,248,96178,1,8,0:0:0:0:
208,320,96567,2,0,P|300:303|376:312,1,145,4|0,1:0|0:0,0:0:0:0:
448,264,97152,2,0,L|368:248,1,72.5,8|8,0:0|0:0,0:0:0:0:
128,192,97736,6,0,P|221:160|288:160,1,145,12|0,0:0|1:0,0:0:0:0:
376,160,98321,1,0,0:0:0:0:
464,224,98516,2,0,L|392:232,2,72.5,8|0|0,0:0|0:0|1:0,0:0:0:0:
216,192,99295,6,0,P|163:158|80:152,1,145,8|0,0:0|1:0,0:0:0:0:
152,232,99879,1,0,0:0:0:0:
256,256,100074,2,0,L|336:256,2,72.5,8|0|0,0:0|0:0|1:0,0:0:0:0:
448,160,100853,6,0,P|381:117|296:112,1,145,0|0,1:0|1:0,0:0:0:0:
128,216,101632,2,0,P|200:234|272:224,1,145,0|0,1:0|1:0,0:0:0:0:
472,136,102412,1,0,1:0:0:0:
256,112,102801,2,0,L|136:200,2,145,0|8|0,1:0|0:0|1:0,0:0:0:0:
448,208,103970,6,0,P|376:168|296:176,1,145,4|0,0:0|0:0,0:0:0:0:
208,216,104555,2,0,P|285:207|344:168,1,145,4|4,0:0|3:0,0:0:0:0:
456,160,105139,1,8,0:0:0:0:
136,120,105529,6,0,P|201:81|296:80,1,145,4|0,0:0|0:0,0:0:0:0:
376,120,106113,2,0,P|302:137|232:128,1,145,4|0,0:0|0:0,0:0:0:0:
120,128,106697,1,2,0:0:0:0:
256,192,106892,12,0,110204,0:0:0:0:
