osu file format v14

[General]
AudioFilename: audio.mp3
AudioLeadIn: 0
PreviewTime: 55080
Countdown: 0
SampleSet: Soft
StackLeniency: 0.7
Mode: 0
LetterboxInBreaks: 0
WidescreenStoryboard: 0

[Editor]
Bookmarks: 62330
DistanceSpacing: 1.5
BeatDivisor: 4
GridSize: 4
TimelineZoom: 1.4

[Metadata]
Title:Odoriko (TV Size)
TitleUnicode:踊り子 (TV Size)
Artist:Hayami Saori & Takagaki Ayahi
ArtistUnicode:早見 沙織 & 高垣 彩陽
Creator:DvxNL
Version:Wings of Tears
Source:Sora no Otoshimono: Forte
Tags:ending vintage jpop nymph
BeatmapID:1236597
BeatmapSetID:584525

[Difficulty]
HPDrainRate:6
CircleSize:4
OverallDifficulty:8
ApproachRate:8.5
SliderMultiplier:1.8
SliderTickRate:1

[Events]
//Background and Video events
0,0,"Nymph_by_a_takagi-d4mbmzf.png",0,0
//Break Periods
//Storyboard Layer 0 (Background)
//Storyboard Layer 1 (Fail)
//Storyboard Layer 2 (Pass)
//Storyboard Layer 3 (Foreground)
//Storyboard Sound Samples

[TimingPoints]
80,500,4,2,1,50,1,0
8080,-83.3333333333333,4,2,1,55,0,0
16080,-76.9230769230769,4,2,1,60,0,0
24080,-83.3333333333333,4,2,2,60,0,0
54330,-76.9230769230769,4,2,2,60,0,0
55330,-66.6666666666667,4,2,2,70,0,0
56080,-66.6666666666667,4,2,2,70,0,1
70705,-80,4,2,2,60,0,0
71330,-66.6666666666667,4,2,1,70,0,0
72080,-66.6666666666667,4,2,1,80,0,1
85080,-66.6666666666667,4,2,1,60,0,1
86080,-66.6666666666667,4,2,1,40,0,0
87830,-66.6666666666667,4,2,1,5,0,0

[Colours]
Combo1 : 225,162,247
Combo2 : 170,255,170
Combo3 : 166,172,255
Combo4 : 253,87,112

[HitObjects]
208,240,80,6,0,P|185:300|183:365,1,90,2|0,0:0|0:0,0:0:0:0:
156,192,580,2,0,P|118:244|99:306,1,90,2|0,0:0|0:0,0:0:0:0:
116,136,1080,2,0,P|66:177|31:232,1,90,2|0,0:0|0:0,0:0:0:0:
96,68,1580,2,0,P|37:95|-10:139,1,90,2|0,0:0|0:0,0:0:0:0:
304,240,2080,6,0,P|326:300|328:365,1,90,2|0,0:0|0:0,0:0:0:0:
356,192,2580,2,0,P|393:244|412:306,1,90,2|0,0:0|0:0,0:0:0:0:
396,136,3080,2,0,P|445:177|480:232,1,90,2|0,0:0|0:0,0:0:0:0:
416,68,3580,1,2,0:0:0:0:
457,84,3705,1,0,0:0:0:0:
494,110,3830,1,0,0:0:0:0:
376,244,4080,6,0,P|331:241|290:222,1,90,2|0,0:0|0:0,0:0:0:0:
133,212,4580,2,0,P|177:214|218:233,1,90,2|0,0:0|0:0,0:0:0:0:
368,320,5080,2,0,P|323:317|282:298,1,90,2|0,0:0|0:0,0:0:0:0:
125,288,5580,2,0,P|169:290|210:309,1,90,2|0,0:0|0:0,0:0:0:0:
179,110,6080,6,0,L|224:32,1,90,2|0,0:0|0:0,0:0:0:0:
204,208,6580,2,0,L|248:129,1,90,2|0,0:0|0:0,0:0:0:0:
307,170,7080,2,0,L|352:92,1,90,2|0,0:0|0:0,0:0:0:0:
332,268,7580,1,2,0:0:0:0:
354,228,7705,1,0,0:0:0:0:
376,189,7830,1,0,0:0:0:0:
464,32,8080,6,0,P|400:60|332:48,1,107.999996704102,2|0,0:0|0:0,0:0:0:0:
204,36,8580,1,8,0:0:0:0:
336,132,8830,1,0,0:0:0:0:
208,116,9080,2,0,P|142:141|103:198,1,107.999996704102,2|0,0:0|0:0,0:0:0:0:
40,296,9580,1,8,0:0:0:0:
46,135,9830,1,0,0:0:0:0:
103,347,10080,6,0,P|123:287|79:227,1,107.999996704102,2|0,0:0|0:0,0:0:0:0:
46,135,10580,1,8,0:0:0:0:
180,224,10830,1,0,0:0:0:0:
288,32,11080,1,2,0:0:0:0:
168,140,11330,1,0,0:0:0:0:
316,204,11580,1,8,0:0:0:0:
316,204,11705,1,0,0:0:0:0:
316,204,11830,1,0,0:0:0:0:
104,68,12080,6,0,P|160:76|212:112,1,107.999996704102,2|0,0:0|0:0,0:0:0:0:
216,264,12580,1,8,0:0:0:0:
284,116,12830,1,0,0:0:0:0:
296,276,13080,2,0,P|326:228|333:165,1,107.999996704102,2|0,0:0|0:0,0:0:0:0:
252,40,13580,1,8,0:0:0:0:
392,124,13830,1,0,0:0:0:0:
180,168,14080,5,6,0:0:0:0:
320,84,14330,1,0,0:0:0:0:
104,88,14580,1,8,0:0:0:0:
236,260,14830,1,0,0:0:0:0:
340,72,15080,1,6,0:0:0:0:
156,180,15330,1,0,0:0:0:0:
372,228,15580,1,8,0:0:0:0:
372,228,15705,1,0,0:0:0:0:
372,228,15830,1,0,0:0:0:0:
128,104,16080,6,0,P|192:108|232:184,1,116.999994644165,2|0,0:0|0:0,0:0:0:0:
256,256,16455,1,0,0:0:0:0:
256,256,16580,2,0,P|288:196|340:160,1,116.999994644165,8|0,0:0|0:0,0:0:0:0:
484,92,17080,1,0,0:0:0:0:
372,228,17330,1,0,0:0:0:0:
484,92,17580,1,8,0:0:0:0:
308,92,17830,1,0,0:0:0:0:
396,296,18080,5,2,0:0:0:0:
256,188,18330,1,0,0:0:0:0:
204,356,18580,1,8,0:0:0:0:
332,236,18830,1,0,0:0:0:0:
116,148,19080,1,0,0:0:0:0:
244,268,19330,1,0,0:0:0:0:
236,92,19580,1,8,0:0:0:0:
236,92,19705,1,0,0:0:0:0:
236,92,19830,1,0,0:0:0:0:
104,272,20080,5,2,0:0:0:0:
312,164,20330,1,2,0:0:0:0:
72,128,20580,2,0,L|204:148,1,116.999994644165,8|0,0:0|0:0,0:0:0:0:
360,172,21080,5,2,0:0:0:0:
152,64,21330,1,2,0:0:0:0:
392,28,21580,2,0,L|260:48,1,116.999994644165,8|0,0:0|0:0,0:0:0:0:
104,72,22080,5,2,0:0:0:0:
252,164,22330,1,2,0:0:0:0:
80,320,22580,5,8,0:0:0:0:
152,160,22830,1,2,0:0:0:0:
376,240,23080,5,2,0:0:0:0:
204,272,23330,1,2,0:0:0:0:
276,48,23580,1,10,0:0:0:0:
276,48,23705,1,2,0:0:0:0:
276,48,23830,1,2,0:0:0:0:
140,140,24080,6,2,P|180:188|256:208,1,107.999996704102
376,156,24580,1,8,0:0:0:0:
196,276,24830,1,2,0:0:0:0:
364,292,25080,2,0,P|324:264|260:264,1,107.999996704102,0|2,0:0|0:0,0:0:0:0:
112,316,25580,1,8,0:0:0:0:
288,192,25830,1,0,0:0:0:0:
436,308,26080,2,0,P|424:248|364:216,1,107.999996704102
220,208,26580,1,8,0:0:0:0:
428,148,26830,5,2,0:0:0:0:
244,36,27080,1,0,0:0:0:0:
266,262,27330,1,2,0:0:0:0:
356,128,27580,1,8,0:0:0:0:
172,24,27830,1,0,0:0:0:0:
266,262,28080,2,0,P|244:200|192:168,1,107.999996704102,2|0,0:0|0:0,0:0:0:0:
52,152,28580,1,8,0:0:0:0:
204,96,28830,1,0,0:0:0:0:
348,172,29080,5,2,0:0:0:0:
256,36,29330,1,2,0:0:0:0:
220,248,29580,1,8,0:0:0:0:
292,104,29830,1,0,0:0:0:0:
392,296,30080,2,0,P|340:264|268:268,1,107.999996704102,2|0,0:0|0:0,0:0:0:0:
140,300,30580,1,8,0:0:0:0:
256,120,30830,1,2,0:0:0:0:
256,336,31080,5,2,0:0:0:0:
304,180,31330,1,2,0:0:0:0:
100,248,31580,1,10,0:0:0:0:
100,248,31705,1,2,0:0:0:0:
100,248,31830,1,0,0:0:0:0:
368,276,32080,2,0,P|312:272|256:240,1,107.999996704102,2|0,0:0|0:0,0:0:0:0:
124,172,32580,1,8,0:0:0:0:
256,76,32830,1,2,0:0:0:0:
164,272,33080,5,2,0:0:0:0:
68,80,33330,1,2,0:0:0:0:
256,76,33580,1,8,0:0:0:0:
52,164,33830,1,0,0:0:0:0:
124,20,34080,2,0,P|148:68|120:144,1,107.999996704102,2|0,0:0|0:0,0:0:0:0:
46,250,34580,2,0,P|102:234|166:238,1,107.999996704102,8|2,0:0|0:0,0:0:0:0:
348,320,35080,5,0,0:0:0:0:
224,216,35330,1,2,0:0:0:0:
424,132,35580,1,8,0:0:0:0:
308,244,35830,1,0,0:0:0:0:
256,92,36080,2,0,P|304:84|364:96,1,107.999996704102,2|0,0:0|0:0,0:0:0:0:
488,200,36580,1,8,0:0:0:0:
272,172,36830,1,2,0:0:0:0:
484,124,37080,6,0,P|420:168|424:232,1,107.999996704102,0|2,0:0|0:0,0:0:0:0:
400,356,37580,2,0,P|384:280|364:244,1,107.999996704102,8|2,0:0|0:0,0:0:0:0:
172,164,38080,1,2,0:0:0:0:
328,116,38330,6,0,B|264:120|264:120|208:92,1,107.999996704102,4|0,0:0|0:0,0:0:0:0:
144,112,38705,2,0,B|168:152|168:152|240:188,1,107.999996704102,4|0,0:0|0:0,0:0:0:0:
320,208,39080,2,0,L|244:256,1,53.9999983520508,2|0,0:0|0:0,0:0:0:0:
216,284,39330,6,0,B|164:308|164:308|96:280,1,107.999996704102,4|0,0:0|0:0,0:0:0:0:
64,232,39705,2,0,B|120:212|120:212|192:240,1,107.999996704102,4|0,0:0|0:0,0:0:0:0:
288,304,40080,1,2,0:0:0:0:
208,152,40330,5,0,0:0:0:0:
420,116,40580,1,8,0:0:0:0:
280,196,40830,1,2,0:0:0:0:
240,40,41080,1,0,0:0:0:0:
376,208,41330,1,2,0:0:0:0:
165,229,41580,1,8,0:0:0:0:
268,108,41830,1,0,0:0:0:0:
240,320,42080,2,0,P|232:244|240:208,1,107.999996704102,2|0,0:0|0:0,0:0:0:0:
344,92,42580,1,8,0:0:0:0:
165,229,42830,5,2,0:0:0:0:
372,164,43080,1,0,0:0:0:0:
160,124,43330,1,2,0:0:0:0:
256,252,43580,1,8,0:0:0:0:
244,40,43830,1,0,0:0:0:0:
60,148,44080,2,0,P|100:188|168:180,1,107.999996704102
288,148,44580,1,8,0:0:0:0:
128,116,44830,5,2,0:0:0:0:
188,252,45080,1,0,0:0:0:0:
168,48,45330,1,2,0:0:0:0:
32,216,45580,1,8,0:0:0:0:
240,184,45830,1,0,0:0:0:0:
60,68,46080,2,0,P|92:132|144:160,1,107.999996704102,2|0,0:0|0:0,0:0:0:0:
248,336,46580,2,0,P|206:301|187:252,1,107.999996704102,8|2,0:0|0:0,0:0:0:0:
276,48,47080,5,0,0:0:0:0:
388,164,47330,1,2,0:0:0:0:
172,176,47580,1,8,0:0:0:0:
364,76,47830,1,0,0:0:0:0:
332,288,48080,2,0,P|264:272|224:228,1,107.999996704102,2|0,0:0|0:0,0:0:0:0:
160,104,48580,1,8,0:0:0:0:
204,316,48830,1,2,0:0:0:0:
328,212,49080,5,0,0:0:0:0:
112,212,49330,1,2,0:0:0:0:
316,288,49580,1,8,0:0:0:0:
240,84,49830,1,0,0:0:0:0:
404,36,50080,2,0,P|364:100|308:136,1,107.999996704102,2|0,0:0|0:0,0:0:0:0:
180,152,50580,1,8,0:0:0:0:
396,168,50830,1,2,0:0:0:0:
204,72,51080,5,0,0:0:0:0:
192,232,51330,1,2,0:0:0:0:
403,284,51580,1,8,0:0:0:0:
276,164,51830,1,0,0:0:0:0:
183,330,52080,2,0,P|259:293|296:256,1,107.999996704102,2|0,0:0|0:0,0:0:0:0:
298,61,52580,2,0,P|272:131|281:179,1,107.999996704102,8|2,0:0|0:0,0:0:0:0:
403,284,53080,2,2,P|320:218|275:213,1,107.999996704102
164,172,53580,2,0,B|112:156|80:168|80:168|96:200,1,107.999996704102,8|2,0:0|0:0,0:0:0:0:
160,281,54080,5,2,0:0:0:0:
220,128,54330,1,2,0:0:0:0:
220,128,54455,2,0,P|172:100|120:116,1,58.4999973220826,0|8,0:0|0:0,0:0:0:0:
90,188,54705,5,0,0:0:0:0:
113,219,54830,1,0,0:0:0:0:
136,250,54955,1,0,0:0:0:0:
160,281,55080,1,0,0:0:0:0:
244,364,55330,5,2,0:0:0:0:
336,112,55580,1,2,0:0:0:0:
90,188,55830,1,2,0:0:0:0:
384,208,56080,6,0,P|320:232|228:212,1,135.000005149842,2|0,0:0|0:0,0:0:0:0:
92,104,56580,2,0,P|164:120|224:176,1,135.000005149842,8|0,0:0|0:0,0:0:0:0:
188,360,57080,2,0,P|164:296|184:224,1,135.000005149842,2|0,0:0|0:0,0:0:0:0:
428,124,57580,1,8,0:0:0:0:
216,204,57830,1,2,0:0:0:0:
448,340,58080,6,0,P|408:280|316:256,1,135.000005149842,2|0,0:0|0:0,0:0:0:0:
89,187,58580,2,0,P|118:247|180:268,1,135.000005149842,8|0,0:0|0:0,0:0:0:0:
336,144,59081,1,0,0:0:0:0:
236,320,59330,1,2,0:0:0:0:
112,80,59580,1,10,0:0:0:0:
388,192,59830,1,2,0:0:0:0:
56,256,60080,5,2,0:0:0:0:
112,80,60330,1,0,0:0:0:0:
320,252,60580,5,10,0:0:0:0:
132,180,60830,1,0,0:0:0:0:
360,32,61080,5,2,0:0:0:0:
236,192,61330,1,0,0:0:0:0:
12,40,61580,5,10,0:0:0:0:
212,68,61830,1,0,0:0:0:0:
12,252,62080,5,2,0:0:0:0:
112,80,62330,1,0,0:0:0:0:
112,80,62455,1,0,0:0:0:0:
112,80,62580,2,0,P|152:156|200:176,1,135.000005149842,8|0,0:0|0:0,0:0:0:0:
376,208,63080,1,0,0:0:0:0:
108,220,63330,5,2,0:0:0:0:
348,344,63580,1,2,0:0:0:0:
256,20,63830,1,2,0:0:0:0:
160,272,64080,2,0,P|180:208|128:148,1,135.000005149842
120,332,64580,1,8,0:0:0:0:
328,160,64830,5,0,0:0:0:0:
72,280,65080,1,2,0:0:0:0:
340,252,65330,1,2,0:0:0:0:
108,116,65580,1,10,0:0:0:0:
256,344,65830,1,0,0:0:0:0:
388,108,66080,1,0,0:0:0:0:
144,220,66330,1,0,0:0:0:0:
144,220,66455,1,0,0:0:0:0:
144,220,66580,2,0,P|220:204|288:232,1,135.000005149842,8|0,0:0|0:0,0:0:0:0:
432,348,67080,1,0,0:0:0:0:
328,176,67330,5,2,0:0:0:0:
116,344,67580,1,10,0:0:0:0:
376,272,67830,1,2,0:0:0:0:
152,120,68080,6,0,P|152:212|132:280,1,135.000005149842,4|0,0:0|0:0,0:0:0:0:
208,60,68580,1,8,0:0:0:0:
76,216,68830,1,0,0:0:0:0:
360,120,69080,6,0,P|360:212|380:280,1,135.000005149842,4|0,0:0|0:0,0:0:0:0:
304,60,69580,1,8,0:0:0:0:
436,216,69830,1,0,0:0:0:0:
168,260,70080,1,0,0:0:0:0:
168,260,70330,6,0,B|216:216|216:216|236:148,1,135.000005149842,2|0,0:0|0:0,0:0:0:0:
316,124,70705,2,0,L|280:252,1,112.5,2|0,0:0|0:0,0:0:0:0:
364,220,71080,2,8,L|388:124,1,56.25,2|0,0:0|0:0,0:0:0:0:
396,92,71330,5,0,0:0:0:0:
371,55,71455,1,0,0:0:0:0:
330,35,71580,1,2,0:0:0:0:
286,39,71705,1,0,0:0:0:0:
250,64,71830,1,2,0:0:0:0:
231,104,71955,1,0,0:0:0:0:
234,149,72080,5,4,0:0:0:0:
420,344,72330,1,0,0:0:0:0:
316,124,72580,1,8,0:0:0:0:
164,264,72830,1,0,0:0:0:0:
412,204,73080,1,0,0:0:0:0:
92,64,73330,5,2,0:0:0:0:
208,324,73580,1,10,0:0:0:0:
396,132,73830,1,2,0:0:0:0:
260,272,74080,5,0,0:0:0:0:
120,128,74330,1,0,0:0:0:0:
396,132,74580,1,8,0:0:0:0:
200,192,74830,1,0,0:0:0:0:
264,4,75080,1,0,0:0:0:0:
368,252,75330,5,2,0:0:0:0:
36,188,75580,1,10,0:0:0:0:
344,52,75830,1,2,0:0:0:0:
148,236,76080,5,2,0:0:0:0:
396,132,76330,1,0,0:0:0:0:
92,64,76580,5,8,0:0:0:0:
304,212,76830,1,0,0:0:0:0:
444,28,77080,5,2,0:0:0:0:
188,120,77330,1,0,0:0:0:0:
440,344,77580,5,8,0:0:0:0:
332,88,77830,1,0,0:0:0:0:
124,260,78080,1,2,0:0:0:0:
388,232,78330,1,0,0:0:0:0:
388,232,78455,1,0,0:0:0:0:
388,232,78580,2,0,P|308:236|240:196,1,135.000005149842,8|0,0:0|0:0,0:0:0:0:
92,64,79080,1,0,0:0:0:0:
388,48,79330,5,2,0:0:0:0:
256,284,79580,1,2,0:0:0:0:
256,16,79830,1,2,0:0:0:0:
336,272,80080,6,0,P|292:212|232:204,1,135.000005149842
64,312,80580,1,8,0:0:0:0:
260,128,80830,1,2,0:0:0:0:
228,328,81080,5,2,0:0:0:0:
204,76,81330,1,2,0:0:0:0:
452,188,81580,1,8,0:0:0:0:
192,264,81830,1,0,0:0:0:0:
388,232,82080,1,2,0:0:0:0:
280,60,82330,1,0,0:0:0:0:
280,60,82455,1,0,0:0:0:0:
280,60,82580,2,0,B|244:120|292:148|264:200,1,135.000005149842,8|0,0:0|0:0,0:0:0:0:
116,324,83080,1,0,0:0:0:0:
340,108,83330,5,2,0:0:0:0:
240,284,83580,1,10,0:0:0:0:
140,108,83830,1,2,0:0:0:0:
408,152,84080,6,0,P|336:192|276:160,1,135.000005149842,4|0,0:0|0:0,0:0:0:0:
188,48,84580,1,8,0:0:0:0:
220,208,84830,1,0,0:0:0:0:
456,340,85080,6,0,P|404:264|336:268,1,135.000005149842,4|0,0:0|0:0,0:0:0:0:
256,364,85580,1,8,0:0:0:0:
300,208,85830,1,0,0:0:0:0:
144,256,86080,1,4,0:0:0:0:
256,192,86205,12,0,87955,0:0:0:0:
