osu file format v14

[General]
AudioFilename: audio.mp3
AudioLeadIn: 0
PreviewTime: 55080
Countdown: 0
SampleSet: Soft
StackLeniency: 0.7
Mode: 0
LetterboxInBreaks: 0
WidescreenStoryboard: 0

[Editor]
Bookmarks: 32580,62330
DistanceSpacing: 1.5
BeatDivisor: 4
GridSize: 4
TimelineZoom: 1.4

[Metadata]
Title:Odoriko (TV Size)
TitleUnicode:踊り子 (TV Size)
Artist:Hayami Saori & Takagaki Ayahi
ArtistUnicode:早見 沙織 & 高垣 彩陽
Creator:DvxNL
Version:Light Insane
Source:Sora no Otoshimono: Forte
Tags:ending vintage jpop nymph
BeatmapID:1237157
BeatmapSetID:584525

[Difficulty]
HPDrainRate:5
CircleSize:4
OverallDifficulty:7
ApproachRate:8
SliderMultiplier:1.6
SliderTickRate:1

[Events]
//Background and Video events
0,0,"Nymph_by_a_takagi-d4mbmzf.png",0,0
//Break Periods
//Storyboard Layer 0 (Background)
//Storyboard Layer 1 (Fail)
//Storyboard Layer 2 (Pass)
//Storyboard Layer 3 (Foreground)
//Storyboard Sound Samples

[TimingPoints]
80,500,4,2,1,50,1,0
8080,-83.3333333333333,4,2,1,55,0,0
16080,-76.9230769230769,4,2,1,60,0,0
24080,-83.3333333333333,4,2,2,60,0,0
54330,-76.9230769230769,4,2,2,60,0,0
55330,-66.6666666666667,4,2,2,70,0,0
56080,-66.6666666666667,4,2,2,70,0,1
70705,-80,4,2,2,60,0,0
71330,-66.6666666666667,4,2,1,70,0,0
72080,-66.6666666666667,4,2,1,80,0,1
85080,-66.6666666666667,4,2,1,60,0,1
86080,-66.6666666666667,4,2,1,40,0,0
87830,-66.6666666666667,4,2,1,5,0,0

[Colours]
Combo1 : 225,162,247
Combo2 : 170,255,170
Combo3 : 166,172,255
Combo4 : 253,87,112

[HitObjects]
64,64,80,6,0,L|160:88,1,80,2|0,0:0|0:0,0:0:0:0:
64,136,580,2,0,L|160:160,1,80,2|0,0:0|0:0,0:0:0:0:
64,208,1080,2,0,L|160:232,1,80,2|0,0:0|0:0,0:0:0:0:
64,280,1580,2,0,L|160:304,1,80,2|0,0:0|0:0,0:0:0:0:
288,280,2080,6,0,L|210:260,1,80,2|0,0:0|0:0,0:0:0:0:
288,208,2580,2,0,L|210:188,1,80,2|0,0:0|0:0,0:0:0:0:
288,136,3080,2,0,L|210:116,1,80,2|0,0:0|0:0,0:0:0:0:
288,64,3580,1,2,0:0:0:0:
249,54,3705,1,0,0:0:0:0:
210,44,3830,1,0,0:0:0:0:
356,80,4080,6,0,P|404:88|452:72,1,80,2|0,0:0|0:0,0:0:0:0:
332,144,4580,2,0,P|376:164|426:161,1,80,2|0,0:0|0:0,0:0:0:0:
292,200,5080,2,0,P|329:230|379:241,1,80,2|0,0:0|0:0,0:0:0:0:
236,240,5580,2,0,P|264:279|309:302,1,80,2|0,0:0|0:0,0:0:0:0:
160,248,6080,6,0,P|112:240|64:256,1,80,2|0,0:0|0:0,0:0:0:0:
184,184,6580,2,0,P|139:163|89:166,1,80,2|0,0:0|0:0,0:0:0:0:
224,128,7080,2,0,P|186:97|136:86,1,80,2|0,0:0|0:0,0:0:0:0:
280,88,7580,1,2,0:0:0:0:
258,54,7705,1,0,0:0:0:0:
225,32,7830,1,0,0:0:0:0:
40,96,8080,6,0,P|112:112|168:96,1,95.9999970703126,2|0,0:0|0:0,0:0:0:0:
184,24,8580,1,8,0:0:0:0:
168,168,8830,1,0,0:0:0:0:
320,216,9080,2,0,P|256:176|224:176,1,95.9999970703126,2|0,0:0|0:0,0:0:0:0:
104,224,9580,1,8,0:0:0:0:
200,96,9830,1,0,0:0:0:0:
56,28,10080,6,0,P|120:32|160:48,1,95.9999970703126,2|0,0:0|0:0,0:0:0:0:
272,164,10580,2,0,P|344:188|380:176,1,95.9999970703126,8|0,0:0|0:0,0:0:0:0:
392,16,11080,2,0,P|344:56|336:116,1,95.9999970703126,2|0,0:0|0:0,0:0:0:0:
388,252,11580,1,8,0:0:0:0:
388,252,11705,1,0,0:0:0:0:
388,252,11830,1,0,0:0:0:0:
216,264,12080,6,0,P|272:240|328:248,1,95.9999970703126,2|0,0:0|0:0,0:0:0:0:
424,324,12580,1,8,0:0:0:0:
352,180,12830,1,0,0:0:0:0:
512,224,13080,2,0,P|448:228|408:212,1,95.9999970703126,2|0,0:0|0:0,0:0:0:0:
364,84,13580,1,8,0:0:0:0:
372,272,13830,1,0,0:0:0:0:
256,144,14080,6,0,P|268:196|336:248,1,95.9999970703126,6|0,0:0|0:0,0:0:0:0:
248,60,14580,1,8,0:0:0:0:
208,228,14830,1,0,0:0:0:0:
164,92,15080,1,6,0:0:0:0:
128,232,15330,1,0,0:0:0:0:
44,140,15580,1,8,0:0:0:0:
44,140,15705,1,0,0:0:0:0:
44,140,15830,1,0,0:0:0:0:
176,164,16080,6,0,P|224:132|236:88,1,103.999995239258,2|0,0:0|0:0,0:0:0:0:
112,36,16580,1,8,0:0:0:0:
300,124,16830,1,0,0:0:0:0:
332,4,17080,5,0,0:0:0:0:
260,200,17330,1,0,0:0:0:0:
380,160,17580,2,0,P|352:100|300:88,1,103.999995239258,8|0,0:0|0:0,0:0:0:0:
228,268,18080,6,0,P|280:272|324:240,1,103.999995239258,2|0,0:0|0:0,0:0:0:0:
260,128,18580,1,8,0:0:0:0:
384,296,18830,1,0,0:0:0:0:
388,172,19080,1,0,0:0:0:0:
268,340,19330,1,0,0:0:0:0:
476,348,19580,1,8,0:0:0:0:
476,348,19705,1,0,0:0:0:0:
476,348,19830,1,0,0:0:0:0:
372,168,20080,6,0,L|388:296,1,103.999995239258,2|2,0:0|0:0,0:0:0:0:
392,344,20580,1,8,0:0:0:0:
140,168,21080,2,0,L|124:296,1,103.999995239258,2|2,0:0|0:0,0:0:0:0:
120,344,21580,1,8,0:0:0:0:
304,152,22080,5,2,0:0:0:0:
156,100,22330,1,2,0:0:0:0:
308,136,22580,1,8,0:0:0:0:
160,84,22830,1,2,0:0:0:0:
232,256,23080,1,2,0:0:0:0:
276,52,23330,1,2,0:0:0:0:
216,152,23580,1,10,0:0:0:0:
216,152,23705,1,2,0:0:0:0:
216,152,23830,1,2,0:0:0:0:
304,280,24080,5,2,0:0:0:0:
168,236,24330,2,0,P|88:240|56:260,1,95.9999970703126,2|8,0:0|0:0,0:0:0:0:
200,304,24830,2,0,P|240:256|232:204,1,95.9999970703126,2|0,0:0|0:0,0:0:0:0:
160,100,25330,5,2,0:0:0:0:
312,216,25580,1,8,0:0:0:0:
240,92,25830,1,0,0:0:0:0:
308,288,26080,2,0,P|356:272|384:224,1,95.9999970703126,0|0,0:0|0:0,0:0:0:0:
316,108,26580,1,8,0:0:0:0:
456,240,26830,2,0,P|440:192|396:164,1,95.9999970703126,2|0,0:0|0:0,0:0:0:0:
268,160,27330,5,2,0:0:0:0:
424,304,27580,1,8,0:0:0:0:
460,116,27830,1,0,0:0:0:0:
304,224,28080,2,0,P|240:228|208:196,1,95.9999970703126,2|0,0:0|0:0,0:0:0:0:
124,100,28580,2,0,L|148:224,1,95.9999970703126,8|0,0:0|0:0,0:0:0:0:
164,308,29080,5,2,0:0:0:0:
68,200,29330,1,2,0:0:0:0:
244,124,29580,1,8,0:0:0:0:
92,276,29830,1,0,0:0:0:0:
76,84,30080,2,0,P|132:88|184:108,1,95.9999970703126,2|0,0:0|0:0,0:0:0:0:
234,219,30580,2,0,L|246:99,1,95.9999970703126,8|2,0:0|0:0,0:0:0:0:
256,8,31080,5,2,0:0:0:0:
169,100,31330,1,2,0:0:0:0:
360,84,31580,1,10,0:0:0:0:
360,84,31705,1,2,0:0:0:0:
360,84,31830,1,0,0:0:0:0:
360,256,32080,2,0,P|368:208|356:140,1,95.9999970703126,2|0,0:0|0:0,0:0:0:0:
284,280,32580,2,0,P|312:324|380:332,1,95.9999970703126,8|2,0:0|0:0,0:0:0:0:
456,240,33080,5,2,0:0:0:0:
292,204,33330,1,2,0:0:0:0:
428,312,33580,1,8,0:0:0:0:
424,120,33830,1,0,0:0:0:0:
312,276,34080,2,0,P|244:264|224:232,1,95.9999970703126,2|0,0:0|0:0,0:0:0:0:
96,108,34580,2,0,P|164:120|184:152,1,95.9999970703126,8|2,0:0|0:0,0:0:0:0:
160,280,35080,5,0,0:0:0:0:
252,112,35330,1,2,0:0:0:0:
36,152,35580,1,8,0:0:0:0:
168,208,35830,1,0,0:0:0:0:
120,40,36080,2,0,P|120:100|136:148,1,95.9999970703126,2|0,0:0|0:0,0:0:0:0:
264,184,36580,1,8,0:0:0:0:
96,200,36830,1,2,0:0:0:0:
264,108,37080,6,0,P|312:124|336:192,1,95.9999970703126,0|2,0:0|0:0,0:0:0:0:
340,304,37580,2,0,P|356:240|388:216,1,95.9999970703126,8|2,0:0|0:0,0:0:0:0:
496,184,38080,1,2,0:0:0:0:
376,100,38330,6,0,B|360:52|360:52|372:8,1,95.9999970703126,4|0,0:0|0:0,0:0:0:0:
432,48,38705,2,0,B|448:96|448:96|436:140,1,95.9999970703126,4|0,0:0|0:0,0:0:0:0:
372,172,39080,2,0,L|292:184,1,47.9999985351563,2|0,0:0|0:0,0:0:0:0:
252,184,39330,6,0,B|206:188|206:188|162:164,1,95.9999970703126,4|0,0:0|0:0,0:0:0:0:
142,92,39706,2,0,B|187:87|187:87|231:111,1,95.9999970703126,4|0,0:0|0:0,0:0:0:0:
216,256,40080,1,2,0:0:0:0:
232,112,40330,1,0,0:0:0:0:
304,240,40580,1,8,0:0:0:0:
184,172,40830,1,2,0:0:0:0:
304,92,41080,5,0,0:0:0:0:
216,240,41330,1,2,0:0:0:0:
388,244,41580,1,8,0:0:0:0:
232,112,41830,1,0,0:0:0:0:
256,320,42080,2,0,P|292:280|304:240,1,95.9999970703126,2|0,0:0|0:0,0:0:0:0:
252,44,42580,1,8,0:0:0:0:
376,180,42830,6,0,P|316:152|272:156,1,95.9999970703126,2|0,0:0|0:0,0:0:0:0:
152,208,43330,1,2,0:0:0:0:
303,240,43580,1,8,0:0:0:0:
160,112,43830,1,0,0:0:0:0:
120,300,44080,2,0,P|68:252|60:216,1,95.9999970703126,0|0,0:0|0:0,0:0:0:0:
84,88,44580,1,8,0:0:0:0:
8,288,44830,5,2,0:0:0:0:
216,164,45080,1,0,0:0:0:0:
44,156,45330,1,2,0:0:0:0:
120,300,45580,1,8,0:0:0:0:
160,112,45830,1,0,0:0:0:0:
80,232,46080,2,0,P|136:224|184:256,1,95.9999970703126,2|0,0:0|0:0,0:0:0:0:
288,324,46580,1,8,0:0:0:0:
320,184,46830,1,2,0:0:0:0:
208,324,47080,5,0,0:0:0:0:
368,252,47330,1,2,0:0:0:0:
208,148,47580,1,8,0:0:0:0:
288,324,47830,1,0,0:0:0:0:
388,144,48080,2,0,P|344:112|288:112,1,95.9999970703126,2|0,0:0|0:0,0:0:0:0:
248,228,48580,1,8,0:0:0:0:
272,40,48830,1,2,0:0:0:0:
324,204,49080,5,0,0:0:0:0:
172,116,49330,1,2,0:0:0:0:
388,144,49580,1,8,0:0:0:0:
248,228,49830,1,0,0:0:0:0:
372,72,50080,2,0,P|324:104|320:164,1,95.9999970703126,2|0,0:0|0:0,0:0:0:0:
400,264,50580,2,0,P|320:264|264:284,1,95.9999970703126,8|2,0:0|0:0,0:0:0:0:
120,324,51080,5,0,0:0:0:0:
292,336,51330,1,2,0:0:0:0:
192,172,51580,1,8,0:0:0:0:
208,316,51830,1,0,0:0:0:0:
272,188,52080,2,0,P|256:128|212:88,1,95.9999970703126,2|0,0:0|0:0,0:0:0:0:
76,72,52580,2,0,P|152:68|188:48,1,95.9999970703126,8|2,0:0|0:0,0:0:0:0:
332,16,53080,2,0,P|256:20|220:40,1,95.9999970703126,0|2,0:0|0:0,0:0:0:0:
172,140,53580,5,8,0:0:0:0:
356,84,53830,1,2,0:0:0:0:
244,240,54080,1,2,0:0:0:0:
380,164,54330,2,0,P|412:148|424:136,2,51.999997619629,2|0|8,0:0|0:0|0:0,0:0:0:0:
276,148,54705,2,0,P|260:128|252:96,3,51.999997619629,2|0|2|4,0:0|0:0|0:0|0:0,0:0:0:0:
320,232,55330,5,2,0:0:0:0:
320,232,55455,1,0,0:0:0:0:
320,232,55580,1,2,0:0:0:0:
181,163,55830,1,2,0:0:0:0:
408,168,56080,2,0,P|332:144|252:144,1,120.000004577637,2|0,0:0|0:0,0:0:0:0:
100,284,56580,2,0,P|156:264|232:276,1,120.000004577637,8|0,0:0|0:0,0:0:0:0:
336,348,57080,5,2,0:0:0:0:
181,163,57330,1,0,0:0:0:0:
168,344,57580,1,8,0:0:0:0:
296,216,57830,1,2,0:0:0:0:
88,160,58080,2,0,P|36:104|28:40,1,120.000004577637,2|0,0:0|0:0,0:0:0:0:
120,260,58580,2,0,P|172:204|180:140,1,120.000004577637,8|0,0:0|0:0,0:0:0:0:
104,40,59080,1,0,0:0:0:0:
308,68,59330,5,2,0:0:0:0:
140,104,59580,1,10,0:0:0:0:
340,136,59830,1,2,0:0:0:0:
140,176,60080,2,0,L|296:204,1,120.000004577637,2|0,0:0|0:0,0:0:0:0:
408,336,60580,2,0,L|252:308,1,120.000004577637,10|0,0:0|0:0,0:0:0:0:
88,300,61080,2,0,B|128:288|128:288|176:288|176:288|232:264,1,120.000004577637,2|0,0:0|0:0,0:0:0:0:
456,216,61580,2,0,B|416:228|416:228|368:228|368:228|312:252,1,120.000004577637,10|0,0:0|0:0,0:0:0:0:
224,344,62080,5,2,0:0:0:0:
152,208,62330,1,0,0:0:0:0:
152,208,62455,1,0,0:0:0:0:
152,208,62580,1,8,0:0:0:0:
328,168,62830,1,0,0:0:0:0:
203,276,63080,1,0,0:0:0:0:
180,36,63330,5,2,0:0:0:0:
288,248,63580,1,2,0:0:0:0:
88,112,63830,1,2,0:0:0:0:
264,148,64080,2,0,B|348:164|348:164|320:132,1,120.000004577637,0|0,0:0|0:0,0:0:0:0:
180,36,64580,1,8,0:0:0:0:
224,208,64830,5,0,0:0:0:0:
280,76,65080,1,2,0:0:0:0:
136,188,65330,1,2,0:0:0:0:
348,236,65580,1,10,0:0:0:0:
196,120,65830,1,0,0:0:0:0:
220,336,66080,1,0,0:0:0:0:
348,236,66330,1,0,0:0:0:0:
348,236,66455,1,0,0:0:0:0:
348,236,66580,2,0,P|376:152|372:92,1,120.000004577637,8|0,0:0|0:0,0:0:0:0:
268,216,67080,5,0,0:0:0:0:
440,88,67330,1,2,0:0:0:0:
416,268,67580,1,10,0:0:0:0:
236,148,67830,1,2,0:0:0:0:
452,172,68080,2,0,P|388:148|360:96,1,120.000004577637,4|0,0:0|0:0,0:0:0:0:
416,268,68580,1,8,0:0:0:0:
60,172,69080,6,0,P|124:148|152:96,1,120.000004577637,4|0,0:0|0:0,0:0:0:0:
88,276,69580,2,0,P|150:247|206:264,1,120.000004577637,8|0,0:0|0:0,0:0:0:0:
312,352,70080,1,0,0:0:0:0:
304,208,70330,6,0,B|292:140|292:140|320:72,1,120.000004577637,2|0,0:0|0:0,0:0:0:0:
388,92,70705,2,0,B|364:148|364:148|376:208,1,100,2|0,0:0|0:0,0:0:0:0:
440,168,71080,2,0,P|436:224|368:256,1,100,2|0,0:0|0:0,0:0:0:0:
336,276,71455,1,0,0:0:0:0:
289,287,71580,1,2,0:0:0:0:
243,277,71705,1,0,0:0:0:0:
206,248,71830,1,2,0:0:0:0:
185,205,71955,1,0,0:0:0:0:
186,157,72080,6,0,B|192:76|192:76|216:116,1,120.000004577637,4|0,0:0|0:0,0:0:0:0:
92,188,72580,2,0,P|52:132|44:64,1,120.000004577637,8|0,0:0|0:0,0:0:0:0:
264,160,73080,1,0,0:0:0:0:
128,252,73330,1,2,0:0:0:0:
192,76,73580,1,10,0:0:0:0:
244,280,73830,1,2,0:0:0:0:
116,120,74080,2,0,P|172:160|240:148,1,120.000004577637
408,52,74580,2,0,P|348:40|276:52,1,120.000004577637,8|0,0:0|0:0,0:0:0:0:
220,157,75080,1,0,0:0:0:0:
400,144,75330,5,2,0:0:0:0:
184,64,75580,1,10,0:0:0:0:
244,280,75830,1,2,0:0:0:0:
324,52,76080,6,0,L|280:192,1,120.000004577637,2|0,0:0|0:0,0:0:0:0:
112,132,76580,6,0,L|156:272,1,120.000004577637,8|0,0:0|0:0,0:0:0:0:
354,319,77080,2,0,B|318:299|318:299|286:299|286:299|226:271,1,120.000004577637,2|0,0:0|0:0,0:0:0:0:
160,52,77580,2,0,B|171:91|171:91|193:114|193:114|216:176,1,120.000004577637,8|0,0:0|0:0,0:0:0:0:
243,279,78080,1,2,0:0:0:0:
288,104,78330,1,0,0:0:0:0:
288,104,78455,1,0,0:0:0:0:
288,104,78580,1,8,0:0:0:0:
172,188,78830,5,0,0:0:0:0:
344,236,79080,1,0,0:0:0:0:
248,44,79330,5,2,0:0:0:0:
164,268,79580,1,2,0:0:0:0:
372,148,79830,1,2,0:0:0:0:
132,136,80080,2,0,B|224:140|224:140|208:108,1,120.000004577637
92,32,80580,5,8,0:0:0:0:
104,212,80830,1,2,0:0:0:0:
272,80,81080,1,2,0:0:0:0:
32,108,81330,1,2,0:0:0:0:
224,208,81580,1,8,0:0:0:0:
92,32,81830,1,0,0:0:0:0:
32,188,82080,1,2,0:0:0:0:
224,208,82330,1,0,0:0:0:0:
224,208,82455,1,0,0:0:0:0:
224,208,82580,2,0,P|208:144|216:84,1,120.000004577637,8|0,0:0|0:0,0:0:0:0:
300,208,83080,1,0,0:0:0:0:
124,160,83330,5,2,0:0:0:0:
264,32,83580,1,10,0:0:0:0:
256,276,83830,1,2,0:0:0:0:
400,168,84080,2,0,B|340:136|340:136|280:124|280:124|188:80,1,180.000006866455,4|0,0:0|0:0,0:0:0:0:
180,44,84580,2,0,B|160:100|160:100|168:168,1,120.000004577637,8|0,0:0|0:0,0:0:0:0:
188,300,85080,1,4,0:0:0:0:
92,228,85330,1,0,0:0:0:0:
236,228,85580,2,0,B|320:208|320:208|272:160,1,120.000004577637,8|0,0:0|0:0,0:0:0:0:
180,44,86080,1,4,0:0:0:0:
256,192,86205,12,0,87955,0:0:0:0:
